#TITLE:MAMACITA;
#SUBTITLE:;
#ARTIST:JEONYOUL;
#TITLETRANSLIT:;
#SUBTITLETRANSLIT:;
#ARTISTTRANSLIT:;
#CREDIT:;
#BANNER:MAMACITA banner.png;
#BACKGROUND:MAMACITA bg.png;
#LYRICSPATH:;
#CDTITLE:;
#MUSIC:MAMACITA.mp3;
#OFFSET:-7.240;
#SAMPLESTART:34.480;
#SAMPLELENGTH:15.000;
#SELECTABLE:YES;
#BPMS:0.000=88.000;
#STOPS:;
#BGCHANGES:;

//---------------dance-single - ----------------
#NOTES:
     dance-single:
     :
     Hard:
     9:
     0.475,0.432,0.242,0.048,0.574:
1000
0100
0010
0001
0010
0000
1000
0100
,
0011
0000
0010
0100
0010
0001
1000
0010
,
0100
0000
0001
0010
0001
0000
0010
0100
0000
0000
0010
0000
1010
0000
0000
0000
,
0100
0000
0100
0000
0010
0100
1000
0010
0000
0010
0000
0000
0100
0000
0010
0000
,
0001
0000
1000
0010
1000
0000
0100
0001
0000
0010
0000
0100
0000
1000
0000
0000
,
0010
0000
0100
0001
1000
0000
0010
0100
0000
0000
0000
0010
0000
0001
0010
0100
,
0010
0000
0100
0000
0001
0010
0000
1000
0000
0010
0000
0100
0000
0001
0000
0010
,
0100
0000
0010
1000
0100
0001
0000
0010
0000
0000
0000
0010
0000
0100
1000
0010
,
0110
0000
0001
0000
0010
0100
0000
0010
0000
1000
0000
0001
0000
0100
0000
0000
,
0110
0000
0001
0010
0000
0010
0100
0001
0010
0000
1000
0010
0000
0001
0000
0000
,
1100
0000
1000
0000
1100
0000
0110
0000
0011
0000
0000
1000
0000
0100
0010
0000
,
0110
0000
0000
0000
0000
0000
0000
0000
0000
2000
0000
0000
0000
0000
0000
0000
0000
0000
3100
0000
0000
0000
0000
0000
0001
0000
0000
0000
0010
0000
0000
0000
0000
0100
0000
0000
1000
0000
0000
0000
0000
0000
0010
0000
0000
0000
0000
0000
,
0100
0000
0001
0000
0010
0000
1000
0000
0020
0000
0000
0130
0000
0001
0010
1000
,
0010
0000
0100
0001
0000
0001
0100
0000
0110
0000
0000
0001
0010
0000
0010
0100
,
0000
0001
0000
1000
0010
0100
0001
0010
0000
0100
0000
0010
1000
0100
0001
0100
,
0000
0010
0000
1000
0000
0001
0000
0100
0000
0000
0001
0010
0100
0010
0001
0000
,
1010
0000
0100
0000
1010
0000
0010
0000
0011
0000
0000
0010
0000
1000
0100
0000
,
0011
0000
0000
0110
0000
0000
1000
0000
0100
0000
0001
0000
0010
0000
0010
0000
,
0110
0000
0001
0000
0010
0000
0100
0000
0010
1000
0000
1000
0010
0000
0110
0000
,
1000
0000
0001
0000
0100
0000
0010
1000
0000
0001
0000
0100
0010
0000
0000
0000
,
0010
0000
0100
0000
1000
0000
0001
0000
0010
0100
0000
0100
1000
0000
0010
0000
,
0100
0000
0100
0000
0001
0000
0001
0000
0010
0000
0010
0000
1000
0100
0010
0001
,
0010
0100
1000
0100
0000
0010
0100
0010
0000
0001
0010
0001
0000
0010
0100
0010
,
1000
0000
0100
0010
0001
0000
0110
0000
,
1000
0010
0100
0001
0000
0010
0001
0010
0000
0010
0100
0010
0000
1000
0100
0010
,
0001
0000
0000
0000
1000
0000
0001
0010
0100
0000
0000
0000
0110
0000
0110
0000
,
0001
0010
0100
0010
0000
0010
0100
0010
0000
1000
0001
1000
0000
0010
0001
0100
,
0010
0000
0000
0100
0010
0000
1000
0000
0100
0000
0000
0000
0011
0000
0110
0000
,
1000
0010
0100
0001
0000
0010
0100
0010
0000
1000
0001
1000
0000
0010
0100
0001
,
1000
0000
0100
0001
0000
0001
0100
0000
0010
1000
0000
0001
0200
0000
0300
0000
,
0110
0000
0001
0000
0110
0000
1000
0000
0110
0000
0000
1000
0000
0100
0001
0000
,
0110
0000
0000
0000
0000
0000
0000
0000
0000
0002
0000
0000
0000
0000
0000
0000
0000
0000
0013
0000
0000
0000
0000
0000
0100
0000
0000
0000
0010
0000
0000
0000
0000
1000
0000
0000
0100
0000
0000
0000
0000
0000
0110
0000
0000
0000
0000
0000
,
0010
0000
1000
0000
0001
0000
0010
0000
0001
0000
0000
0010
0000
0100
0010
1000
,
0100
0000
0001
0010
0000
0100
1000
0000
0110
0000
0000
1000
0100
0000
0100
0010
,
0000
0100
0000
0001
0010
1000
0010
0001
0000
0100
0000
0010
0100
0010
0001
0010
,
0000
1000
0000
0010
0000
0100
0000
1001
0000
0000
0010
0100
0001
1000
0110
0000
,
1000
0000
0100
0000
0010
0000
0001
0000
0010
0000
0000
0100
0000
0001
0010
0000
,
1001
0000
0000
0200
0000
0000
0310
0000
1000
0000
0001
0000
0100
0000
0010
1000
,
0010
0100
0001
1000
0010
0000
0100
0001
,
0101
0000
0000
0000
0010
0000
0100
0000
1100
0000
0000
0000
0010
0000
0100
0001
,
0000
1000
0000
0000
0010
0000
0001
0000
0010
0000
0000
0000
0100
0000
0010
0000
,
0100
0000
0001
0000
1000
0000
0010
0000
0100
0000
0000
0100
0010
0000
1000
0100
,
0000
0001
0010
0000
0100
0000
0010
0000
0001
0000
0000
0000
0010
0000
0100
0001
,
1000
0000
0000
0000
0010
0000
0100
0001
1000
0000
0000
0000
0010
0000
0100
0001
,
1000
0010
0100
1000
0110
0000
0010
0100
,
0100
0000
0001
0000
0010
0000
0100
0010
1000
0000
1000
0100
0020
0000
0000
0000
,
0130
0000
0000
0001
0000
0000
0010
0000
0100
0000
0000
0010
0000
0000
1000
0000
,
0100
0000
0000
0001
0000
0000
1000
0000
0100
0000
0000
1000
0000
0000
0010
0000
,
0110
0000
0000
1000
0000
0100
0010
0000
0100
0000
0000
0001
0000
0100
0010
0000
,
1000
0000
0000
0000
0000
0000
0100
0000
0000
0010
0000
0000
0100
0000
0000
0000
0000
0000
0001
0000
0000
0000
0000
0000
0000
0000
0000
0010
0000
0000
0000
0000
0100
0000
0000
0000
0001
0000
1000
0000
0001
0000
0200
0000
0000
0000
0000
0000
,
0310
0000
0000
0000
;

//---------------dance-single - ----------------
#NOTES:
     dance-single:
     :
     Medium:
     7:
     0.341,0.345,0.083,0.062,0.000:
1000
0010
0100
0001
0010
0000
0100
0010
,
0100
0000
0010
0001
0010
0100
0010
1000
,
0001
0010
0100
0010
1000
0000
0100
0000
,
0001
0010
0100
0010
0100
0100
0000
0010
,
0100
0001
0010
1000
0010
0100
0010
0010
,
0100
0001
0010
1000
0010
0000
0100
0100
,
1000
0100
0010
0001
1000
0100
0010
0010
,
0001
0100
0010
1000
0002
0000
0013
0010
,
0100
0001
0010
0010
1000
0010
0100
0100
,
0010
0000
0000
0000
1000
0100
0010
0010
,
1001
0010
0001
0100
0010
0000
1000
0100
,
0010
0000
0200
0000
0310
0001
0010
0000
,
0100
0010
1000
0100
1000
0000
0100
0001
,
0010
0010
0001
0100
0010
0000
0010
0010
,
0100
0001
0010
0010
1000
0100
0010
0010
,
1000
0100
0001
0100
1000
0000
0010
0010
,
0100
0010
0100
0001
1000
0000
0010
0100
,
0001
0000
0020
0000
0130
0100
0000
0000
,
1000
0100
0001
0100
0000
0010
0010
0100
,
0000
0010
0001
0100
0010
0010
0200
0000
,
0310
0001
1000
0010
0000
0100
0001
0100
,
0020
0000
0000
0130
,
1000
0100
0001
0100
0010
1000
0100
0010
,
1001
0000
0000
0000
0110
0000
1000
0100
,
0010
0100
0001
0100
0010
1000
0010
0100
,
1000
0000
0100
0010
0010
0000
0100
0001
,
0010
0001
0010
0100
0010
1000
0100
0110
,
1001
0000
0100
0010
0001
0000
1001
1001
,
1001
0010
0100
0001
0010
0100
0010
1000
,
0010
0000
0000
0000
0010
0100
0002
0000
,
0013
0100
0010
1000
0010
0000
0100
0010
,
1001
0000
0020
0000
0130
1000
0100
0000
,
0010
0100
0001
0010
1000
0000
0010
0010
,
0100
0010
0001
1000
0100
0000
0100
0010
,
1000
1000
0100
0010
0100
0100
0001
0010
,
0001
0100
0010
1000
0100
0010
0010
0010
,
0100
0001
0010
1000
0010
0000
0100
0010
,
1000
0000
0020
0000
0130
0001
0010
1000
,
0001
0001
0010
0100
1000
0000
0010
0100
,
0110
0000
0010
1000
0100
0000
0001
1000
,
0010
0100
0001
0010
0001
0000
0100
0010
,
0000
0010
0100
0001
1000
0000
0010
0100
,
1001
0010
0100
0001
0010
0000
0010
0100
,
1000
0000
0100
1000
0100
0000
0010
1000
,
0100
0001
0010
0100
1000
0000
0100
0010
,
0000
1000
0100
0001
0100
0000
0110
0000
,
1000
0000
0100
0000
0010
0010
0001
0000
,
0010
0000
0001
0000
0100
0100
1000
0000
,
0010
0000
0100
0000
0010
0100
0010
0000
,
0001
0000
0010
0100
0000
0100
0010
0200
,
0310
0000
0000
0000
;

//---------------dance-single - ----------------
#NOTES:
     dance-single:
     :
     Easy:
     3:
     0.183,0.207,0.055,0.035,0.000: // measure 1
0010
0010
0010
0000
,  // measure 2
0100
0000
0001
0010
,  // measure 3
0010
0010
0100
0000
,  // measure 4
0010
0100
1000
0100
,  // measure 5
0001
0100
0010
0010
,  // measure 6
0100
0010
1000
0100
,  // measure 7
0100
0001
0010
0001
,  // measure 8
0100
0010
1000
0100
,  // measure 9
1000
1000
0010
0010
,  // measure 10
0100
0000
0010
0100
,  // measure 11
1001
0010
0100
0001
,  // measure 12
0010
0100
0010
0010
,  // measure 13
1000
0100
0001
0100
,  // measure 14
1000
0010
0100
0001
,  // measure 15
0010
0010
0100
0100
,  // measure 16
0010
1000
0001
0000
,  // measure 17
1000
0100
0010
0001
,  // measure 18
0100
0010
0100
0000
,  // measure 19
1000
0000
0100
0000
,  // measure 20
0010
0000
0001
0001
,  // measure 21
0010
0000
0001
0000
,  // measure 22
0100
0000
0000
0000
,  // measure 23
1001
0010
0100
0010
,  // measure 24
0001
0010
0100
0010
,  // measure 25
1001
0010
0100
0010
,  // measure 26
1000
0100
0010
0100
,  // measure 27
0110
0001
0010
0100
,  // measure 28
0010
1000
0100
1001
,  // measure 29
1001
0010
0100
0010
,  // measure 30
0002
0000
0000
1003
,  // measure 31
0110
0010
0100
0001
,  // measure 32
0010
0100
0010
1000
,  // measure 33
0100
0001
1000
0100
,  // measure 34
1000
0010
0100
0001
,  // measure 35
1000
1000
0100
0100
,  // measure 36
0010
0100
0001
0000
,  // measure 37
0010
0100
0001
0010
,  // measure 38
1000
0010
0100
0100
,  // measure 39
0010
0001
1000
0000
,  // measure 40
0010
0000
0100
0001
,  // measure 41
0010
0001
1000
0000
,  // measure 42
0010
0000
0100
0001
,  // measure 43
0010
1000
0100
0010
,  // measure 44
1000
0000
0100
0001
,  // measure 45
0010
0100
0010
0001
,  // measure 46
1000
0010
0100
0100
,  // measure 47
0002
0003
0020
0030
,  // measure 48
0200
0300
0020
0030
,  // measure 49
1000
0000
0100
0000
,  // measure 50
0001
0000
0010
0100
,  // measure 51
0110
0000
0000
0000
;
