#TITLE:Love is like a Petal;
#SUBTITLE:;
#ARTIST:HONG JINYOUNG;
#TITLETRANSLIT:;
#SUBTITLETRANSLIT:;
#ARTISTTRANSLIT:;
#CREDIT:;
#BANNER:Love is like a Petal banner.png;
#BACKGROUND:Love is like a Petal bg.png;
#LYRICSPATH:;
#CDTITLE:;
#MUSIC:Love is like a Petal.mp3;
#OFFSET:-4.240;
#SAMPLESTART:32.840;
#SAMPLELENGTH:15.000;
#SELECTABLE:YES;
#BPMS:0.000=60.000,4.000=151.300,36.000=151.000;
#STOPS:;
#BGCHANGES:;

//---------------dance-single - ----------------
#NOTES:
     dance-single:
     :
     Hard:
     8:
     0.518,0.568,0.149,0.108,0.044: // measure 1
0000
0000
0000
0000
,  // measure 2
1001
0000
0000
0100
0010
0000
0001
0000
,  // measure 3
0020
0000
0000
0031
0100
0000
0010
0000
,  // measure 4
1010
0000
0000
0100
0001
0000
0010
0000
,  // measure 5
2000
0000
0000
3100
0010
0000
0001
0010
,  // measure 6
0200
0000
0000
0000
0300
0000
0001
1000
0001
0000
0000
0000
0010
0000
0000
0000
,  // measure 7
0110
0000
0000
0000
0000
0000
1000
0100
0010
0000
0100
0000
0001
0000
0100
0000
,  // measure 8
0010
0000
0000
0010
0110
0000
1000
0000
,  // measure 9
0001
0000
0010
0000
0100
0000
1000
0000
0000
0001
0000
0000
,  // measure 10
1001
0000
0010
0100
1000
0100
0010
0001
,  // measure 11
0010
0000
0100
0010
0001
0010
0100
0000
,  // measure 12
0110
0000
1000
0100
0001
0100
1000
0010
,  // measure 13
0100
0000
0001
0010
0100
1000
0100
0000
,  // measure 14
1100
0000
0001
1000
0010
0001
1000
0010
,  // measure 15
0001
0000
0100
0010
0001
1000
0010
0000
,  // measure 16
0101
0000
0010
1000
0010
0000
0100
0001
,  // measure 17
0200
0000
0310
0010
,  // measure 18
1001
0000
0100
0000
0010
0000
0001
1000
,  // measure 19
0000
0010
0100
2000
0000
0100
3100
0000
,  // measure 20
0010
0000
0100
0000
0001
0000
1000
0010
,  // measure 21
0000
0010
0001
0200
0000
0010
0310
0000
,  // measure 22
0001
0010
0100
1000
0000
0001
0010
0100
,  // measure 23
0000
0010
0100
1000
0000
2000
0000
0000
,  // measure 24
3100
0000
0010
0100
0010
0001
0010
0100
,  // measure 25
0020
0000
0130
0100
,  // measure 26
1001
0000
0100
0000
0010
0000
1000
0010
,  // measure 27
0000
0010
0001
0100
0000
0010
0000
0100
,  // measure 28
0002
0000
0000
0000
0000
0010
0000
0013
,  // measure 29
0100
0000
0010
1000
0001
0100
0010
0000
,  // measure 30
1000
0000
0100
0010
0001
0000
0001
0010
,  // measure 31
0100
0000
0010
0000
1000
0000
0001
0100
,  // measure 32
0010
0000
0000
1000
1010
0000
0100
0000
,  // measure 33
1000
0000
0000
0000
0100
0000
0000
0000
0000
0010
0000
0000
0001
0000
0000
0000
0000
0000
0000
0000
0000
0000
0000
0000
,  // measure 34
1001
0000
0010
0000
0100
0000
0001
0010
,  // measure 35
0000
0010
0100
0010
0000
1000
0100
0010
,  // measure 36
0001
0010
0100
0001
,  // measure 37
0010
1000
0010
0100
0000
0010
0001
0010
,  // measure 38
0100
0020
0000
0030
0100
0000
0100
0001
,  // measure 39
0001
0010
0100
0010
1000
0001
0000
0001
,  // measure 40
0010
0000
0100
0010
0100
0000
0001
1000
,  // measure 41
0010
0000
0010
1000
0000
1000
0010
0000
,  // measure 42
0110
0000
1000
0000
0001
0000
0100
0010
,  // measure 43
0000
0010
1000
0001
0000
0001
0010
1000
,  // measure 44
0010
0000
0001
0100
0010
0001
0000
0100
,  // measure 45
0000
0010
0100
0010
0000
1000
0001
1000
,  // measure 46
0100
0000
0010
0010
0100
0001
0010
1000
,  // measure 47
0000
0010
0100
1000
0000
0100
0000
0001
,  // measure 48
0010
0100
0010
0001
0000
0010
0100
1000
,  // measure 49
0010
0001
0010
0100
,  // measure 50
2000
0000
0000
0100
0100
0000
3010
0000
,  // measure 51
0100
0001
1001
0010
,  // measure 52
0002
0000
0000
0010
0010
0000
0103
0000
,  // measure 53
0010
0000
1000
0000
1001
0000
0010
0100
,  // measure 54
0010
0001
0010
1000
0000
1000
0010
0100
,  // measure 55
0000
0000
0001
0000
0100
0000
0010
0000
0000
0000
0010
0000
0000
0000
1000
0001
,  // measure 56
1000
0000
0010
0000
0100
0000
0001
0000
1000
0000
0010
0000
,  // measure 57
0200
0000
0310
0010
,  // measure 58
1001
0010
0100
0010
0001
0010
1000
0100
,  // measure 59
0010
0100
0001
0010
0100
1000
0100
0000
,  // measure 60
0010
0100
1000
0100
0010
0001
0100
0010
,  // measure 61
0001
0000
0010
0100
0010
0001
1000
0000
,  // measure 62
0010
0100
1000
0001
0000
0001
0010
1000
,  // measure 63
0000
0010
1000
0100
0000
0100
0000
0010
,  // measure 64
0100
0000
0001
0010
0100
1000
0100
0010
,  // measure 65
0001
0011
0010
0110
,  // measure 66
0001
0010
0100
1000
0010
0100
1000
0001
,  // measure 67
0100
0100
0010
0100
0000
0001
0000
1000
,  // measure 68
0020
0000
0000
0000
0000
0100
0000
0130
,  // measure 69
1000
0000
0100
0001
0000
0001
0100
0000
,  // measure 70
0010
0000
1000
0100
0001
0100
1000
0010
,  // measure 71
0100
0000
0010
0000
0001
1000
0010
0001
,  // measure 72
0100
0000
0010
0100
0110
0000
1001
0000
,  // measure 73
0010
0000
0100
0000
0001
0000
1000
0000
0010
0000
0100
0000
0010
0100
0001
1000
,  // measure 74
0010
0100
1000
0010
0100
0001
0010
0100
,  // measure 75
0001
1000
0010
0100
0001
0100
0010
1000
,  // measure 76
0010
0100
1000
0001
0010
0001
1000
0100
,  // measure 77
1000
0010
0100
0010
1000
0001
0010
0100
,  // measure 78
0001
0010
0100
0001
0000
0010
0100
1000
,  // measure 79
0000
0010
0100
1000
0000
0001
0000
1000
,  // measure 80
0010
0100
0010
0010
0001
0100
0010
0200
,  // measure 81
0010
0000
1000
0000
0010
0000
1000
0300
,  // measure 82
0001
1000
0010
0001
1000
0010
0001
0100
,  // measure 83
0010
1000
0010
0100
1000
0010
0001
0100
,  // measure 84
0020
0000
0100
0000
0100
0100
0000
0130
,  // measure 85
0001
1000
0010
0100
,  // measure 86
0001
0000
0010
0100
0010
1000
0010
0001
,  // measure 87
0100
0000
0010
0000
0001
0010
1000
0010
,  // measure 88
0001
0000
0000
1000
1001
0000
0010
0000
,  // measure 89
0100
0000
0000
0000
0001
0000
0000
0000
0000
1000
0000
0000
0110
0000
0000
0000
0000
0000
0000
0000
0000
0000
0000
0000
;

//---------------dance-single - ----------------
#NOTES:
     dance-single:
     :
     Medium:
     6:
     0.411,0.388,0.155,0.115,0.000:
0000
0000
0000
0000
,
1001
0000
0000
0001
0100
0000
0010
0000
,
0110
0000
0000
1000
0010
0000
0100
0000
,
0110
0000
0000
0010
0100
0000
0001
0000
,
0011
0000
0000
0100
1000
0000
0010
0010
,
0010
0000
0000
1000
0100
0000
0010
0000
,
0101
0000
0000
0010
0010
0000
0100
0000
,
1001
0000
0000
0010
0100
0000
0001
0000
,
2000
0000
3100
0100
,
0010
0000
0100
0001
0000
0001
0100
0000
,
0010
0000
0100
1000
0000
0010
0100
0000
,
0010
0000
1000
0100
0000
0100
1000
0000
,
0010
0000
0100
0001
0000
1000
0010
0000
,
0100
0000
0001
1000
0000
1000
0001
0000
,
0010
0000
0100
0001
0000
0010
0001
0000
,
0010
0000
0100
0010
0000
1000
0001
0000
,
0110
0000
1000
0100
,
0020
0000
0130
0000
0001
0000
0010
1000
,
0000
0001
0000
0100
0000
0010
0010
0000
,
1000
0000
0001
0000
0100
0000
0010
0001
,
0000
0010
0000
0100
0000
0010
0010
0000
,
0100
0000
1000
0010
0000
0010
1000
0100
,
0000
0001
0000
1000
0000
0020
0000
0030
,
0100
0001
1000
0010
,
1100
0110
0011
1001
,
0010
0000
0100
0000
0010
0000
0001
1000
,
0000
0010
0000
0100
0000
0001
0000
0100
,
0020
0000
0000
0000
0000
0100
0000
0130
,
0000
1000
0100
0001
,
0110
0000
1000
0000
0001
0000
0010
0100
,
0010
0000
0010
0001
,
0110
0000
0000
0001
1000
0000
0010
0000
,
0100
0000
0001
1000
0001
0000
0000
0000
,
0010
0000
0100
0000
0110
0000
0001
0010
,
0000
0010
0100
0020
0000
0030
1000
0000
,
0110
1000
0100
0001
,
0100
0010
0000
0001
0000
1000
0010
1000
,
0000
0020
0000
0030
0001
0000
0100
0010
,
0000
0010
0100
0000
0001
1000
0000
0010
,
0100
0010
0001
1000
,
0100
0000
0010
1000
0000
2000
0000
3000
,
0110
0000
0001
0000
0010
0000
0100
0001
,
0000
0001
0010
0002
0000
0003
0010
0000
,
0100
0000
0010
0000
1000
0010
0000
0200
,
0000
0300
0100
0010
0000
0001
0000
1000
,
0010
0000
0100
0000
0001
0000
1000
0010
,
0000
0000
0100
0010
0000
0001
0000
1000
,
0010
0000
0100
0002
0000
0000
0000
0000
,
0013
0100
0010
1000
,
0020
0000
0000
0100
0100
0000
0030
0000
,
1000
0100
0010
0001
,
2000
0000
0000
0100
0100
0000
3000
0000
,
0010
0100
0110
0001
,
1000
0000
0010
0100
0000
0001
0010
0001
,
0000
1000
0100
1000
0000
0010
0000
0100
,
0010
0001
1000
0100
,
0210
0000
0301
0001
,
0110
0000
1000
0000
0001
0000
0100
0010
,
0000
0010
0100
0010
0000
0001
0001
0000
,
0010
0000
0100
0000
1000
0000
0010
0100
,
0000
1000
0100
1000
0000
0010
0010
0000
,
0100
0000
0001
0010
0000
0010
0100
0010
,
0000
0100
1000
0100
0000
0020
0000
0030
,
0110
0000
1000
0000
0010
0000
0100
0001
,
0001
0010
0100
1000
,
0110
0000
1000
0000
0100
0000
0001
0100
,
0000
0010
0000
1000
0000
0100
0000
0001
,
0200
0000
0000
0000
0000
0010
0000
0310
,
0000
0010
0100
0001
,
1000
0000
0010
0000
0100
0000
0001
0001
,
0001
0000
0010
0000
0100
0000
0010
1000
,
0010
0000
0000
0100
0001
0000
0010
0000
,
0100
0010
1000
0001
,
0100
1000
0100
0000
0010
0100
0010
0000
,
0001
0000
0100
0010
0000
0010
0100
0000
,
0001
0010
0001
0000
0010
0100
0010
0000
,
1000
0000
0100
0010
0000
0010
0100
0000
,
0001
0000
0010
0100
0000
0100
0010
1000
,
0000
0001
0100
0001
0000
0010
0000
0100
,
0010
0000
1000
0000
0001
0000
1000
0001
,
2000
0100
0100
3100
,
0010
0000
0100
0000
0001
0000
0010
0100
,
0000
0100
0010
0001
0000
0010
0000
0100
,
2000
0000
0000
0000
0000
0100
3000
0100
,
0010
0100
0001
1000
,
0110
0000
0001
0000
0010
0000
1000
0010
,
1000
0000
0000
0000
0010
0000
0100
0001
,
0100
0000
0000
0010
1000
0000
0010
0000
,
0100
0000
0001
1000
1001
0000
0000
0000
;

//---------------dance-single - ----------------
#NOTES:
     dance-single:
     :
     Easy:
     4:
     0.329,0.299,0.088,0.122,0.000:
0000
0000
0000
0000
,
0110
0000
0010
0100
,
1001
0000
1000
0100
,
0011
0000
0010
0100
,
0101
0000
0010
1000
,
1010
0000
0100
0001
,
0110
0000
0001
0001
,
1100
0000
0010
0100
,
0002
0000
0000
0003
,
0010
0100
0001
1000
,
0100
1000
0010
0100
,
0010
0001
0100
0010
,
1000
0100
0001
0100
,
0010
1000
0100
0001
,
0010
0100
0010
1000
,
0010
0100
0001
0010
,
0200
0300
0010
0010
,
1000
0100
0010
0001
,
0100
0010
2000
3000
,
0100
0010
0100
0001
,
1000
0010
0200
0300
,
0001
0001
0010
0010
,
0100
0100
1000
1000
,
0010
0100
0010
0001
,
1000
1000
1000
1000
,
0010
0100
0001
0010
,
1000
0100
0010
0100
,
0002
0000
0000
0013
,
0010
0100
1000
0100
,
0010
0100
0010
1000
,
0010
0000
0100
0001
,
0110
0000
1000
1000
,
0010
0100
1001
0000
,
0010
0001
0100
0010
,
1000
0010
0002
0003
,
0100
0010
1000
0100
,
0001
0100
0010
1000
,
0010
0200
0300
0010
,
0100
0100
0001
1000
,
0020
0030
0100
0001
,
1000
1000
0010
0010
,
0100
0001
1000
0010
,
0100
1000
0200
0300
,
0010
0100
0001
0010
,
0100
0010
0001
0001
,
0020
0030
0100
0100
,
0010
1000
0010
0001
,
0100
0100
0020
0030
,
1000
1000
0100
0010
,
2000
0000
3100
0000
,
0010
0000
0110
0000
,
0002
0000
0013
0000
,
0100
0000
0011
0000
,
1000
0100
0010
0001
,
1000
0100
0010
0001
,
0010
0010
0010
0010
,
0200
0300
0001
0001
,
0010
0100
0010
1000
,
0100
0010
0001
0001
,
0010
0100
0010
1000
,
0010
0100
1000
1000
,
0010
0100
0001
0010
,
0100
0010
1000
2000
,
3000
0100
0100
0010
,
0100
0001
1000
0010
,
0100
0010
1000
0100
,
0001
0100
0010
1000
,
0020
0000
0030
0100
,
0100
0010
1000
0010
,
0001
0100
0100
0010
,
0100
0000
0001
0010
,
0100
0010
0100
0100
,
0010
1000
0001
0100
,
0010
1000
0001
0100
,
0010
1000
0001
0100
,
0010
0001
0010
0100
,
0010
1000
0100
0010
,
0100
0010
0001
0100
,
0010
0001
0100
0200
,
0310
1000
0100
0001
,
1000
1000
1000
1000
,
0010
0100
0010
0001
,
0100
0010
1000
0100
,
0020
0000
0000
0130
,
0100
0001
0010
1000
,
0010
0010
0100
0010
,
0001
0000
1000
0010
,
0110
0000
0001
0001
,
0010
0100
1001
0000
;
