#TITLE:Love Sick;
#SUBTITLE:;
#ARTIST:Tahiti;
#TITLETRANSLIT:;
#SUBTITLETRANSLIT:;
#ARTISTTRANSLIT:;
#CREDIT:;
#BANNER:Love Sick banner.png;
#BACKGROUND:Love Sick bg.png;
#LYRICSPATH:;
#CDTITLE:;
#MUSIC:Love Sick.mp3;
#OFFSET:-6.440;
#SAMPLESTART:50.060;
#SAMPLELENGTH:15.000;
#SELECTABLE:YES;
#BPMS:0.000=154.000;
#STOPS:;
#BGCHANGES:;

//---------------dance-single - ----------------
#NOTES:
     dance-single:
     :
     Hard:
     7:
     0.604,0.693,0.287,0.122,0.036:
1000
0100
0010
0100
0010
0001
0100
0000
,
0010
0100
1000
0010
0001
0100
1000
0000
,
0010
0010
0100
0100
0001
0010
0100
0010
,
1000
0100
0010
0001
0010
0100
1000
0100
0010
1001
0000
0000
,
0110
0000
1000
0100
0100
0010
0000
0100
,
0010
0010
0001
0010
0000
1000
0010
0100
,
0001
0000
0010
0010
0100
0001
0000
0010
,
1000
1000
0100
1000
0000
0100
0010
0100
,
1000
0000
0010
0100
0000
0010
0000
0001
,
0010
0010
0001
0100
0000
0010
1000
0010
,
0100
0010
1000
0100
0001
0010
0100
0000
,
1000
0100
0010
0001
0010
0100
1000
0100
,
0010
0000
1000
0000
1100
0000
0010
0100
,
0000
0100
0010
0001
1000
0010
0100
0010
,
1001
0000
0110
0000
0100
0001
0100
1000
,
0000
0001
1000
0010
1000
0100
0010
0001
,
0011
0000
1100
0000
0010
0100
0010
0001
,
0100
1000
0010
0010
0100
0010
0001
0100
,
1010
0000
0101
0000
0010
0101
0000
0010
,
0110
0000
1001
0000
0100
0010
0001
0010
,
0200
0000
0010
0000
0310
0001
0010
1000
,
0100
0000
0001
0000
0100
0010
0100
1000
,
0020
0000
0100
0000
1030
0100
0001
0100
,
1000
0000
0010
0000
0001
0100
0010
1000
,
0002
0000
0013
0000
0200
0320
2030
3100
,
0002
0203
0320
2030
3200
0000
0310
0000
,
1010
0100
1000
0100
0000
0010
0100
0010
,
0000
0001
0001
0010
0100
0010
0100
1000
,
0110
0000
1100
0000
0010
0100
0000
0010
,
0001
0010
0100
1000
0010
0100
0010
1000
,
0100
0001
0200
0000
0310
0000
1000
0100
,
0010
0001
0020
0000
0130
0000
0001
0000
,
0011
0000
0110
0000
0001
0010
0000
1000
,
0100
0100
0010
0100
0001
0010
0001
0010
,
0100
1000
0020
0000
1030
0000
0010
0100
,
1000
0010
0200
0000
0310
1000
0001
0100
,
0010
0000
0100
0001
0000
0001
0010
0100
,
1000
0000
0100
0000
0010
0100
0010
1000
,
0001
0000
1000
0100
0000
0001
0010
0100
,
0001
0000
0010
0010
0100
0010
1000
0001
,
0100
0000
0000
0010
0000
0000
1000
0000
0100
0010
0000
1000
,
0010
0000
0100
0000
0010
0100
0010
0001
,
0010
0000
0110
0000
0100
0000
1000
0010
,
0000
0010
0100
0010
1010
0000
1001
0000
,
0100
0000
0020
0130
0110
0000
0001
0010
,
0100
0010
0100
1000
0100
0000
0010
0000
,
1001
0000
0200
0301
0011
0000
0010
0100
,
0010
0100
1000
0001
0100
0000
0001
0000
,
1000
0000
0100
1000
0000
0100
0010
0100
,
0010
0000
1000
0000
0001
1000
0100
0010
,
0100
0000
0010
0001
0000
0001
0000
0100
,
0000
0100
0000
0010
0110
0000
1001
0000
,
1000
0000
1000
0100
0010
0001
0000
0010
,
1000
0100
0010
0100
0000
0001
0010
0100
,
0010
0000
0001
0010
0100
1000
0000
0010
,
0100
0010
0100
1000
0000
0100
0010
0100
,
1000
0000
0001
0100
0000
0001
0000
0010
,
0100
0010
1000
0001
0000
1000
0100
0010
,
0100
0000
0110
0000
0000
0010
0000
0110
,
0000
1000
0100
0010
0001
0010
0100
1000
,
0011
0000
1100
0000
0010
0100
0000
0010
,
0001
0010
0100
0010
0100
1000
0010
0000
,
1000
0100
0010
0100
0001
0010
0010
0000
,
0100
0010
0001
0010
0100
1000
1000
0000
,
0110
0000
1001
0000
0100
0010
0000
1000
,
0100
0100
0010
0100
0010
0001
0010
0000
,
0100
0010
0100
1000
0100
0001
0001
0000
,
0010
0001
0010
0100
0010
0100
1000
0100
,
1000
0000
0010
0100
0000
0100
0010
0001
,
0110
0000
1100
0000
0010
0100
0010
1000
,
0100
0000
0001
0010
0000
0100
0010
0001
,
0110
0000
0011
0000
0010
0100
0010
0100
,
1000
0000
0000
0100
0000
0000
0010
0000
1000
0100
0000
0010
,
0001
0000
1010
0000
0100
0010
0100
0001
,
0010
0000
1000
0000
0001
0000
0100
0010
,
0000
0010
0100
0001
0110
0000
0101
0000
,
1001
0100
0010
0100
0010
0001
0010
0100
,
0010
1000
0100
0010
0100
0010
0001
0000
,
0010
0000
0100
0010
0001
0010
0000
0100
,
0010
1000
0100
0010
0100
0000
0001
0000
,
1000
0100
1000
0001
0010
0001
0100
0010
,
0100
0001
1000
0001
0010
1000
1000
0000
,
1000
0100
0010
0001
0000
0001
0010
0100
,
0000
1000
0010
0100
0010
0001
0010
1001
;

//---------------dance-single - ----------------
#NOTES:
     dance-single:
     :
     Hard:
     6:
     0.604,0.693,0.287,0.122,0.036:
1000
0100
0010
0100
0010
0001
0100
0000
,
0010
0100
1000
0010
0001
0100
1000
0000
,
0010
0010
0100
0100
0001
0010
0100
0010
,
1000
0100
0010
0001
0010
0100
1000
0100
0010
1001
0000
0000
,
0110
0000
1000
0100
0100
0010
0000
0100
,
0010
0010
0001
0010
0000
1000
0010
0100
,
0001
0000
0010
0010
0100
0001
0000
0010
,
1000
1000
0100
1000
0000
0100
0010
0100
,
1000
0000
0010
0100
0000
0010
0000
0001
,
0010
0010
0001
0100
0000
0010
1000
0010
,
0100
0010
1000
0100
0001
0010
0100
0000
,
1000
0100
0010
0001
0010
0100
1000
0100
,
0010
0000
1000
0000
1100
0000
0010
0100
,
0000
0100
0010
0001
1000
0010
0100
0010
,
1001
0000
0110
0000
0100
0001
0100
1000
,
0000
0001
1000
0010
1000
0100
0010
0001
,
0011
0000
1100
0000
0010
0100
0010
0001
,
0100
1000
0010
0010
0100
0010
0001
0100
,
1010
0000
0101
0000
0010
0101
0000
0010
,
0110
0000
1001
0000
0100
0010
0001
0010
,
0200
0000
0010
0000
0310
0001
0010
1000
,
0100
0000
0001
0000
0100
0010
0100
1000
,
0020
0000
0100
0000
1030
0100
0001
0100
,
1000
0000
0010
0000
0001
0100
0010
1000
,
0002
0000
0013
0000
0200
0320
2030
3100
,
0002
0203
0320
2030
3200
0000
0310
0000
,
1010
0100
1000
0100
0000
0010
0100
0010
,
0000
0001
0001
0010
0100
0010
0100
1000
,
0110
0000
1100
0000
0010
0100
0000
0010
,
0001
0010
0100
1000
0010
0100
0010
1000
,
0100
0001
0200
0000
0310
0000
1000
0100
,
0010
0001
0020
0000
0130
0000
0001
0000
,
0011
0000
0110
0000
0001
0010
0000
1000
,
0100
0100
0010
0100
0001
0010
0001
0010
,
0100
1000
0020
0000
1030
0000
0010
0100
,
1000
0010
0200
0000
0310
1000
0001
0100
,
0010
0000
0100
0001
0000
0001
0010
0100
,
1000
0000
0100
0000
0010
0100
0010
1000
,
0001
0000
1000
0100
0000
0001
0010
0100
,
0001
0000
0010
0010
0100
0010
1000
0001
,
0100
0000
0000
0010
0000
0000
1000
0000
0100
0010
0000
1000
,
0010
0000
0100
0000
0010
0100
0010
0001
,
0010
0000
0110
0000
0100
0000
1000
0010
,
0000
0010
0100
0010
1010
0000
1001
0000
,
0100
0000
0020
0130
0110
0000
0001
0010
,
0100
0010
0100
1000
0100
0000
0010
0000
,
1001
0000
0200
0301
0011
0000
0010
0100
,
0010
0100
1000
0001
0100
0000
0001
0000
,
1000
0000
0100
1000
0000
0100
0010
0100
,
0010
0000
1000
0000
0001
1000
0100
0010
,
0100
0000
0010
0001
0000
0001
0000
0100
,
0000
0100
0000
0010
0110
0000
1001
0000
,
1000
0000
1000
0100
0010
0001
0000
0010
,
1000
0100
0010
0100
0000
0001
0010
0100
,
0010
0000
0001
0010
0100
1000
0000
0010
,
0100
0010
0100
1000
0000
0100
0010
0100
,
1000
0000
0001
0100
0000
0001
0000
0010
,
0100
0010
1000
0001
0000
1000
0100
0010
,
0100
0000
0110
0000
0000
0010
0000
0110
,
0000
1000
0100
0010
0001
0010
0100
1000
,
0011
0000
1100
0000
0010
0100
0000
0010
,
0001
0010
0100
0010
0100
1000
0010
0000
,
1000
0100
0010
0100
0001
0010
0010
0000
,
0100
0010
0001
0010
0100
1000
1000
0000
,
0110
0000
1001
0000
0100
0010
0000
1000
,
0100
0100
0010
0100
0010
0001
0010
0000
,
0100
0010
0100
1000
0100
0001
0001
0000
,
0010
0001
0010
0100
0010
0100
1000
0100
,
1000
0000
0010
0100
0000
0100
0010
0001
,
0110
0000
1100
0000
0010
0100
0010
1000
,
0100
0000
0001
0010
0000
0100
0010
0001
,
0110
0000
0011
0000
0010
0100
0010
0100
,
1000
0000
0000
0100
0000
0000
0010
0000
1000
0100
0000
0010
,
0001
0000
1010
0000
0100
0010
0100
0001
,
0010
0000
1000
0000
0001
0000
0100
0010
,
0000
0010
0100
0001
0110
0000
0101
0000
,
1001
0100
0010
0100
0010
0001
0010
0100
,
0010
1000
0100
0010
0100
0010
0001
0000
,
0010
0000
0100
0010
0001
0010
0000
0100
,
0010
1000
0100
0010
0100
0000
0001
0000
,
1000
0100
1000
0001
0010
0001
0100
0010
,
0100
0001
1000
0001
0010
1000
1000
0000
,
1000
0100
0010
0001
0000
0001
0010
0100
,
0000
1000
0010
0100
0010
0001
0010
1001
;

//---------------dance-single - ----------------
#NOTES:
     dance-single:
     :
     Easy:
     4:
     0.330,0.301,0.086,0.093,0.000: // measure 1
1000
0000
0100
0010
,  // measure 2
0001
0000
0010
0100
,  // measure 3
0010
0010
0100
0100
,  // measure 4
0001
1000
0001
1001
,  // measure 5
0010
0100
0100
0100
,  // measure 6
0001
0001
0000
0010
,  // measure 7
0010
0001
0001
0001
,  // measure 8
1000
1000
0000
0100
,  // measure 9
0010
1000
0100
0001
,  // measure 10
0200
0300
0010
0010
,  // measure 11
0100
0001
0010
1000
,  // measure 12
0110
0000
0000
0010
,  // measure 13
0100
0001
0010
0000
,  // measure 14
1000
0100
0010
0100
,  // measure 15
0001
2000
3000
0000
,  // measure 16
0100
0010
0001
0100
,  // measure 17
0010
2000
3000
0000
,  // measure 18
0100
0010
0001
0100
,  // measure 19
0010
0200
0300
0010
,  // measure 20
0001
0100
0010
0010
,  // measure 21
0020
0030
0100
0100
,  // measure 22
0001
0000
1000
0010
,  // measure 23
0200
0300
0010
0001
,  // measure 24
0001
0000
0010
0100
,  // measure 25
0002
0003
0010
0010
,  // measure 26
0100
0100
0110
0000
,  // measure 27
1000
0100
0010
0001
,  // measure 28
0010
0010
0100
0100
,  // measure 29
1001
0100
0001
0000
,  // measure 30
0010
0100
0010
0001
,  // measure 31
1000
0010
1000
0010
,  // measure 32
0001
0100
0001
0100
,  // measure 33
0010
1000
1001
0000
,  // measure 34
0010
0100
0010
1000
,  // measure 35
0100
0010
0100
0010
,  // measure 36
0001
1000
0010
0010
,  // measure 37
0100
0010
0001
0010
,  // measure 38
0200
0300
0001
0010
,  // measure 39
0001
0100
0010
1000
,  // measure 40
0200
0300
1000
1000
,  // measure 41
0100
0000
0010
0100
,  // measure 42
0110
0000
0010
0001
,  // measure 43
0010
0100
0010
0001
,  // measure 44
0010
0100
0010
0010
,  // measure 45
0100
0000
0001
1001
,  // measure 46
0100
0000
0010
1001
,  // measure 47
0010
0000
0100
0110
,  // measure 48
1000
0000
0100
0110
,  // measure 49
0010
0100
0001
1000
,  // measure 50
0020
0030
0100
0100
,  // measure 51
0010
0100
0001
0010
,  // measure 52
1000
1000
1000
0100
,  // measure 53
0100
0010
0010
0010
,  // measure 54
0100
0100
0000
0001
,  // measure 55
0010
0100
0100
0100
,  // measure 56
0010
0010
0000
1000
,  // measure 57
0100
0010
0100
0001
,  // measure 58
0010
0001
0100
0010
,  // measure 59
1000
0100
0010
0100
,  // measure 60
0000
0000
0000
0000
,  // measure 61
1001
0100
0010
0001
,  // measure 62
0010
0100
0010
0001
,  // measure 63
1000
1000
0100
0100
,  // measure 64
0010
0010
0001
0001
,  // measure 65
0010
0100
0001
0010
,  // measure 66
0100
0010
1000
0010
,  // measure 67
0001
0001
0010
0010
,  // measure 68
0100
0100
0010
1000
,  // measure 69
0100
0001
0100
0010
,  // measure 70
2000
3000
0100
0010
,  // measure 71
0100
0010
0001
1000
,  // measure 72
0002
0003
0100
0100
,  // measure 73
0010
0000
0100
0001
,  // measure 74
0110
0000
0100
1000
,  // measure 75
0100
0010
0100
0010
,  // measure 76
0001
0100
0010
0010
,  // measure 77
1000
0100
0010
0001
,  // measure 78
1000
0100
0010
0001
,  // measure 79
0100
0010
0100
0001
,  // measure 80
0020
0030
0100
0100
,  // measure 81
0010
0001
1000
0100
,  // measure 82
0010
0001
1000
0100
,  // measure 83
0010
0010
0100
0100
,  // measure 84
0001
0000
1000
0000
0010
0000
0100
0100
;

//---------------dance-single - ----------------
#NOTES:
     dance-single:
     :
     Medium:
     6:
     0.454,0.422,0.280,0.043,0.000:
1000
0100
0010
0000
0001
0000
0010
0000
,
0001
0010
0100
0000
0010
0000
1000
0000
,
0100
0010
1000
0000
0100
0000
0001
0000
,
0010
0000
0100
0000
0010
0100
0110
0000
,
0110
0000
0001
0010
0100
1000
0000
0000
,
0001
0010
0100
1000
0000
0000
0000
0000
,
0110
0000
1000
0100
0010
0001
0000
0000
,
1000
0100
0010
0001
0000
0000
0110
0000
,
0001
0000
0010
0100
0000
0010
0000
1000
,
0000
0100
0001
0100
0000
0000
0110
0000
,
0010
0000
0100
0010
0100
0010
0000
0000
,
2100
0000
0000
3000
,
0100
0000
0010
0000
0001
0000
0100
0010
,
0000
0010
0001
0000
0010
0100
0010
0000
,
0010
0101
0010
0100
,
0010
0000
1000
0000
0100
0001
0100
0000
,
0010
1010
0100
0010
,
0100
0000
0001
0000
0010
0000
1000
0100
,
0001
0000
0001
0000
0010
0000
0001
0010
,
1000
0000
1000
0000
0100
0000
0010
1000
,
0020
0000
0130
0010
,
0001
0000
0100
0000
0010
1000
0001
0000
,
0200
0000
0310
0001
,
1000
0000
0100
0000
0010
1000
0100
0000
,
0020
0000
0130
0001
,
1000
0001
1000
0001
1000
0000
0010
0000
,
0100
0000
0010
0001
0000
1000
0000
1010
,
0000
1100
0000
1000
1100
0000
1001
0000
,
0010
0000
0100
0000
0001
0010
0000
0100
,
0000
0010
0000
1000
0001
0000
0110
0000
,
0001
0010
0100
0000
0010
0100
1000
0000
,
0100
0010
0001
0000
1000
0100
0010
0000
,
1100
0000
0010
0000
0100
0010
0000
0001
,
0000
1000
0000
0010
0100
0000
0011
0000
,
0100
0010
0100
0000
0010
0001
0010
0000
,
0010
0100
0010
0000
1000
0100
0010
0001
,
0010
0000
0100
0010
0000
1000
0000
0001
,
0000
0010
0001
0000
0010
0100
1000
0010
,
0100
0000
0010
1000
0000
0100
0000
0010
,
0000
1000
0010
0000
0100
0001
0100
0000
,
0110
0000
0001
1000
,
1001
0000
0010
0100
,
0011
0000
0010
0000
0110
0000
0010
0001
,
0000
0001
0010
0000
0100
0000
0110
0000
,
0010
0000
0000
0010
0000
0010
0110
0000
,
1000
0100
0000
0001
0000
0100
0110
0000
,
0001
0000
0000
1000
0000
1000
1001
0000
,
0010
0001
0000
0100
0000
0010
0001
0000
,
0010
0000
0100
0001
0000
0010
0000
2000
,
0000
0000
0000
3000
0100
0010
0001
0010
,
0100
0000
0010
0001
0000
1000
0000
0001
,
0000
1000
0000
0001
1000
0000
1001
0000
,
0110
0000
0010
0001
0010
0100
0000
0010
,
1000
0100
0001
0100
0000
0000
0110
0000
,
0010
0000
1000
0100
1000
0100
0000
0001
,
0100
0010
0100
0010
0000
0001
0010
0000
,
0010
0000
0100
0001
0000
0010
0000
0100
,
0000
0010
1000
0010
0000
0000
0110
0000
,
1000
0000
0100
0001
0100
0010
0000
0210
,
0000
0000
0000
0300
,
1001
0000
0010
0000
0100
0001
0000
0010
,
0000
1000
0000
0010
0100
0000
0110
0000
,
0010
0000
0001
0000
1000
0001
0010
0000
,
0100
0010
1000
0000
0100
0010
0001
0000
,
0110
0000
1000
0000
0100
0001
0000
0001
,
0000
1000
0000
0010
0100
0000
0110
0000
,
1000
0000
0100
0000
0010
1000
0100
0000
,
0001
0100
0010
0000
1000
0100
0010
0100
,
0010
0000
0001
0010
0000
0100
0000
0010
,
0000
0100
0000
0010
0100
0000
0001
0010
,
0001
0000
0010
0100
0000
0010
0000
1000
,
0000
0100
0001
0000
0010
0100
0010
0000
,
1001
0000
0100
0010
,
0110
0000
0000
0000
0100
0000
0010
0001
,
0010
0000
0100
0000
0110
0000
1000
0100
,
0000
0001
0000
0100
0010
0000
0110
0000
,
1001
0000
1001
0000
0100
0010
0000
1000
,
0000
0100
0000
0001
0100
0000
0110
0000
,
0010
0000
0001
1000
0000
0010
0000
0001
,
0000
0100
0000
0010
0001
0010
1000
0010
,
0100
0000
0010
0000
1000
0100
0000
0010
,
0000
0100
0000
0001
0010
0000
1000
0000
,
0010
0000
0100
0000
0001
0100
0000
0010
,
0000
0100
0001
1000
0010
0100
0001
1000
;
