#TITLE:Last Summer Whisper;
#SUBTITLE:;
#ARTIST:ANRI;
#TITLETRANSLIT:;
#SUBTITLETRANSLIT:;
#ARTISTTRANSLIT:;
#CREDIT:;
#BANNER:Last Summer Whisper banner.png;
#BACKGROUND:Last Summer Whisper bg.png;
#LYRICSPATH:;
#CDTITLE:;
#MUSIC:Last Summer Whisper.mp3;
#OFFSET:-12.760;
#SAMPLESTART:73.700;
#SAMPLELENGTH:15.000;
#SELECTABLE:YES;
#BPMS:0.000=78.300,40.000=78.640;
#STOPS:;
#BGCHANGES:;

//---------------dance-single - ----------------
#NOTES:
     dance-single:
     :
     Medium:
     5:
     0.194,0.182,0.014,0.068,0.000:
1000
0100
0010
0000
0100
0000
0001
0000
,
0010
0100
0100
0000
0010
0000
0100
0000
,
0001
1000
0001
0000
0010
0000
0100
0000
,
2000
0000
0000
0000
0000
0000
0000
3000
,
0100
0000
0010
0000
0100
0000
0010
0100
,
0100
1000
0001
0100
,
0010
0001
0010
0100
,
0001
0000
0010
0100
0000
0100
0010
0000
,
0001
0000
1000
0000
0010
0000
0001
0010
,
0010
0100
0010
1000
,
0100
0010
0100
0010
,
1000
0000
0100
0010
0000
1000
0010
0000
,
0100
0001
0100
0000
0010
0000
1000
0000
,
0010
0000
0100
0000
0001
1000
0000
0010
,
0100
0010
0100
0010
,
2000
0000
3200
0000
,
0310
0000
1000
0001
1000
0000
0010
0000
,
0100
0000
0001
0000
1000
0010
0000
0100
,
0001
0010
0100
1000
,
0020
0000
0030
0100
,
0110
0010
0001
0010
,
0100
1000
0100
0000
0001
0010
0001
0000
,
0100
0010
1000
0001
,
0100
0100
0010
0010
,
1000
0100
1000
0000
0001
0010
0001
0000
,
0100
0000
0010
0000
0200
0000
0000
0300
,
0010
0100
0001
1000
,
0020
0000
0000
0000
0000
0000
0000
0030
,
0000
0000
1000
0000
0100
0000
0010
0100
,
0010
0000
1000
0100
0010
0000
0010
0100
,
0001
0000
0010
0100
0010
0002
0000
0003
,
0010
0100
0010
0000
1000
0100
1000
0000
,
0010
0100
1000
0000
0010
0000
0100
0000
,
0010
0001
0010
0000
0100
0010
0100
0000
,
1000
0001
1000
0000
0010
0100
0010
0000
,
1000
2000
0000
0000
3100
0100
0000
0010
,
0100
0010
0000
0001
1000
0010
1000
0010
,
0100
0010
0100
0001
,
0010
0010
0100
0000
0020
0000
0030
0000
,
0100
0001
0100
0000
0010
1000
0010
0000
,
0100
0001
0100
0000
0020
0000
0130
0000
,
1001
0000
0000
0000
;

//---------------dance-single - ----------------
#NOTES:
     dance-single:
     :
     Easy:
     2:
     0.159,0.140,0.027,0.144,0.000: // measure 1
0010
0001
0010
0100
,  // measure 2
0010
0010
1000
1000
,  // measure 3
0010
0100
0001
1000
,  // measure 4
0020
0000
0000
0030
,  // measure 5
0100
0010
0200
0300
,  // measure 6
0001
0010
0100
1000
,  // measure 7
0200
0300
0010
0010
,  // measure 8
0100
0001
1000
0010
,  // measure 9
0100
0001
2000
3000
,  // measure 10
0010
0100
0010
0001
,  // measure 11
0020
0030
0100
0100
,  // measure 12
0010
0100
0002
0003
,  // measure 13
0010
0100
0010
1000
,  // measure 14
0100
0100
0001
0001
,  // measure 15
0010
0100
0010
1000
,  // measure 16
0002
0000
0023
0000
,  // measure 17
0130
1000
0100
0001
,  // measure 18
0100
0010
1000
0010
,  // measure 19
0010
0100
1000
0010
,  // measure 20
0200
0000
0000
0300
,  // measure 21
0110
0010
0001
0010
,  // measure 22
0100
0010
2000
3000
,  // measure 23
0010
0100
0010
1000
,  // measure 24
0002
0000
0000
0003
,  // measure 25
0110
1000
0100
0010
,  // measure 26
0100
0001
0200
0300
,  // measure 27
0010
0100
0010
0001
,  // measure 28
2000
0000
0000
3000
,  // measure 29
0000
0100
0100
0010
,  // measure 30
0110
0001
0010
0001
,  // measure 31
0100
0010
2000
3100
,  // measure 32
0010
0100
0001
0010
,  // measure 33
0100
1000
0010
0100
,  // measure 34
0001
0100
0002
0003
,  // measure 35
0010
0100
0020
0000
,  // measure 36
0230
0000
0301
0010
,  // measure 37
1000
0010
0100
0001
,  // measure 38
2000
3000
0200
0300
,  // measure 39
0010
0100
0020
0031
,  // measure 40
1000
0010
0100
0001
,  // measure 41
0010
0100
0020
0130
,  // measure 42
1001
0000
0000
0000
;

//---------------dance-single - Copied from----------------
#NOTES:
     dance-single:
     Copied from:
     Challenge:
     8:
     0.294,0.267,0.048,0.246,0.171:
1000
0010
0100
0001
0010
0000
0010
0010
,
0100
0001
0010
1000
0010
0000
0110
0000
,
1000
0100
0100
0010
0001
0010
0100
0010
,
2000
0000
0000
0000
0000
0000
0000
0000
3000
0000
0010
0010
0000
0100
0000
0002
,
0000
0000
0003
0000
0010
0000
0100
0020
0000
0000
0030
0000
0000
1000
0100
0010
,
0001
0000
0010
0000
0100
0000
0010
0000
2000
0000
0000
0000
3001
0000
0000
0010
,
0010
0100
0001
0010
1000
0000
0010
0000
,
0100
0000
0000
1000
0000
0000
0001
0000
0000
0000
0000
0000
0020
0000
0000
0000
,
0130
0000
0000
0000
0001
0000
0000
1000
0000
0000
0000
0000
0000
0010
0100
0001
,
1000
0000
0100
0000
0010
0000
0001
0000
0010
0000
0000
0000
0100
0000
0000
0001
,
0001
0010
0100
1000
0010
0000
0100
0000
,
0001
0000
0000
1000
0000
0000
0001
0000
0000
0000
0010
0000
0100
0000
0000
0000
,
0001
1000
0010
0001
1000
0000
0010
0100
0000
0000
0000
0000
0001
0000
0010
0000
,
0100
0000
0010
0000
1000
0000
0100
0000
0001
0000
0100
0000
0000
0000
0010
0100
,
0010
1000
0100
0001
0200
0000
0320
0000
,
0032
0000
2003
0000
,
3100
0000
0010
0100
0010
0000
0001
1000
0000
0000
0000
0000
0100
0000
0010
0000
,
0001
0000
1000
0000
0010
0000
0100
0000
0001
0000
1000
0010
0000
0000
0010
0100
,
0010
0001
1000
0010
0200
0000
0302
0000
,
2003
0000
0000
0000
0000
0000
0000
0000
3000
0000
0110
0110
0000
0000
0000
1001
,
0000
0000
0100
0020
0000
0000
0000
0000
0130
0000
0000
0000
0001
0000
0010
0100
,
0000
0000
0010
0000
1000
0010
0000
0200
0000
0000
0000
0000
0300
0000
0000
0000
,
0010
0000
1000
0001
0000
0000
0001
0000
0010
0000
0100
0000
0010
0000
0100
1000
,
0200
0000
0000
0000
0000
0000
0000
0000
0310
0000
0000
0000
0000
0100
0000
0000
,
1001
0000
0010
0200
0000
0000
0000
0000
0310
0000
0000
0000
1000
0000
0100
0010
,
0000
0001
0000
0000
0100
0000
0001
2000
0000
0000
0000
0000
3000
0100
0000
0100
,
0010
0001
0010
1000
0020
0000
0230
0000
,
0302
0000
0000
0000
,
0003
0000
0010
0100
0001
1000
0010
0100
,
1001
0000
0000
0000
0010
0000
1000
0000
2000
0000
0000
0100
3100
0000
0010
0000
,
0100
0001
0010
0001
0010
0200
0000
0010
,
0310
0001
1000
0020
0031
0200
0310
1000
,
0001
0000
0010
0000
0100
0000
1000
0000
0100
0000
0010
0000
0100
0001
0000
0000
,
0110
0000
1000
0000
0100
0010
0000
0002
0000
0000
0000
0000
0010
0000
0000
0000
,
0013
0000
0100
0000
0010
0000
1000
0000
0100
0000
0001
0000
0100
0000
0001
0010
,
0000
0020
0000
0000
0000
0000
0000
0100
0130
0000
1000
0000
0001
0000
0100
0000
,
0010
0020
0000
0000
0230
2300
3200
2300
,
3200
0000
0000
0000
0000
0010
0000
0010
0010
0300
0020
0000
0000
0000
0000
0000
,
0130
1000
0100
0002
0000
0000
0000
0000
0023
0000
0000
0000
0000
0000
0000
0000
,
0130
0000
1000
0001
1000
0001
1000
0001
1000
0000
0100
0000
0010
0000
0001
0000
,
0010
0010
0100
0001
2000
0000
0100
0100
,
3000
0000
0000
0000
;

//---------------dance-single - ----------------
#NOTES:
     dance-single:
     :
     Hard:
     6:
     0.236,0.239,0.007,0.103,0.010:
1000
0100
0001
0000
0010
0000
0100
0000
,
0010
0100
0100
0001
0100
0000
0010
0000
,
1000
0100
0100
0000
0001
0010
0010
0000
,
0200
0000
0000
0000
0000
0000
0000
0300
,
0010
0000
1000
0010
0100
0000
0001
0000
,
0100
0010
0001
0010
0100
0000
0010
0000
,
1000
0100
0100
0000
0010
0000
0100
0000
,
0001
0010
0100
1000
,
0001
0000
0010
0100
0020
0000
0030
0000
,
0100
0001
0010
1000
0010
0000
0100
0000
,
0001
1000
0010
0100
,
0010
0000
1000
0010
0000
0010
0001
0000
,
0100
0010
0001
1000
0010
0000
0100
1000
,
0100
0001
0100
0010
1000
0010
0000
0010
,
0100
0010
0001
1000
0010
0000
0010
0000
,
0200
0000
0320
0000
,
0130
0001
1000
0010
0100
0000
0100
0010
,
1000
0100
0001
0010
0100
0010
0000
0010
,
0100
0001
0010
0001
1000
0000
0100
0000
,
0020
0000
0000
0000
0000
0000
0000
0000
0000
0000
0000
0000
0000
0000
0030
1000
,
0000
0000
0100
0020
0000
0000
0000
0000
0030
0000
0000
0000
0100
0000
0001
0000
,
0010
0001
0100
0010
1000
0000
0010
0000
,
0100
0100
0010
0010
0001
0010
1000
0010
,
0200
0000
0310
0001
,
0100
0000
0010
0002
0000
0000
0000
0000
0003
0000
0000
0000
0010
0000
0100
0000
,
0010
1000
0100
0010
0002
0000
0000
0103
,
0010
0010
0100
0100
1000
0000
0001
0000
,
2000
0000
0000
0000
0000
0000
0000
3000
,
0000
0000
0100
0010
0100
0010
0001
1000
,
0010
0000
0100
0000
0001
0010
1000
0010
,
0001
0000
0100
0000
0010
0100
0010
1000
,
0100
0000
0010
0000
0100
0010
1000
0100
,
0001
0000
0010
0100
0000
0100
0010
0000
,
1000
0100
0010
1000
0100
0001
0100
0000
,
0010
0001
0100
0010
1000
0001
0100
0000
,
0010
0100
0001
0010
1000
0010
0001
0000
,
0010
0100
0010
1000
0100
0010
0001
0100
,
0020
0000
0130
0100
0001
0010
1000
0010
,
0200
0000
2300
0000
3020
0000
0130
0100
,
0001
0001
1000
1000
0001
1000
0010
0100
,
0010
0001
0010
1000
0020
0000
0100
0030
,
0110
0000
0000
0000
;
