#TITLE:KAKUMEI x WAP;
#SUBTITLE:;
#ARTIST:dj TAKA with NAOKI x Cardi B & Megan Thee Stallion;
#TITLETRANSLIT:;
#SUBTITLETRANSLIT:;
#ARTISTTRANSLIT:;
#CREDIT:;
#BANNER:kakumei x wap banner.png;
#BACKGROUND:kakumei x wap bg.png;
#LYRICSPATH:;
#CDTITLE:;
#MUSIC:kakumei x wap.mp3;
#OFFSET:-6.800;
#SAMPLESTART:17.600;
#SAMPLELENGTH:15.000;
#SELECTABLE:YES;
#BPMS:0.000=148.000,6.000=142.000,13.000=116.000,14.000=108.000,15.000=83.000,16.000=101.000,18.000=142.000,20.000=148.000;
#STOPS:;
#BGCHANGES:;

//---------------dance-single - ----------------
#NOTES:
     dance-single:
     :
     Hard:
     10:
     0.718,0.850,0.503,0.101,0.626:
1001
0000
0010
0000
,
0100
0000
1000
0000
,
0100
0000
0010
0000
,
1000
0001
0010
0100
,
1000
0000
0010
0000
,
0100
0010
1000
1001
,
0001
0010
0001
0000
0100
0010
0100
0000
1000
0000
0100
0010
0001
0010
0100
0000
,
1000
0000
0010
0000
0110
0000
0001
0010
0100
1000
0100
0010
0001
0010
0100
0010
,
1000
0100
1000
0100
0010
0001
0010
0100
0010
1000
0100
0001
0100
0010
1000
0100
,
0001
0000
0010
0000
0100
1000
0100
0010
0100
0001
0010
0100
0010
1000
0100
0000
,
0010
0001
0011
0000
0100
1000
1100
0000
,
0010
0000
0100
1000
0001
0000
0100
0010
0100
0000
0010
0000
2001
0000
3000
0000
,
0010
0100
1000
0000
0010
0001
0010
0100
0010
1000
0100
0010
0100
0000
0000
0010
,
0001
0000
0010
0100
0010
1000
0100
0000
0010
0000
0100
0001
0010
0000
1000
0000
,
0010
0100
0011
0000
0010
0100
1010
0000
,
0100
0010
0100
0002
0000
0013
0100
0010
,
1000
0100
1100
0000
0010
0100
0001
0001
,
0010
0100
0010
2000
0000
3100
0010
0100
,
0011
0010
0110
1001
0100
0010
1001
0100
,
1000
0010
0100
0002
0000
0013
0100
1000
,
0011
0010
0110
0000
1000
0100
0010
0001
,
0010
0000
0100
0000
1000
0000
0200
0000
0000
0000
1300
0000
0010
0001
0010
0100
,
1010
0000
0000
0100
0000
0010
0001
0010
0100
0000
0000
0010
0000
0001
0100
1000
,
0100
0010
0000
0001
0000
1000
0010
0100
0010
0000
0000
0100
0000
0010
0001
0010
,
0100
1000
0100
0010
0000
0001
0010
0100
1000
0000
0000
0010
0000
0100
0010
0001
,
0010
0000
0000
0010
0100
0001
0010
1000
0100
0000
0000
0000
0010
0100
0010
0000
,
1000
0000
0100
0000
0010
0000
0001
0000
0100
0010
0000
0000
1000
0001
1000
0000
,
0010
0000
0000
0000
0001
0000
0010
0100
1000
0000
0000
0000
0010
0100
0010
0000
,
1001
0000
0000
0000
0100
0010
0100
0000
1001
0000
0000
0000
0010
0100
0000
0000
,
0010
0100
1000
0100
0010
0001
0010
1000
0100
0000
0000
0000
0001
0010
0001
0000
,
0011
0000
0000
0000
0010
0100
0010
0000
0110
0000
0000
0000
0100
1000
0100
0000
,
1100
0000
0000
0000
1000
0100
1000
0000
1001
0000
0000
0000
0100
0010
0001
0000
,
0110
0000
0000
1100
0000
0000
0110
0000
0001
0010
0100
0000
0010
0000
1000
0000
,
0100
0001
0100
0000
0010
1000
0010
0000
0101
0000
0000
0000
0010
0100
0010
1000
,
0100
0000
0000
0000
0001
0010
0100
1000
0100
0000
0000
0000
1000
0010
0100
0001
,
0010
0000
0000
0000
0100
0010
0001
0010
0100
0000
0000
0000
0010
1000
0001
0100
,
0010
0000
0000
0000
1000
0100
1000
0010
0100
0000
0000
0000
0001
0100
0010
1000
,
0100
0000
0000
0000
0010
0100
0001
1000
0010
0000
0000
0000
0100
0000
1000
0000
,
1100
0000
0110
0000
0011
0000
0010
0100
,
0011
0000
0110
0000
1100
0000
0010
0100
,
0110
0000
0010
0000
0110
0000
0001
0000
0110
0000
1000
0100
0010
0001
0010
0100
,
0000
0000
0000
0000
0000
0000
0000
0000
0000
0000
0000
0000
1000
0100
0010
0001
,
0110
1001
0010
0010
0110
1001
0001
0010
,
0100
0000
0010
1000
0010
0000
0100
0001
0100
0000
1000
0000
0010
0100
0001
1000
,
0010
0000
0001
0010
0100
1000
0100
0010
0001
0000
1000
0000
0010
0100
1000
0100
,
0010
0000
1000
0100
0010
0001
0010
0100
1100
0000
0011
0000
0100
0000
0000
1000
,
0000
0000
0010
0000
0100
0000
0001
0010
0000
0000
0100
0000
0010
0000
0000
1000
,
0000
0000
0010
0000
0100
0000
0000
0001
0000
0000
0000
0000
0110
0000
0000
0110
,
0000
0000
0001
0000
0110
0000
0000
0110
0000
0000
1000
0000
0010
0000
0100
0000
,
0001
0000
0010
0000
0100
0000
0001
0010
0000
0010
0100
0000
1000
0100
0010
0001
,
0010
0000
0000
0000
1001
0000
0000
0010
0000
0000
0100
0000
1000
0000
0010
0100
,
0000
0001
0010
0100
1000
0000
0000
1002
0000
0000
0003
0000
0100
0000
0000
0100
,
0000
0000
0010
0000
0100
0000
0001
0010
0000
0000
1000
0100
0010
0000
0100
0001
,
0000
0000
0001
0010
0100
0000
0010
0200
0000
0000
0000
0000
1300
0010
0000
0000
,
1010
0000
0000
0000
0100
0001
0000
0000
0110
0000
0000
0000
0001
0000
0010
0000
,
0100
0000
2000
0000
0000
0000
3100
0000
0110
0000
0010
0000
1000
0001
0000
0000
,
0010
0100
0000
0000
0001
1000
0000
0000
0110
0000
0000
0000
0100
0000
0010
0000
,
0001
0020
0000
0130
0100
0010
1000
0001
,
1001
0000
1001
0000
1001
0000
0010
0100
,
0001
1000
0010
0100
0220
0000
0000
0000
,
0000
0000
0000
0000
,
0000
0000
0000
0000
,
0330
0000
0000
0000
;

//---------------dance-single - Original KAKUMEI Hea----------------
#NOTES:
     dance-single:
     Original KAKUMEI Hea:
     Challenge:
     9:
     0.501,0.510,0.055,0.064,0.343:
1001
0000
0100
0000
,
0010
0000
1000
0000
,
0001
0000
0100
0000
,
0010
1000
0100
0010
,
0001
0000
1000
0000
,
0100
0000
0000
0000
0001
0000
0000
0000
0010
0000
0000
0100
1000
0000
0000
1000
,
0010
0000
0000
0000
0001
0000
0000
0000
1001
0000
0000
0010
1000
0000
0000
0100
,
1000
0000
0000
0000
0001
0000
0000
0000
0100
0000
0000
0001
0010
0000
0000
0010
,
0001
0000
0000
0000
1000
0000
0000
0000
1001
0000
0000
0100
0001
0000
0000
0010
,
0001
0000
0000
0000
1000
0000
0000
0000
0100
0000
0000
0001
1000
0000
0100
0000
,
0010
0000
0000
1000
0001
0000
0000
0000
0110
0000
0000
0100
0001
0000
0000
0010
,
0100
0000
1000
0000
0001
0000
0000
0000
0110
0000
0000
0001
0010
0000
0000
1000
,
0100
0000
0010
0000
0000
0000
1000
0000
0000
0000
0001
0000
0000
0000
1000
0100
,
1000
0000
0000
0000
0001
0000
0000
0000
0100
0000
0000
0001
1000
0000
0000
0100
,
0010
0000
0000
0000
0001
0000
0000
0000
0101
0000
0000
1000
0010
0000
0000
0001
,
0100
0000
0000
0000
0010
0000
0000
0000
0001
0000
0000
0100
0010
0000
0000
1000
,
0001
0000
0000
0000
0100
0000
0000
0001
1000
0000
0000
1000
0100
0000
0000
0001
,
1000
0000
0000
0000
0100
0000
0000
0010
0001
0000
0000
0100
0010
0000
1000
0000
,
0001
0000
0000
0000
0000
0000
1000
0100
1000
0000
0000
0000
0001
0000
0000
0000
,
0000
1000
0000
0001
0000
0010
0100
0010
,
0001
0000
0000
0000
0100
0000
0000
0001
0010
0000
0000
0000
0100
0000
0000
1000
,
0001
0100
1000
0100
0001
0010
1000
0010
,
0002
0000
0000
0000
0000
0000
0000
0000
1003
0000
0000
0000
0100
0000
0000
0001
,
0020
0000
0000
0000
0000
0000
0000
0000
0031
0000
0000
0000
0100
0000
0000
0001
,
0020
0000
0000
0000
0000
0000
0000
0000
1030
0000
0000
0000
0001
0000
0000
0100
,
2000
0000
0000
0000
0000
0000
0000
0000
3001
0000
0000
0000
0100
0000
0000
0001
,
0010
0000
0000
0000
1000
0000
0000
0000
0100
0000
0000
0000
0010
0000
0000
1000
,
0100
0000
0000
0000
0001
0000
0000
0000
0100
0000
0000
0000
0001
0000
0000
0100
,
0010
2000
0010
0001
,
0100
0000
3001
0000
0000
0100
0010
0100
,
0001
0000
0000
0000
0100
0000
0010
1000
0010
0000
0000
0000
1000
0000
0000
0000
,
0100
0000
0001
0100
0001
0000
1000
0000
,
1000
0000
0000
0000
0100
0000
0010
0001
0010
0000
0000
0000
0001
0000
0000
0000
,
0100
0000
0000
0000
1000
0000
0100
0000
1000
0000
0000
0000
0001
0000
0000
0100
,
0010
1000
0100
0010
0001
0100
0010
1000
,
0100
0000
0010
0000
0001
0000
1000
0000
0010
0000
0100
0000
0001
0000
0000
0100
,
0010
1000
0001
0010
0100
1000
0010
0100
,
0001
0000
1000
0000
0100
0000
0010
0000
0001
0000
1000
0000
0100
0000
0000
0010
,
0100
1000
0010
0100
0001
1000
0100
0010
,
0001
0100
0010
1000
0001
0010
0100
1000
,
0010
0000
0100
0000
0001
0000
1000
0000
0100
0000
0010
0000
0001
0100
0001
0000
,
0000
0000
0000
0000
0000
0000
0000
0000
0000
0000
0000
0100
0010
0000
0000
1000
,
0001
0000
0100
0000
0010
0000
1000
0000
0100
0000
0000
0001
1000
0000
0000
0100
,
0010
0000
1000
0000
0100
0000
0010
0000
0001
0000
0000
1000
0010
0000
0000
0100
,
0001
0000
1000
0000
0010
0000
0100
0000
0001
0000
0000
0010
0001
0000
0000
0100
,
1000
0000
0010
0000
0001
0000
0010
0000
1000
0100
0000
0100
0010
0000
0000
0001
,
0100
0000
0000
0010
1000
0000
0100
0000
0100
0000
0000
0010
0001
0000
0100
0000
,
0010
0000
1000
0000
0100
0000
0000
0000
0010
0000
0000
0001
1000
0000
0000
0100
,
0010
0000
0001
0000
0100
0000
0010
0000
1000
0000
0001
0000
0100
0000
0000
0010
,
0001
0000
0000
0000
0100
0000
0000
0000
0000
0000
0000
1000
0010
0000
0000
0001
,
0010
0000
0100
0000
0100
0000
0000
0000
0001
0000
0000
0100
1000
0000
0000
0100
,
0001
0000
0010
0000
0100
0000
0000
0100
0010
0000
0000
1000
0100
0000
0000
0001
,
0100
0000
0100
0000
0010
0000
0000
1000
0001
0000
0000
0010
1000
0000
0000
0100
,
0001
0000
1000
0000
0001
0000
0000
0100
0010
0000
1000
0000
0001
0000
0000
0000
,
0100
0000
0010
1000
0010
0001
0010
1000
,
0000
0100
0000
0010
0001
0100
0010
1000
,
0100
0000
0010
0001
0010
0000
0100
0000
1000
0000
0000
0000
1000
0000
0000
0001
,
0100
0000
0010
1000
0010
0000
0100
0000
0001
0000
0000
0000
0001
0000
0000
0100
,
0010
0000
1000
0001
1000
0000
0100
0000
0010
0000
0000
0000
0010
0000
0001
0100
,
0001
0000
1000
0000
1000
0010
0200
0000
0020
0000
0000
0000
0000
0000
0000
0000
,
0000
0000
0000
0000
,
0000
0000
0000
0000
,
0330
0000
0000
0000
;

//---------------dance-single - ----------------
#NOTES:
     dance-single:
     :
     Medium:
     7:
     0.463,0.510,0.247,0.073,0.000:
1001
0000
0010
0000
,
0100
0000
0001
0000
,
1000
0000
0010
0000
,
0100
1000
0010
0100
,
1001
0000
0010
0000
,
0100
0001
0010
1000
,
0001
0000
0010
0000
0100
0010
1000
0000
,
0100
1000
0001
0000
0001
0010
0100
0000
,
0010
0000
0100
0000
0010
1000
0010
0000
,
0100
1000
0100
0000
0100
0000
0010
0000
,
1000
0100
0010
0000
0100
0010
0001
0000
,
0010
0100
0010
0000
0001
0010
0110
0000
,
0010
0100
0010
0000
1000
0100
0002
0000
,
0013
0000
0100
0000
0010
0000
1000
0100
,
0001
0000
0001
0100
1000
0000
0010
0100
,
0010
1000
0000
1000
0001
0010
0010
0100
,
0020
0000
0130
0000
0001
1000
0001
0000
,
1000
0000
0010
0100
0000
0100
0010
0000
,
1000
0100
0100
0000
0001
1000
1000
0000
,
0010
0100
0001
1000
0000
0001
0010
0000
,
0100
0010
0110
0000
0010
0100
0010
0000
,
1000
0100
0001
0100
1000
0010
0100
0000
,
0001
0000
0010
0100
1000
0000
0010
0100
,
1000
0000
0010
0010
0010
0000
0100
0000
,
1000
0000
0100
0010
0001
0000
0100
0010
,
0001
0000
0100
0100
0100
0000
0001
1000
,
1001
0000
0010
0000
0001
0000
0100
0010
,
0110
0000
0001
0000
0010
0000
0100
1000
,
1100
0010
0100
0001
,
0020
0200
0000
0330
,
1000
0100
0001
0000
1000
0100
0001
0000
,
0001
0010
1000
0000
0001
0010
1000
0000
,
0010
0100
0001
1000
0010
0010
0100
0000
,
0001
0010
0100
1000
1001
0000
0100
0010
,
0001
0000
0010
0100
1000
0000
0010
0100
,
0001
0000
0010
1000
0100
0000
0001
1000
,
0100
0000
0100
0010
0001
0000
0100
0010
,
1000
0000
0010
0100
0001
0000
0010
0100
,
0110
0000
0110
0000
0110
0000
1000
0001
,
1001
0000
1001
0000
1001
0000
0010
0100
,
1100
0011
1010
0202
,
0000
0000
0000
0003
0300
0000
1000
0000
,
0010
0100
0001
1000
0010
0000
0100
0000
,
0001
0010
1000
0010
0001
0000
0100
0000
,
0010
1000
0100
0001
0001
0000
0010
0000
,
0100
0010
1000
0100
0100
0000
0010
0000
,
1000
0100
0001
0010
0100
1000
0010
0000
,
0100
0010
1000
0100
0001
0100
1000
0000
,
0100
0010
0010
0100
0010
0001
1000
0000
,
0100
1000
0010
0100
0001
0010
0010
0000
,
0100
0000
0011
0000
0010
0100
0010
1000
,
0100
0000
0010
0000
1000
0000
0010
0100
,
1000
0000
1100
0000
0010
0100
0001
0010
,
1000
0000
0010
0100
0010
0000
1000
0100
,
0011
0000
0010
0100
0110
0000
0001
0010
,
0100
1000
0000
0100
0010
0100
0001
0001
,
0010
0000
1000
0000
0110
0000
1000
0100
,
0010
0001
0000
0001
0010
0000
0100
0010
,
0110
0000
0110
0000
0110
0000
1000
0001
,
1000
0010
0000
0100
0220
0000
0000
0000
,
0000
0000
0000
0000
,
0000
0000
0000
0000
,
0330
0000
0000
0000
;

//---------------dance-single - ----------------
#NOTES:
     dance-single:
     :
     Easy:
     4:
     0.308,0.312,0.155,0.055,0.000: // measure 1
1001
0000
0000
0000
,  // measure 2
0010
0000
0000
0000
,  // measure 3
0100
0000
0000
0000
,  // measure 4
0001
0000
1000
0000
,  // measure 5
1001
0000
0000
0000
,  // measure 6
0000
0000
0000
0000
,  // measure 7
1000
0100
0010
0010
,  // measure 8
0100
0001
0010
0010
,  // measure 9
0001
0100
1000
1000
,  // measure 10
0100
1000
0001
0001
,  // measure 11
0010
0100
0010
0100
,  // measure 12
0001
1000
0001
0001
,  // measure 13
0100
1000
0010
0100
,  // measure 14
0001
0010
0100
0100
,  // measure 15
0010
0110
0010
0001
,  // measure 16
0010
0100
0010
1000
,  // measure 17
0100
1001
0010
0100
,  // measure 18
0001
0010
0100
0001
,  // measure 19
0010
0110
0001
0010
,  // measure 20
0001
0100
0010
1000
,  // measure 21
0100
0100
0010
0010
,  // measure 22
0001
1000
0001
1000
,  // measure 23
0200
0300
0010
0100
,  // measure 24
0002
0003
1000
0010
,  // measure 25
2000
3000
0100
1000
,  // measure 26
0020
0030
0100
0001
,  // measure 27
0010
0010
0100
0010
,  // measure 28
1000
0001
0100
0010
,  // measure 29
1001
0010
0100
0001
,  // measure 30
0001
0010
0100
0010
,  // measure 31
0001
0010
0001
1000
,  // measure 32
0001
0100
0001
0010
,  // measure 33
0100
0100
0100
0100
,  // measure 34
0010
1000
1001
0010
,  // measure 35
0100
0001
0010
0100
,  // measure 36
0010
1000
0010
0100
,  // measure 37
1000
0001
0010
0100
,  // measure 38
0010
0001
1000
0010
,  // measure 39
0100
0100
0100
0010
,  // measure 40
0001
0001
0001
1000
,  // measure 41
0010
0100
0010
0100
,  // measure 42
0000
0000
0000
0000
,  // measure 43
0001
1001
0010
0100
,  // measure 44
0010
1000
0100
0001
,  // measure 45
0100
0010
0010
0100
,  // measure 46
0010
1000
1000
0100
,  // measure 47
0001
0010
0100
1000
,  // measure 48
0010
0001
1000
0100
,  // measure 49
0010
0010
0100
0100
,  // measure 50
1000
0100
0010
0001
,  // measure 51
0100
0110
0010
0001
,  // measure 52
1000
1001
0010
0010
,  // measure 53
0100
0110
0001
0010
,  // measure 54
0001
1000
0010
0010
,  // measure 55
1001
0100
0110
0001
,  // measure 56
0010
0100
1000
0010
,  // measure 57
0100
0001
0100
0010
,  // measure 58
1000
1000
0100
0010
,  // measure 59
1001
1001
1001
0100
,  // measure 60
0010
0100
0220
0000
,  // measure 61
0000
0000
0000
0000
,  // measure 62
0000
0000
0000
0000
,  // measure 63
0330
0000
0000
0000
;
