#TITLE:In Your Eyes;
#SUBTITLE:;
#ARTIST:The Weeknd;
#TITLETRANSLIT:;
#SUBTITLETRANSLIT:;
#ARTISTTRANSLIT:;
#CREDIT:;
#BANNER:In Your Eyes banner.png;
#BACKGROUND:In Your Eyes bg.png;
#LYRICSPATH:;
#CDTITLE:;
#MUSIC:In Your Eyes.mp3;
#OFFSET:-5.140;
#SAMPLESTART:52.240;
#SAMPLELENGTH:15.000;
#SELECTABLE:YES;
#BPMS:0.000=100.040;
#STOPS:;
#BGCHANGES:;

//---------------dance-single - ----------------
#NOTES:
     dance-single:
     :
     Hard:
     8:
     0.481,0.435,0.259,0.190,0.240:
1001
0000
0000
0000
0110
0000
0000
0000
1000
0000
0000
0001
0010
0000
1100
0000
,
0000
0000
0011
0000
0000
0000
0100
0010
0100
0000
0000
0000
1000
0000
0010
0100
,
1000
0000
0001
0000
0100
0000
0010
0100
,
1000
0000
0010
0000
0000
0000
0100
0000
0000
0000
0000
0001
0011
0000
0000
0000
,
0020
0000
0230
0000
0301
0000
1000
0010
,
0100
0000
0002
0000
0000
0000
0013
0100
0010
0000
0000
0000
1000
0000
0000
0100
,
0010
0000
1000
0000
0100
0010
0100
0010
,
0001
0000
0010
0000
1000
0000
0010
0000
0000
0000
0100
0000
1000
0001
1000
0001
,
0200
0000
0320
0000
0130
0000
0001
0010
,
0100
0000
2000
0000
0000
0000
3010
0100
0010
0000
0000
0000
0001
0000
1000
0000
,
0110
0000
1001
0000
0100
0010
0100
1000
,
0010
0000
0100
0000
0010
0000
0001
0000
0000
0000
1000
0100
0010
0001
0010
0100
,
2000
0000
0000
0000
3010
0000
0000
0100
0010
0000
0000
0000
0001
0000
0010
0000
,
0001
0000
0010
0100
0010
0010
1000
0000
,
0010
0000
0000
0001
0020
0000
0000
0000
0130
0000
0000
0000
0010
0000
0000
0000
,
0110
0000
1000
1000
0001
0100
1000
0001
,
0000
0000
1000
0100
0020
0000
0030
0000
0100
0010
0002
0000
0003
0000
0110
0000
,
0000
0000
0001
0010
0100
0000
0010
0000
1000
0000
0100
0000
0010
0000
0010
0000
,
0100
0000
1000
0001
1000
0000
0000
0000
0010
0100
0010
0000
0000
0000
1001
0000
,
0000
0000
0100
0010
0100
0000
0001
0000
0010
0000
0100
0000
0010
0000
0100
0000
,
1001
0000
0110
0000
1000
0100
0100
0010
,
0100
0000
0010
0000
0001
0000
1000
0000
0010
0000
0100
0000
0001
0000
0010
0100
,
0020
0000
0000
0000
0130
0000
0000
0000
0001
0000
0010
0000
0100
0000
1000
0100
,
0010
0100
0002
0000
0013
0100
0010
0001
,
0110
0000
1001
0000
0110
0000
1000
0100
,
0001
0000
0100
0000
1000
0000
0010
0000
0001
0000
0100
0000
0010
0000
1000
0001
,
0200
0000
0000
0000
0310
0000
0000
0000
1000
0000
0001
0000
0010
0000
0100
1000
,
0100
0010
0100
0002
0000
0013
0100
0010
,
0001
0000
0010
0100
0000
0100
1000
0000
0000
0000
0100
0000
0110
0000
1000
0000
,
0100
0000
0100
0010
0000
0010
0001
0000
0000
0000
0010
0000
0011
0000
0100
0000
,
0010
0000
0100
1000
0000
1000
0100
0010
0100
0000
0000
0000
0010
0000
0110
0000
,
0000
0000
1100
0000
0010
0000
0100
0000
0010
0000
0001
0000
0100
0000
0010
0100
,
0010
0000
0001
0000
1000
0000
0110
1000
,
0010
0000
0001
0000
0010
0000
1000
0000
0010
0000
0110
0000
0100
0000
0001
1000
,
0002
0000
0000
0000
0013
0000
0000
0000
0100
0000
0010
0000
0100
0000
0010
1000
,
0100
0000
0010
0000
0100
0010
0001
0000
0010
0000
0010
0000
1000
0001
0100
0010
,
2000
0000
3200
0000
0310
0000
1000
0100
,
0010
0000
0002
0000
0000
0000
0013
0100
0010
0000
1000
0000
0100
0000
0010
0100
,
0002
0000
0023
0000
0130
1000
0100
0110
,
0000
0000
0011
0000
0000
0000
1001
0000
0000
0000
0110
0000
1000
0100
0010
0001
,
2000
0000
3200
0000
0310
1000
0010
1001
,
0010
0000
0200
0000
0000
0000
0310
0001
0010
0000
0000
0000
0100
0000
0010
1000
,
0200
0000
0302
0000
0013
0000
0100
0011
,
0010
0000
1100
0000
0010
0000
0110
0000
0000
0000
1001
0000
0010
0001
0010
0100
,
0010
0000
0000
0000
1000
0000
0100
0010
0000
0000
0001
0000
0100
0010
0100
0010
,
0000
0000
1000
0000
0100
0001
0100
0001
0000
0000
0010
0000
1000
0100
0010
0100
,
0010
0000
0001
0000
0010
0000
0100
1000
0000
0000
0100
0000
0010
0000
0010
0000
,
0100
0000
0010
0000
0001
0000
1000
0000
0100
0000
0010
0000
0100
0010
0001
0010
,
0100
0010
1010
0000
0100
0000
0010
0100
,
0010
0000
0011
0000
0010
0000
1100
0000
0010
0000
0100
0000
0010
0000
1000
0100
,
0010
0000
0000
0001
0010
0000
0100
0000
0010
0000
0100
0000
0001
0010
0100
0000
,
0010
0000
1000
0100
0010
0001
0010
0100
1000
0000
0000
0000
0001
1000
0001
0110
;

//---------------dance-single - ----------------
#NOTES:
     dance-single:
     :
     Medium:
     6:
     0.330,0.316,0.107,0.046,0.004:
1001
0000
0110
0000
1000
0000
0100
0001
,
0000
0010
0000
0100
0010
0000
0100
0000
,
0001
0000
0010
0000
0100
0000
0010
1000
,
0000
0100
0000
0010
0000
0001
0010
0010
,
0100
0000
0010
0000
0100
0000
0001
0010
,
0000
1000
0000
0010
0100
0000
0110
0000
,
1000
0000
0100
0000
0010
0000
1000
0100
,
0000
0001
0000
0100
0000
0010
0100
0000
,
0010
0000
0100
0000
0010
0000
1000
0001
,
0000
0010
0000
0100
0001
0000
0010
0100
,
0010
0000
1000
0000
0100
0000
0010
0100
,
0000
1000
0000
0001
0000
0100
0010
0010
,
0100
0000
1000
0000
0001
0000
0100
0010
,
1000
0000
0100
0010
0010
0000
0001
0000
,
0100
0010
0100
0000
0010
0000
0001
0000
,
2002
0000
0000
3003
0010
0000
0100
0010
,
0000
1000
0100
0000
0010
0100
0000
0001
,
0000
0010
0100
0000
0010
0100
0010
0000
,
1000
0001
1000
0000
0010
0100
0000
0010
,
0000
1000
0100
0010
0001
0000
0010
0010
,
0110
0000
1001
0000
0100
0000
0010
0100
,
0010
0000
0001
0000
0010
0000
0100
0010
,
0000
0001
1000
0000
0100
0010
0100
0010
,
0000
1000
0010
0000
0100
0001
1000
0020
,
0000
0000
0100
0000
0001
0000
0100
0030
,
0100
0000
1000
0000
0010
0000
0100
0001
,
0000
1000
0010
0000
0100
0010
0001
0010
,
0000
0100
0010
0000
1000
0100
0100
0010
,
0100
0000
0001
0010
0000
1000
0010
0100
,
0010
0000
0100
0001
0000
0010
0001
0010
,
0100
0000
0010
1000
0000
0100
0010
0100
,
0000
0010
0100
0010
0010
0001
0010
0100
,
2000
3200
0320
0031
,
0100
0000
0010
0000
0100
0000
0001
1000
,
0000
0010
0100
0000
0010
1000
0010
0100
,
0000
0010
0100
0000
0001
0001
1000
1000
,
1001
0000
0110
0000
0010
0001
0100
0010
,
0000
0010
0100
0001
0010
0000
1000
0010
,
0100
0000
0010
0000
0100
0010
0001
1000
,
0000
0010
0000
0100
0000
0010
0100
0010
,
1001
0000
0110
0000
0001
1000
0100
1000
,
0000
0010
0100
1000
0100
0000
0001
1000
,
0001
0000
0010
0000
0001
0000
0100
0010
,
0000
1000
0100
0001
0000
0001
0010
0010
,
0110
0000
1001
0000
0010
0100
1000
0010
,
0100
0000
0100
0010
0001
0010
1000
1000
,
0010
0000
0100
0010
0100
0000
0001
1000
,
0100
0100
0010
0100
1000
0100
0010
0100
,
0110
0000
1001
0000
0010
0001
0010
0010
,
0100
0000
0010
0100
0010
0001
0100
0000
,
0010
0000
0100
0000
1000
0000
0010
0100
,
0100
0000
0000
0000
0010
0000
1000
0000
0000
0000
0100
0000
0010
0000
0100
0010
;

//---------------dance-single - ----------------
#NOTES:
     dance-single:
     :
     Easy:
     3:
     0.219,0.218,0.076,0.030,0.000: // measure 1
1001
0110
1000
0100
,  // measure 2
0010
0010
0100
0001
,  // measure 3
0010
0010
0100
0010
,  // measure 4
0001
0010
0100
1000
,  // measure 5
0100
0100
0000
0010
,  // measure 6
0100
0001
0000
1000
,  // measure 7
0010
0100
0000
0001
,  // measure 8
0010
0100
1000
0010
,  // measure 9
0010
0100
0000
0010
,  // measure 10
0001
0010
0000
1000
,  // measure 11
0100
0010
0100
0010
,  // measure 12
0001
0001
0001
0100
,  // measure 13
0020
0030
0010
0100
,  // measure 14
1000
0100
0010
0100
,  // measure 15
1000
1000
0000
0100
,  // measure 16
0110
0000
1000
0100
,  // measure 17
0001
0000
0010
0000
,  // measure 18
0100
0000
0010
0010
,  // measure 19
0100
0000
0001
0000
,  // measure 20
1000
0000
0010
0100
,  // measure 21
0110
1000
0100
0010
,  // measure 22
0100
0100
0001
0001
,  // measure 23
0010
0100
0000
0010
,  // measure 24
0001
0200
0300
0010
,  // measure 25
0110
0100
0001
0010
,  // measure 26
1000
1000
0100
0010
,  // measure 27
0100
0001
0000
0010
,  // measure 28
0100
2000
3000
0100
,  // measure 29
0010
0010
0100
0001
,  // measure 30
0010
0010
1000
0100
,  // measure 31
1000
1000
0010
0100
,  // measure 32
0001
0100
1000
0010
,  // measure 33
0100
0100
0010
0000
,  // measure 34
0001
0010
0100
0010
,  // measure 35
1000
0010
0000
0100
,  // measure 36
0010
0200
0300
0010
,  // measure 37
0100
0100
0001
0010
,  // measure 38
0100
0100
0010
1000
,  // measure 39
0100
0010
0100
0010
,  // measure 40
0001
0001
0010
0100
,  // measure 41
0110
0001
0010
0001
,  // measure 42
0010
0100
0010
1000
,  // measure 43
0100
1000
0010
0010
,  // measure 44
0100
0010
1000
0110
,  // measure 45
1001
0010
0100
0010
,  // measure 46
0001
0100
0010
0001
,  // measure 47
0100
0100
0000
0010
,  // measure 48
1000
0100
0010
0100
,  // measure 49
1001
0010
0001
0001
,  // measure 50
0010
0100
0010
0100
,  // measure 51
1000
0100
0010
0001
,  // measure 52
0010
0100
0001
0100
,  // measure 53
1001
0000
0000
0000
;
