#TITLE:INITIAL S;
#SUBTITLE:;
#ARTIST:SORI;
#TITLETRANSLIT:;
#SUBTITLETRANSLIT:;
#ARTISTTRANSLIT:;
#CREDIT:;
#BANNER:INITIAL S banner.png;
#BACKGROUND:INITIAL S bg.png;
#LYRICSPATH:;
#CDTITLE:;
#MUSIC:INITIAL S.mp3;
#OFFSET:-12.080;
#SAMPLESTART:46.260;
#SAMPLELENGTH:15.000;
#SELECTABLE:YES;
#BPMS:0.000=164.001;
#STOPS:;
#BGCHANGES:;

//---------------dance-single - ----------------
#NOTES:
     dance-single:
     :
     Hard:
     7:
     0.528,0.538,0.290,0.032,0.028:
1001
0000
0010
0000
0100
0001
0000
0010
,
0000
0100
0001
0100
0000
0010
0000
1010
,
0000
0100
0001
0000
1010
0000
0100
0000
,
1000
0000
0010
0100
1000
0001
0010
0000
,
1000
0000
1001
0000
0010
0100
0000
0010
,
0000
1000
0001
1000
0000
0010
0000
0011
,
0000
0010
0100
0000
0110
0000
1000
0001
,
1000
0000
0010
0001
0000
0001
0010
0000
,
0100
0000
0010
1000
0010
0000
0100
1000
,
0010
0000
0100
0001
0010
0000
1000
0000
,
0010
0000
0100
0001
0010
0000
1000
0010
,
0100
0000
0100
0010
0001
0000
0110
0000
,
0001
0000
0010
0100
1000
0000
0100
1000
,
0010
0000
0100
1000
0001
0000
0001
0000
,
0010
0000
0100
0001
0000
0001
0010
0100
,
0010
0000
0100
0001
0000
0000
0010
0100
,
0110
0010
0001
0010
0100
1000
0100
0010
,
0000
0100
0001
0100
0000
0010
0100
1000
,
0100
0001
0100
0010
1000
0100
0010
1000
,
0000
0000
0100
0000
1000
0000
0100
0000
0000
0000
0010
0000
0100
0001
0000
0000
,
0001
0010
0000
0000
0010
0100
0000
0000
0100
1000
0000
0000
1001
0000
0000
0000
,
1000
0100
0000
0000
0100
0010
0000
0000
0010
0001
0000
0000
1001
0000
0000
0000
,
0010
0100
0001
0010
0001
0100
0010
1000
,
0010
0000
0110
0000
1000
0100
0010
0001
,
1001
0000
0010
0100
0000
0100
0010
0000
,
0001
0010
0000
0010
0100
1000
0100
0010
,
1001
0000
0010
1000
0000
1000
0010
0000
,
0001
0100
0000
0100
0001
0010
0001
0010
,
0110
0000
0001
0011
0000
0010
0110
0000
,
1000
1100
0000
0100
0010
0001
0100
0000
,
0010
0100
0010
0001
1000
0100
0100
0010
,
0110
0000
1000
0100
0010
0001
0010
0100
,
0110
0000
0010
0001
0000
0001
0010
0000
,
0010
0100
0000
0100
0010
0001
1000
0010
,
0100
0000
1000
0010
0000
0001
0010
0100
,
0020
0000
0100
0031
0100
0010
1000
0010
,
0110
0000
1000
1100
0000
0100
0110
0000
,
0010
0011
0000
0001
0010
0100
0010
0000
,
1000
0001
0010
0001
0010
0000
0100
0000
,
1100
0000
0011
0000
0100
0010
1001
0000
,
0010
0000
0100
0000
0010
0001
0010
0100
,
0000
0010
0100
1000
0000
0010
0000
0110
,
0000
0001
0010
0001
0100
0000
0110
0000
,
1000
0100
0010
0100
0010
0001
0100
0000
,
0100
0000
1001
0000
0010
0001
0000
0100
,
0000
0010
1000
0001
0000
0010
0000
0100
,
0000
0001
0010
1000
0010
0000
0001
0000
,
0100
0000
0110
0000
0001
1000
0010
0000
,
0100
1000
1000
1000
,
0100
0010
0001
0100
,
0010
0001
0001
0001
,
0010
0100
0001
1000
,
0010
0100
0010
1000
,
0001
0100
0010
1000
,
0010
0000
0010
0100
0000
0100
0010
0001
,
0100
0010
0000
0100
0000
1000
0001
0200
,
0000
0000
0000
0300
,
0010
0000
0100
0000
0010
0100
0110
0000
,
0001
0010
1000
0010
0001
0100
0010
1000
,
0100
0001
0010
0100
0010
1000
0100
0001
,
0110
1000
0100
0000
0010
0000
0001
0010
,
1000
0100
0010
0001
1000
0010
0001
0000
,
0100
0010
0100
0001
1000
0000
0010
0000
,
0110
0000
0011
0000
0010
0100
0010
0000
,
1000
0100
0010
0010
0100
0010
0001
0001
,
0010
0100
0010
1000
0010
1000
0100
0000
,
1001
0000
0100
0010
0000
0010
0100
0000
,
0010
0001
0000
0001
0010
0100
0010
0000
,
2000
0100
0010
3100
,
0010
0000
0100
0000
0001
1000
0010
0000
,
0100
0000
0010
1000
0000
1000
0010
0000
,
0100
0010
0000
0010
0001
0010
0100
0000
,
0020
0100
0100
0100
0100
0000
1030
0000
,
0100
0000
0001
0000
1000
0010
0100
0000
,
0000
1001
0000
0000
;

//---------------dance-single - ----------------
#NOTES:
     dance-single:
     :
     Medium:
     5:
     0.416,0.448,0.113,0.024,0.000:
1000
0000
0100
0000
0001
0100
0000
0010
,
0000
1000
0001
1000
0000
0010
0000
0110
,
0000
0010
0100
0000
0001
0000
0010
0000
,
1000
0000
0010
0100
0000
0100
0010
0000
,
0100
0000
0001
0000
1000
0010
0000
0100
,
0000
1000
0010
1000
0000
0100
0000
0110
,
0000
0010
0100
0000
0001
0000
0010
0000
,
0001
0000
1000
0010
0000
0001
0010
0000
,
1000
0100
0010
1000
,
0100
0010
0001
0001
,
0100
0010
0001
0100
,
0010
0001
0010
0100
,
0010
1010
0100
1100
,
0010
0100
0001
1000
,
0010
0000
0100
0001
0000
1000
0000
0001
,
0010
0000
0010
0001
0000
0000
0100
0010
,
0100
0000
0010
0000
0001
0000
1000
0010
,
0000
0000
0100
0010
0000
0000
1000
0001
,
1000
0000
0100
0000
0010
0000
1000
0001
,
0000
0000
0001
1000
0000
0000
0010
0000
,
0110
0010
0001
0010
,
0010
0100
1000
0110
,
1000
0001
1000
0000
0010
0100
0001
0000
,
0010
0000
0110
0000
0001
0010
0100
1000
,
0110
0000
0000
1000
0000
0000
0001
0000
,
0000
0010
0000
0100
0010
0100
0010
0100
,
1000
0000
0000
0100
0000
0000
0010
0000
,
0000
0001
0000
0010
0100
0000
0001
1000
,
0001
0000
0010
0100
0000
0100
0010
0000
,
0100
1000
0000
0000
0001
0000
0001
0000
,
0010
0000
0100
0000
0001
0000
0010
1000
,
0100
0000
0000
0100
0010
0100
0010
0001
,
0010
0000
0000
0010
0000
0000
0100
0000
,
0000
0010
0000
1000
0001
1000
0001
1000
,
0010
0000
0100
0010
0000
0000
1000
0100
,
0020
0000
0130
0100
,
0101
0000
0000
0010
0000
0000
1000
0000
,
0000
0010
0000
0000
0100
0010
0100
0000
,
1000
0000
0100
0001
0100
0000
0010
0000
,
0001
0000
0001
0000
0010
0100
1000
0000
,
0010
0000
0100
0000
0001
1000
0000
0100
,
0000
0010
0001
0010
0000
1000
0000
1010
,
0000
0010
1000
0000
1000
0000
0100
0000
,
0010
0000
1000
0001
0000
0001
1000
0000
,
0010
0000
0001
0000
0010
1000
0000
0001
,
0000
1000
0001
1000
0000
0001
1000
0001
,
0010
0000
0100
0010
0001
0000
0100
0000
,
0010
0000
1000
0000
0010
0001
0010
0000
,
0010
0100
0001
1000
,
0010
0010
0100
0001
,
0010
1000
1000
0100
,
0010
1000
0100
0001
,
0010
0001
0010
0100
,
0010
1000
0010
0100
,
0010
0000
0100
0001
0000
0001
0100
0000
,
0010
0100
0000
0001
0000
1000
0010
2000
,
0000
0000
0000
0000
0000
0000
0000
3000
,
0100
0000
0010
0000
0001
1000
0001
0000
,
0010
0100
0010
0000
1000
0010
0000
0100
,
0000
0001
0010
0001
0000
0010
0000
0110
,
0000
0010
0001
0000
0010
0000
0100
0000
,
0010
0000
1000
0010
0000
0010
0001
0000
,
0100
0010
0001
0000
0001
0010
0000
0100
,
0000
0010
0100
0010
0000
1000
0100
1000
,
0000
0010
0100
0001
1000
0000
0010
0000
,
0110
0000
0110
0000
1000
0001
1000
0000
,
0010
0000
0001
0010
0000
0010
0100
0000
,
0010
0100
0000
0100
0010
0001
0010
0000
,
2000
0100
0100
3100
,
0010
0000
0100
0000
0010
1000
0001
0000
,
0100
0000
0010
1000
0000
1000
0010
0000
,
0100
0001
0000
0001
0100
0010
1000
0000
,
0100
0010
0001
0010
0001
0000
0010
0000
,
0100
0000
0001
0000
1000
0001
1000
0000
,
0000
1001
0000
0000
;

//---------------dance-single - ----------------
#NOTES:
     dance-single:
     :
     Easy:
     2:
     0.322,0.329,0.105,0.080,0.000: // measure 1
0020
0030
0010
0100
,  // measure 2
0001
0010
1000
1000
,  // measure 3
0010
0100
0001
0010
,  // measure 4
0001
0001
0010
0100
,  // measure 5
0010
2000
3000
0000
,  // measure 6
0100
0010
0100
0010
,  // measure 7
1000
0001
0010
0010
,  // measure 8
0100
0010
0100
0100
,  // measure 9
1000
0100
0010
0001
,  // measure 10
0010
0001
0010
0100
,  // measure 11
0010
0001
0010
0100
,  // measure 12
0010
1000
0100
0010
,  // measure 13
0100
0001
0010
0001
,  // measure 14
0010
0100
0010
0010
,  // measure 15
1000
0100
0001
0100
,  // measure 16
1000
0010
0200
0300
,  // measure 17
0100
0100
0010
0010
,  // measure 18
0001
0000
1000
0000
,  // measure 19
0010
0010
0100
0100
,  // measure 20
1000
0000
0001
0000
,  // measure 21
0100
0010
0001
0110
,  // measure 22
0010
0100
1000
0110
,  // measure 23
0100
0001
1000
0010
,  // measure 24
0100
0000
0010
0010
,  // measure 25
0110
0000
1001
0000
,  // measure 26
0010
0001
0010
0100
,  // measure 27
0110
0000
1001
0000
,  // measure 28
0010
1000
0100
0010
,  // measure 29
0001
0000
0010
0000
,  // measure 30
0100
1000
0100
0001
,  // measure 31
0000
0001
0010
0100
,  // measure 32
0010
0000
0010
0010
,  // measure 33
1001
0000
0110
0000
,  // measure 34
1000
0100
0010
0100
,  // measure 35
1001
0000
0110
0000
,  // measure 36
0001
1000
0010
0001
,  // measure 37
0100
0000
0010
0000
,  // measure 38
1000
0100
0010
0001
,  // measure 39
0000
1000
0010
0100
,  // measure 40
0010
0010
0100
0100
,  // measure 41
0020
0030
0100
0001
,  // measure 42
0010
0001
0010
0100
,  // measure 43
0010
1000
0100
0010
,  // measure 44
1000
0100
0010
0010
,  // measure 45
0100
0002
0003
0010
,  // measure 46
0100
0010
0001
0010
,  // measure 47
0100
0010
1000
0100
,  // measure 48
0001
0001
0100
0010
,  // measure 49
0001
0010
0100
0010
,  // measure 50
1000
0100
0010
0002
,  // measure 51
0003
0010
0100
0010
,  // measure 52
1000
0100
0001
0200
,  // measure 53
0300
0010
0100
0010
,  // measure 54
0001
1000
0010
0100
,  // measure 55
0010
0000
0010
0000
,  // measure 56
0100
0000
0100
0002
,  // measure 57
0000
0000
0000
0003
,  // measure 58
0010
0010
0100
0010
,  // measure 59
0110
0000
1000
0100
,  // measure 60
0001
0010
0100
0010
,  // measure 61
1000
0100
0010
0001
,  // measure 62
0010
0001
0100
1000
,  // measure 63
0110
0000
1000
0001
,  // measure 64
0100
0010
1000
0100
,  // measure 65
0001
0100
1000
0010
,  // measure 66
0001
0001
0010
0100
,  // measure 67
0001
0010
0100
0010
,  // measure 68
1000
0100
0010
1000
,  // measure 69
0200
0000
0000
0300
,  // measure 70
0010
0100
0010
0001
,  // measure 71
1000
0010
0100
0001
,  // measure 72
0010
0100
0010
1000
,  // measure 73
0002
0010
0010
0013
,  // measure 74
0100
0010
1000
0010
,  // measure 75
0000
1001
0000
0000
;
