#TITLE:I'm so sick;
#SUBTITLE:;
#ARTIST:Apink;
#TITLETRANSLIT:;
#SUBTITLETRANSLIT:;
#ARTISTTRANSLIT:;
#CREDIT:;
#BANNER:I'm so sick banner.png;
#BACKGROUND:I'm so sick bg.png;
#LYRICSPATH:;
#CDTITLE:;
#MUSIC:I'm so sick.mp3;
#OFFSET:-11.660;
#SAMPLESTART:49.640;
#SAMPLELENGTH:15.000;
#SELECTABLE:YES;
#BPMS:0.000=124.000;
#STOPS:;
#BGCHANGES:;

//---------------dance-single - ----------------
#NOTES:
     dance-single:
     :
     Hard:
     8:
     0.542,0.529,0.337,0.195,0.277: // measure 1
1001
0000
0000
0000
0010
0100
1000
0100
0020
0000
0030
0000
0100
0010
0001
0010
,  // measure 2
0200
0000
0300
0000
0010
0001
0010
0100
2000
0000
3100
0000
0000
0000
0000
0000
,  // measure 3
1001
0000
0000
0000
1100
0000
0000
0000
0011
0000
0000
0000
1001
0000
0000
0100
,  // measure 4
0000
0000
0000
0010
0000
0000
0100
0000
0000
0001
0000
0000
1000
0000
0001
0000
1000
0000
0001
0000
0000
0000
0000
0000
,  // measure 5
1100
0000
0100
0010
0000
0000
0011
0000
0010
0100
0000
0000
1001
0000
0100
0010
,  // measure 6
0000
1000
0010
0000
0100
0010
0001
0010
,  // measure 7
0200
0000
0000
0000
0310
1000
0010
0000
0000
0000
0010
0000
0000
1000
0000
0000
,  // measure 8
0010
0000
0100
0000
0001
1000
0001
0000
0020
0000
0000
0000
0130
0000
0000
0000
,  // measure 9
0001
0000
0010
0100
0000
0000
0010
0000
0100
1000
0000
0000
1000
0000
0100
0010
,  // measure 10
0000
1001
1001
0000
1000
0100
0010
0100
,  // measure 11
2000
0000
0000
0000
3100
0010
0001
0000
0010
0000
0100
0000
0000
0010
0000
0000
,  // measure 12
0110
0000
0000
0000
0000
0000
1000
0100
,  // measure 13
0001
0100
0010
1000
0100
0001
0010
0001
,  // measure 14
0100
0010
0002
0000
0023
0000
0130
0001
,  // measure 15
0100
0100
0010
1000
0100
0001
0100
1000
,  // measure 16
1010
0000
0000
0100
0000
0000
0101
0000
0000
0010
0000
0000
0110
0000
0000
0000
,  // measure 17
1000
0000
0100
0010
0000
0010
0100
0000
0010
0001
0010
0000
0100
0000
0000
0000
,  // measure 18
0001
0000
0010
0100
0000
0100
0010
0000
1000
0100
1000
0000
0010
0000
0100
0000
,  // measure 19
1001
0000
0010
0001
0200
0000
0320
0000
,  // measure 20
1030
0001
0100
1001
0000
0010
0100
0010
,  // measure 21
1001
0000
0000
0000
0001
0010
0200
0000
0000
0000
0310
0000
0001
0000
0010
0000
,  // measure 22
1000
0000
0000
0020
0000
0000
0100
0000
0030
0000
1000
0000
0100
0000
0001
0000
,  // measure 23
0100
0000
0000
0100
0000
0000
0010
0000
1000
0000
0010
0000
0001
0000
0100
0000
,  // measure 24
0010
0100
0010
0000
1000
0000
0001
0000
0000
0000
0002
0000
0023
0000
0230
0000
,  // measure 25
0000
0310
1000
0001
0100
0010
0110
0000
,  // measure 26
1000
0100
0010
0001
0010
0100
1001
0000
,  // measure 27
0100
0000
0010
1000
0010
0000
0100
0000
0010
0000
0100
0000
0101
0000
0101
0000
,  // measure 28
0010
0000
0100
0000
0010
0000
1000
0000
0001
0000
0000
0010
0000
0000
0100
0000
,  // measure 29
0010
0000
0000
1000
0000
0000
0001
0000
0110
0000
0000
0000
1001
0000
0000
0000
,  // measure 30
1000
0100
0000
0100
0010
0000
0010
0000
0001
0010
0000
0010
0100
0000
0100
0000
,  // measure 31
1000
0000
0000
0100
0000
0000
0010
0000
0011
0000
0000
0000
1001
0000
0000
0000
,  // measure 32
0010
0100
0000
0100
0010
0000
0001
0000
1000
0001
0000
0001
1000
0000
0010
0000
,  // measure 33
1100
0000
0000
0000
0001
0010
0100
1000
0200
0000
0300
0000
0010
1000
0100
0001
,  // measure 34
0200
0000
0300
0000
0010
0100
0001
0010
2000
0000
3100
0000
0010
0000
0000
0000
,  // measure 35
1000
0001
0001
0100
0010
1000
1001
1001
,  // measure 36
0000
0000
0010
0000
0100
0000
0001
0000
1000
0000
0000
0010
0000
0000
1000
0000
,  // measure 37
0010
0000
1000
0100
0001
0100
0000
0010
,  // measure 38
0000
0001
0000
0100
0000
0010
1000
0100
,  // measure 39
1001
0000
0010
0100
0010
1000
0100
1000
,  // measure 40
0000
0020
0000
0130
0001
0100
0010
0010
,  // measure 41
0100
0000
0011
0000
1100
0010
0100
0001
,  // measure 42
0000
0001
0010
0100
1000
0010
0010
1000
,  // measure 43
0101
0000
0010
0100
0010
1000
0100
0001
,  // measure 44
0100
0020
0000
0000
0030
1001
0000
0000
,  // measure 45
0200
0000
0000
0000
0310
1000
0001
0100
,  // measure 46
0110
0000
0000
0001
0010
0000
0100
0000
0010
0000
1000
0000
0010
0000
0100
0000
,  // measure 47
0001
0000
0000
2000
0000
0000
0000
0000
3100
0000
0010
0000
0100
0000
0001
0000
,  // measure 48
1001
0000
0000
0010
0000
0000
0100
0000
0001
0000
0010
0000
0001
0000
1000
0000
,  // measure 49
0010
0100
0010
0000
1000
0000
0200
0000
0000
0000
0310
0000
0001
0000
1000
0000
,  // measure 50
0010
0100
0100
0010
1000
0010
0200
0000
,  // measure 51
1300
0010
0001
0010
1000
0100
1001
0000
,  // measure 52
0100
0000
0010
1000
0010
0000
0100
0000
0001
0000
0010
0000
1100
0000
1100
0000
,  // measure 53
0000
0000
0010
0000
0100
0000
0001
0000
1000
0000
0000
0001
0000
0000
1000
0000
,  // measure 54
0010
0000
0000
0001
0000
0000
0100
0000
0010
0000
1000
0001
1000
0000
0010
0000
,  // measure 55
1000
0100
0000
0001
0100
0000
0010
0000
0001
0100
0000
0010
1000
0000
0100
0000
,  // measure 56
1000
0000
0010
0000
0100
0000
0001
0000
0010
0000
0100
0001
0100
0000
0010
0000
,  // measure 57
1000
0010
0000
0100
1000
0000
0100
0000
1001
0000
0000
0010
0000
0000
1001
0000
,  // measure 58
0100
0000
0000
0000
0010
1000
0001
0100
0010
0000
0000
0000
0001
0010
0100
0010
,  // measure 59
1000
0000
0000
0000
0100
0010
0001
0100
0010
0000
0000
0000
1000
0000
0100
0000
,  // measure 60
0010
0100
0100
0001
0010
1000
0110
0110
,  // measure 61
0000
0000
0010
0000
0001
0000
1000
0000
0011
0000
0000
0110
0000
0000
2002
0000
,  // measure 62
0000
0000
3003
0000
;

//---------------dance-single - ----------------
#NOTES:
     dance-single:
     :
     Medium:
     7:
     0.362,0.345,0.157,0.090,0.000:
1000
0000
0010
0100
0002
0000
0013
0100
,
2000
0000
3010
0100
0001
0010
0000
0000
,
0110
0010
0001
0100
,
0010
1000
0001
0100
0010
0000
0010
0000
,
0100
0001
0000
0001
0100
0000
0010
1000
,
0000
1000
0010
0000
0100
0010
0001
0000
,
1000
1100
0010
0100
,
0010
0011
0001
0010
,
0100
0010
0000
0010
1000
0000
0100
0010
,
0000
1000
0001
0000
0010
0100
0010
0000
,
1000
0110
0001
0010
,
2002
0000
0000
3003
0000
0000
1000
0100
,
0010
0010
0100
0001
,
1000
0010
0200
0000
1300
0000
0010
0100
,
0001
0010
0100
1000
,
0001
0000
0010
0100
0000
0100
0010
0000
,
1000
0000
0011
0000
0100
0010
0100
0000
,
0010
0000
1100
0000
0010
0001
0010
0000
,
0100
0000
0001
1000
0020
0000
0230
0000
,
0301
0000
1000
0001
0000
0000
0000
0000
,
1001
0000
0100
0010
0000
0010
0100
0001
,
1000
0000
0010
1000
0000
0100
0010
0001
,
0010
0000
0100
0010
0100
0000
1000
0001
,
1000
0000
0010
0000
0001
0010
0100
1000
,
0000
1000
0100
0000
0010
0100
0010
0000
,
1000
0001
1000
0001
1000
0001
0100
0000
,
0010
0000
0100
0000
0001
0000
1010
0010
,
0000
0100
0010
0000
0010
0000
1000
0001
,
0010
0100
0001
1000
,
0010
0100
1000
0000
0010
0001
0100
0000
,
0010
0001
1000
0110
,
1000
0010
0100
0000
0001
0010
0100
0000
,
0010
0000
1000
1000
0100
0000
0100
0100
,
0010
0000
0001
0001
0010
0000
0110
0000
,
0001
0000
0010
0000
0100
0000
0001
0010
,
0000
0010
0100
0000
0110
0000
1000
0001
,
2000
0100
0000
3100
,
0020
0001
0000
0031
,
0100
0000
0010
1000
0001
0100
0000
0010
,
0000
0110
0000
0000
0000
0000
0100
0010
,
1000
0000
0100
0000
0001
1000
0000
0010
,
0000
0100
0000
0001
0000
0100
0000
0110
,
0000
0000
0001
0010
0100
1000
0000
0010
,
0000
0200
0000
0000
0000
0310
0000
0000
,
1001
0000
0000
0000
0000
0100
0001
1000
,
0110
0000
0010
0100
0000
0001
0010
1000
,
0010
0000
0100
0010
0000
0001
1000
0010
,
0100
0000
0001
1000
0100
0000
0010
1000
,
0010
0000
0100
0001
0000
0001
0010
0100
,
0000
0010
0100
0000
0001
1000
0001
0000
,
0100
1000
0010
0100
0001
0010
0100
0000
,
0010
0000
1001
0000
0010
0000
1000
0100
,
0000
0010
1000
0000
0010
0000
0010
0100
,
0011
0000
0010
0100
1000
0000
0010
0000
,
1000
0100
0001
0000
0001
0100
1000
0000
,
0010
0000
0100
0010
0001
0000
0110
0000
,
0001
0010
1000
0000
0010
0000
0100
1000
,
0000
0100
0010
0100
0010
0000
1001
0000
,
0100
0000
0010
0100
0000
0100
0010
0001
,
0000
0001
0010
0000
1000
0000
0010
0100
,
0000
0100
0010
0000
1000
0000
0001
0220
,
0000
0000
0330
0000
;

//---------------dance-single - ----------------
#NOTES:
     dance-single:
     :
     Easy:
     4:
     0.261,0.253,0.082,0.052,0.000:
0000
0100
0100
0001
,
0001
0100
0100
0010
,
1001
0000
0000
0000
,
0010
0010
0100
0100
,
0001
0010
0001
0010
,
0100
0100
0010
1000
,
0100
0010
0100
0100
,
0010
0001
0010
0010
,
1000
1000
0100
0100
,
0010
1000
0001
0100
,
0001
1000
0100
0100
,
1001
0000
0000
0010
,
0010
0100
0001
0010
,
0100
2000
0000
3100
,
0010
0010
0100
0100
,
0001
1000
0010
0110
,
0001
0001
0010
0010
,
0100
0001
1000
0010
,
0100
0000
0100
0001
,
0100
1001
0000
0000
,
1001
0010
0100
0010
,
0001
0001
0100
0010
,
1000
1000
0010
0100
,
1000
0010
0100
0001
,
1000
0100
0010
0010
,
0100
0001
0100
0100
,
0010
0001
0010
1000
,
0010
0100
0001
0001
,
0010
0100
0010
0000
,
1000
0100
0010
0001
,
0010
1000
0010
0000
,
0100
0001
0010
1000
,
0010
0100
0100
0001
,
0001
0010
0010
0100
,
0010
1000
0100
0001
,
0001
0010
0100
0100
,
0020
0000
0130
1000
,
0200
0000
0301
0010
,
0001
0000
0100
0000
,
0010
1000
0000
0110
,
0100
0010
0010
0100
,
0001
0010
1000
0100
,
0100
0010
0010
1000
,
0100
0001
0100
1000
,
2002
0000
3003
0010
,
1001
0010
0100
1000
,
0100
0010
0100
0010
,
0001
0001
0010
0010
,
0100
0010
1000
0100
,
0001
0100
0010
0010
,
1000
0100
0001
0001
,
0010
0001
0100
0010
,
1000
0100
0010
0010
,
1000
0100
0001
1001
,
0010
0100
0010
0100
,
0001
0010
0100
1001
,
0100
0010
0100
0010
,
1000
0100
0100
0001
,
0001
0010
0010
1000
,
0001
0100
0010
0010
,
1000
0100
0001
1000
,
2002
0000
3003
0000
;
