#TITLE:HIP;
#SUBTITLE:;
#ARTIST:MAMAMOO;
#TITLETRANSLIT:;
#SUBTITLETRANSLIT:;
#ARTISTTRANSLIT:;
#CREDIT:;
#BANNER:HIP banner.png;
#BACKGROUND:HIP bg.png;
#LYRICSPATH:;
#CDTITLE:;
#MUSIC:HIP.mp3;
#OFFSET:-7.320;
#SAMPLESTART:69.080;
#SAMPLELENGTH:15.000;
#SELECTABLE:YES;
#BPMS:0.000=138.000;
#STOPS:;
#BGCHANGES:;

//---------------dance-single - ----------------
#NOTES:
     dance-single:
     :
     Hard:
     8:
     0.685,0.678,0.475,0.166,0.331:
1000
0100
0010
0100
0001
0001
0010
0100
,
0010
1000
0001
0100
0020
0000
0130
0100
,
1000
1000
0001
0001
0100
0010
1000
0100
,
0001
0000
0110
0000
0110
0000
0110
0000
0000
0000
1000
0001
1000
0000
0000
0000
,
0011
0010
0100
0010
1000
0100
1100
0010
,
0100
0000
0001
0010
0001
0000
0010
0000
0100
0010
0100
0000
2000
0000
0000
0000
,
3100
0010
0000
0010
0100
0000
0001
0000
0110
0000
0000
0000
0011
0000
0000
0000
,
1000
0000
0100
0010
0100
0000
0010
0001
0010
0000
0100
0000
1001
0000
0000
0000
,
0001
0000
0010
0000
0100
0000
1000
0000
1000
0000
0100
0000
1000
0000
0010
0100
,
0010
1000
0100
0010
0001
0100
0020
0000
,
0130
1000
0100
0001
0100
0000
0010
0100
,
0010
0000
1100
0000
0110
0000
0011
0000
0000
0000
0100
0010
0100
0000
0000
0000
,
0001
0010
0000
0000
0100
0000
0010
0000
1000
0000
0000
0100
0000
0000
0010
0000
,
0100
0000
0001
1000
0000
0000
0010
0000
0100
0000
0001
0000
1000
0000
0000
0000
,
0010
0000
0010
0000
0100
0000
0001
0000
1000
0000
0000
0010
0000
0000
1000
0000
,
0010
0000
0100
0001
0000
0000
0010
0000
0100
0000
0010
0000
0010
0000
1000
0000
,
0100
0000
0010
0001
0000
0001
0010
0000
0100
0000
0010
0000
1000
0000
0100
0010
,
0001
0000
1000
0001
0000
0001
1000
0100
0010
0000
0000
0000
0100
0000
0010
0000
,
0101
0000
0010
1000
1100
0000
0010
0100
,
0010
0000
1001
0000
0110
0000
1001
0000
0000
0000
0010
0100
0010
0000
1000
0100
,
0010
0000
0100
0010
0001
0010
0100
0000
0010
0000
1000
0000
0010
0000
0001
0100
,
0010
1000
0100
0001
0100
0010
0100
0000
0010
0000
1000
0100
1000
0000
0010
0100
,
0010
0001
0010
0100
0010
1000
0000
0100
0000
0000
0010
0000
0110
0000
0001
0010
,
0100
1000
0100
0000
0100
0000
0000
0000
0010
0000
0100
0000
0001
1000
0000
0000
,
0010
0100
0001
0001
0010
0100
0010
0010
,
1000
0100
1000
0010
0100
0001
0101
1001
,
0010
0100
0010
1000
0100
0100
0001
0010
,
0100
0001
0001
1001
0000
0010
0100
0010
,
1001
0000
0100
0010
1000
0100
0002
0000
,
0013
0000
0000
0000
0100
0000
0010
0000
1000
0001
1000
0000
0010
0000
0100
0000
,
1000
0000
0100
1000
0010
0100
2000
0000
,
3100
0000
0010
0001
0010
0000
0100
0010
0100
0000
0001
0000
1000
0000
0010
0000
,
0101
1001
1100
1010
,
0100
0010
0100
0001
2000
0000
3010
0000
,
0100
0001
0000
0000
0110
0000
0000
0000
1000
0001
0000
0000
1100
0000
0000
0000
,
0100
0010
0000
0000
0110
0000
0000
0000
2000
0000
0000
0000
0002
0000
3003
0000
,
0110
0000
1000
0001
0110
0000
0001
0010
,
0100
0010
0000
0000
1000
0010
0000
0000
0100
0001
0000
0000
0020
0000
0000
0000
,
0130
0000
0001
0010
0110
0000
1000
0010
,
0100
0010
0010
0001
0010
0000
0110
0000
,
1001
0000
0010
0001
0020
0000
0130
0000
,
1000
0100
0000
0000
0100
0010
0000
0000
1000
0001
0000
0000
0110
0000
0000
0000
,
1000
0100
0100
0010
0100
0000
0002
0000
,
0103
0000
0010
0000
1001
0000
1001
0000
0000
0000
0010
0000
0100
0000
0001
0010
,
0001
0000
0000
0000
0010
0100
0010
0000
1000
0000
0000
0000
0100
0000
0001
0000
,
1000
0010
0000
0000
0100
0000
0010
1000
0010
0000
0100
0000
0001
0000
0010
0100
,
0010
0000
0000
0000
1000
0010
1000
0000
0100
0000
0000
0000
0010
0000
0100
0000
,
0001
1000
0000
0000
0010
0100
0010
0001
0020
0000
0000
0000
0130
0000
1000
0100
,
1000
0000
0000
0000
0100
0010
0100
0000
0001
0000
1001
0000
0010
0000
0100
0000
,
0001
0010
0000
0000
0100
0000
0010
0100
0010
0000
1000
0000
0001
0000
1000
0100
,
1000
0000
0000
0000
0010
0100
0010
0000
1001
0000
1100
0000
0010
0000
0100
0000
,
0001
0010
0000
0000
0100
1000
0100
1000
0010
0000
0100
0010
0100
0000
0001
0000
,
1000
0000
0100
0000
0110
0000
0001
0000
0110
0000
1000
0000
1001
0000
0010
0100
,
0010
0001
0110
0010
0100
0001
2000
0000
,
3010
0000
0100
0000
0101
0000
0010
0000
1100
0000
0010
0000
0010
0000
0100
0001
,
0100
0010
1000
0200
0000
0310
0110
0100
,
0001
0000
0010
0000
1100
0000
0010
0000
0100
0000
0001
0000
1001
0000
0010
0100
,
0010
1000
0100
0001
0100
1000
0020
0000
,
0031
0000
0100
0000
1010
0000
0100
0000
0001
0000
1000
0010
1000
0000
0000
0000
,
1000
0100
0010
0001
0010
0100
1000
0100
0010
0000
0100
0000
0110
0000
0001
0000
,
0200
0000
0310
1000
0001
0100
0020
0000
,
0130
0001
0001
0010
0100
0010
1000
0100
,
0110
0000
0001
0010
1000
0010
0002
0000
,
0013
0000
0100
1000
0100
0000
0010
0100
0010
0000
0001
0000
0010
0000
0100
0000
,
1000
0001
0000
0000
0110
0000
0000
0000
1000
0100
0000
0000
0110
0000
0000
0000
,
1000
0100
0010
0001
0020
0000
0031
0000
,
0100
0010
0000
0000
1001
0000
0000
0000
0010
0100
0000
0000
1100
0000
0000
0000
,
0100
0010
0000
0000
1001
0000
0000
0000
0011
0000
0000
0000
1001
0000
0000
0000
,
0200
0310
1000
0100
0001
0100
0110
0011
,
0010
0100
0000
0000
0100
1000
0000
0000
0010
0100
0000
0000
0002
0000
0000
0000
,
0013
1000
0100
0010
0100
0000
0010
0011
,
0000
0000
1000
0100
0010
0001
0010
0100
1000
0000
0000
0000
0110
0000
0000
0000
,
1001
0100
0010
0100
0020
0000
0031
0000
,
1000
0010
0000
0000
0100
0001
0000
0000
0010
1000
0000
0000
0110
0000
0000
0000
,
1000
0010
0010
0100
0001
0000
0200
0000
,
0310
1000
0101
1001
0000
0000
0000
0000
;

//---------------dance-single - ----------------
#NOTES:
     dance-single:
     :
     Medium:
     7:
     0.437,0.380,0.230,0.050,0.000:
1000
0000
0100
0010
0010
0000
0100
0001
,
0001
0000
0010
0000
0100
0010
0100
0000
,
0001
0000
1000
0010
0010
0000
0100
0010
,
0000
0010
0100
0010
0000
0100
0001
0000
,
1001
0000
0010
0100
0010
0000
1000
0000
,
0001
0010
0100
0000
0010
0100
2000
0000
,
3100
0000
0010
0100
0010
0000
1000
0000
,
0100
0010
0001
0000
0001
0010
0020
0000
,
0130
0001
1000
0010
,
0010
0000
0100
0000
0001
1000
0010
0000
,
0100
0000
0010
1000
0100
0000
0010
0001
,
0000
0100
0010
0001
0000
0000
1001
0000
,
0010
0000
0100
1000
0100
0000
0010
0001
,
0010
0010
0100
0001
,
0110
0000
0001
1000
0001
0000
0010
0100
,
0010
0000
0010
0000
0100
0001
0010
0000
,
1000
0000
0100
0010
0100
0000
0010
0000
,
1100
0000
0100
0010
0001
0000
0100
0000
,
0110
0000
0001
0010
0001
0000
0010
1000
,
0000
0010
0100
0010
0000
0000
1001
0000
,
0100
0000
1000
1000
0100
0000
0010
0001
,
0001
0000
0010
0000
0100
0010
0100
0000
,
0011
0000
0010
0100
0100
0000
0010
1000
,
1000
0000
1100
0000
0010
0100
0010
0000
,
1000
0100
0010
0000
0100
0010
0001
0000
,
0100
0010
0100
0001
0100
0000
0110
0000
,
0010
0100
0001
1000
,
0000
0010
0100
0010
0000
1000
1000
0100
,
0010
0000
0100
0001
0100
0000
0010
0000
,
1010
0000
0200
0000
0000
0300
0001
0010
,
0100
0000
0010
0100
0010
0000
0001
0000
,
1001
0000
0020
0000
0000
0030
0100
1000
,
0100
0110
0100
0101
,
0010
0001
0010
0000
2000
0000
3100
0000
,
0010
0100
0010
0100
,
0001
0010
0100
1000
0000
0000
0110
0000
,
1001
0000
0010
0100
0001
0000
0010
0000
,
0100
0100
0100
0110
,
1000
0000
0100
0001
0100
0000
0010
1000
,
0000
0100
0010
0100
0001
0000
0110
0000
,
0010
0000
1000
0100
1000
0000
0010
0000
,
0100
0001
1000
0010
,
0100
0010
0010
0001
0010
0000
0110
0000
,
0100
1000
0100
1000
0000
0000
0110
0000
,
0010
0000
0100
0000
0100
0000
0001
0010
,
0001
0000
0010
1000
0010
0000
0100
0000
,
1100
0000
0010
0000
0011
0000
0100
0010
,
0100
0000
0001
1000
0001
0000
0010
0100
,
1000
0000
0010
0100
0010
0000
0001
0010
,
0001
0000
0100
0000
0010
0100
1000
0000
,
0110
0000
1000
0100
0010
0000
0100
0010
,
0000
0000
0100
0001
0100
0000
1001
0000
,
0010
0100
1000
0000
0010
0100
0001
0000
,
0100
0010
0100
0000
0001
1000
0002
0000
,
0013
0100
0010
0000
1000
0100
1000
0000
,
0010
0000
0010
0100
0000
0001
0010
0000
,
1100
0000
0010
0000
0100
0000
0010
1000
,
0100
0000
1000
0000
0010
0100
0001
0000
,
0010
0100
0010
0000
1000
0001
1000
0000
,
0010
0100
1000
0100
0010
0000
0100
0000
,
0110
0000
0001
0000
0010
0100
0010
0000
,
0001
0000
0020
0000
0000
0030
0100
0001
,
0100
0000
0010
1000
0010
0000
0100
0000
,
0010
0000
1000
0000
0100
0001
1000
0000
,
0100
0101
0010
1010
,
0100
0000
0010
1000
0100
0000
0001
0000
,
0010
0010
0100
0100
,
0001
1000
0001
1000
0000
0000
1001
0000
,
0110
0000
0001
0010
0001
0000
0010
0000
,
0100
0010
1000
0001
,
0100
0000
1000
0100
0010
0000
0100
0010
,
0000
0100
0010
0100
0010
0000
1001
0000
,
0010
0000
0001
0010
0100
0000
1000
0000
,
0010
0100
0001
1010
,
0010
0000
0100
0001
0001
0000
0110
0000
,
0001
0010
0100
1000
0000
0000
0000
0000
;

//---------------dance-single - ----------------
#NOTES:
     dance-single:
     :
     Easy:
     3:
     0.318,0.352,0.151,0.050,0.000: // measure 1
0010
0010
0100
0001
,  // measure 2
0010
1000
0020
0130
,  // measure 3
0001
0001
0010
0010
,  // measure 4
1000
0001
0000
1001
,  // measure 5
0110
0100
0100
0010
,  // measure 6
1000
0100
0010
0001
,  // measure 7
0010
0010
0100
0100
,  // measure 8
0001
0010
0100
1001
,  // measure 9
0010
0001
0010
0010
,  // measure 10
0100
1000
0100
0010
,  // measure 11
0100
1000
0100
0010
,  // measure 12
0100
0100
0000
0001
,  // measure 13
1000
0010
0010
0100
,  // measure 14
0001
0001
0010
0100
,  // measure 15
1000
0100
1000
1000
,  // measure 16
0010
0100
0010
0001
,  // measure 17
0100
0100
0010
0100
,  // measure 18
1000
1000
0010
0100
,  // measure 19
0001
0000
0010
0000
,  // measure 20
0100
0010
0000
1000
,  // measure 21
0100
0100
0010
0010
,  // measure 22
0100
0010
0001
0010
,  // measure 23
0100
0010
0100
0100
,  // measure 24
0010
2000
3000
0010
,  // measure 25
0100
0001
0001
0010
,  // measure 26
0100
0010
1000
0011
,  // measure 27
0100
0010
0100
0010
,  // measure 28
0001
0001
0000
1000
,  // measure 29
0110
1000
0100
0010
,  // measure 30
0100
0002
0003
0010
,  // measure 31
0100
0010
0100
0001
,  // measure 32
0010
2000
3000
0010
,  // measure 33
0110
0110
1001
1001
,  // measure 34
0010
0100
2000
3000
,  // measure 35
0010
0010
0100
0100
,  // measure 36
0010
0010
1000
0001
,  // measure 37
1001
0010
0100
0010
,  // measure 38
0001
0001
0001
0010
,  // measure 39
0100
0010
0100
1000
,  // measure 40
0100
1000
0010
0110
,  // measure 41
1000
0100
0010
0001
,  // measure 42
1000
1000
1000
0010
,  // measure 43
0100
0010
0001
0010
,  // measure 44
0100
0001
0000
1000
,  // measure 45
0010
0010
0100
0100
,  // measure 46
0001
0010
0100
0010
,  // measure 47
0100
0001
0010
1000
,  // measure 48
0010
0010
0100
0010
,  // measure 49
1100
0100
0010
0010
,  // measure 50
0100
0001
0010
0001
,  // measure 51
0100
0010
0001
0001
,  // measure 52
0000
0000
0000
1001
,  // measure 53
0010
0100
0010
0010
,  // measure 54
0100
0010
1000
0100
,  // measure 55
0010
0010
0001
0100
,  // measure 56
0010
0001
0000
0110
,  // measure 57
0100
1000
0100
0010
,  // measure 58
0100
0010
0001
0001
,  // measure 59
0010
0100
0010
1000
,  // measure 60
0100
0100
0100
0000
,  // measure 61
0110
0010
0001
0010
,  // measure 62
0001
2000
3000
0010
,  // measure 63
0100
1000
0100
0010
,  // measure 64
0100
0002
0003
0000
,  // measure 65
0110
0110
1001
1001
,  // measure 66
0010
0100
0010
0000
,  // measure 67
0001
0001
0010
0010
,  // measure 68
0100
0100
0010
0100
,  // measure 69
0110
0010
1000
0100
,  // measure 70
0010
0010
0100
0001
,  // measure 71
0010
0100
0010
1000
,  // measure 72
0000
1000
1000
1001
,  // measure 73
0010
0100
0001
0010
,  // measure 74
0001
0001
0010
0100
,  // measure 75
0010
0100
1000
0010
,  // measure 76
0100
0010
0000
0000
;
