#TITLE:Fantasy;
#SUBTITLE:;
#ARTIST:Meiko Nakahara;
#TITLETRANSLIT:;
#SUBTITLETRANSLIT:;
#ARTISTTRANSLIT:;
#CREDIT:;
#BANNER:Fantasy banner.png;
#BACKGROUND:Fantasy bg.png;
#LYRICSPATH:;
#CDTITLE:;
#MUSIC:Fantasy.mp3;
#OFFSET:-5.960;
#SAMPLESTART:112.520;
#SAMPLELENGTH:15.000;
#SELECTABLE:YES;
#BPMS:0.000=128.420;
#STOPS:;
#BGCHANGES:;

//---------------dance-single - ----------------
#NOTES:
     dance-single:
     :
     Easy:
     2:
     0.268,0.252,0.054,0.068,0.000: // measure 1
0010
0010
0010
0000
,  // measure 2
0100
0100
0100
0000
,  // measure 3
0001
0000
0010
0000
,  // measure 4
0100
0100
0000
1000
,  // measure 5
1001
0010
0100
0010
,  // measure 6
0001
0010
0100
0010
,  // measure 7
1000
0100
0010
0100
,  // measure 8
0010
0010
1000
1000
,  // measure 9
0100
0001
0100
0100
,  // measure 10
0010
0001
0010
0010
,  // measure 11
0100
0010
1000
1000
,  // measure 12
0100
0000
0100
0000
0100
0000
0000
0010
,  // measure 13
0000
0010
0100
0010
,  // measure 14
1001
0010
0100
0010
,  // measure 15
0001
0020
0030
0100
,  // measure 16
0010
1000
0100
0001
,  // measure 17
0100
1000
0000
0100
,  // measure 18
0110
1000
0100
0010
,  // measure 19
0001
0001
0001
0010
,  // measure 20
0100
0000
0001
0000
,  // measure 21
0100
0010
1000
1000
,  // measure 22
0010
0100
0001
0010
,  // measure 23
1000
0200
0300
0010
,  // measure 24
0100
0010
0001
1000
,  // measure 25
0010
1000
0000
0100
,  // measure 26
1000
1000
0010
0010
,  // measure 27
0100
0001
0010
1000
,  // measure 28
0010
0000
0100
0000
,  // measure 29
0001
0000
0100
0000
,  // measure 30
0010
0000
1000
0000
,  // measure 31
1001
0010
0110
0000
,  // measure 32
1000
0000
0100
0010
,  // measure 33
0001
0000
0010
0000
,  // measure 34
0100
0010
0001
0010
,  // measure 35
1000
0000
0100
0100
,  // measure 36
0000
0001
1000
0010
,  // measure 37
0100
0010
0010
0100
,  // measure 38
0001
0000
0010
0000
,  // measure 39
0100
1000
1000
0010
,  // measure 40
0100
0010
0001
1000
,  // measure 41
0200
0300
0010
0010
,  // measure 42
0100
0010
0001
1000
,  // measure 43
0020
0030
0100
0100
,  // measure 44
0001
0001
0010
0010
,  // measure 45
0100
0010
1000
0100
,  // measure 46
0010
0100
0020
0030
,  // measure 47
1000
0000
0100
0100
,  // measure 48
0010
0000
1000
0010
,  // measure 49
0100
0000
0001
0001
,  // measure 50
0010
1000
0010
0001
,  // measure 51
1000
0010
0010
0001
,  // measure 52
0100
0010
1000
0100
,  // measure 53
0010
0010
0200
0300
,  // measure 54
1000
0100
0010
0001
,  // measure 55
1000
0100
0010
0001
,  // measure 56
0010
0010
0100
0100
,  // measure 57
0001
1000
0100
0010
,  // measure 58
0110
0001
0010
0100
,  // measure 59
0010
2000
3000
0010
,  // measure 60
0100
0001
0010
0100
,  // measure 61
0010
1000
0100
0100
,  // measure 62
0010
0100
0010
0001
,  // measure 63
1000
0100
0010
0001
,  // measure 64
0200
0300
0010
0001
,  // measure 65
0010
0100
0010
0001
,  // measure 66
1001
0100
0010
1000
,  // measure 67
0100
0002
0003
0010
,  // measure 68
0100
0100
0010
0010
,  // measure 69
1000
0002
0103
0010
,  // measure 70
1000
1000
0100
0100
,  // measure 71
0001
0010
0100
1000
,  // measure 72
0010
0000
0100
0001
,  // measure 73
0010
0000
1000
0100
,  // measure 74
0010
0000
1000
0001
,  // measure 75
1001
0000
0000
0000
;

//---------------dance-single - ----------------
#NOTES:
     dance-single:
     :
     Hard:
     7:
     0.431,0.403,0.177,0.075,0.092:
1000
0000
0000
0010
0000
0000
0100
0000
0000
0000
0001
0000
0000
1000
0000
0000
,
0010
0000
0000
0100
0000
0000
0010
0000
0000
0000
1000
0000
0000
0100
0000
0000
,
0010
0000
0000
0100
0000
0000
0001
0000
0000
0000
0010
0000
0000
0100
0000
0000
,
0000
1000
0001
1000
0001
0000
0000
0000
0000
0000
0000
0000
0010
0000
0000
0000
,
1001
0000
0100
0000
0001
0010
0001
0000
,
0010
0000
0100
0000
0010
1000
0010
0000
,
0100
1000
0100
0000
0010
0000
0100
1000
,
0000
0000
1000
0100
1000
0000
0100
0010
0100
0000
0010
0001
0010
0000
0000
0000
,
0100
0000
0010
0000
0000
0000
1000
0000
0001
0000
0000
0010
0000
0000
0100
0000
,
0010
0000
0100
0000
0000
0000
0001
0000
1000
0000
0000
0100
0000
0000
0010
0000
,
0100
0000
1000
0000
0000
0000
0100
0000
0010
0000
0000
0100
0000
0000
0010
0000
,
0001
0000
0010
0000
0110
0000
0100
0000
1000
0001
0000
0000
0000
0000
1000
0001
,
0000
1000
0100
0010
,
1000
0100
0010
0001
0000
0010
0000
0110
,
0000
1000
1000
0000
0100
0010
0001
0100
,
0010
1000
0100
1000
0000
0010
0100
0010
,
0000
1000
0101
0000
0010
0100
0100
0010
,
0001
0010
0100
1000
0000
0010
0110
0000
,
1000
0100
0000
0000
0100
0010
0000
0000
0001
0000
0000
0010
0000
0000
0100
0000
,
0002
0013
0100
0010
,
0100
0001
0010
0100
,
0001
0010
0100
1000
0000
0010
0000
0110
,
0000
1000
0010
0000
0100
0001
0001
1000
,
0010
0100
0001
1000
0000
0100
0100
1000
,
0000
0010
0110
0000
1000
0100
0010
0001
,
0000
0010
0100
0010
0000
1000
0001
0010
,
0000
0010
1000
0001
0100
0000
0010
0010
,
0200
0000
0301
2000
0000
0000
3010
0000
,
1000
0100
1000
0000
0011
0000
0100
0000
,
0001
0010
0001
0000
0100
0000
1010
0100
,
0000
0010
0100
0000
1001
0000
0000
0000
,
2000
0000
0000
0000
3000
0000
0100
0000
0010
0000
0000
1000
0000
0000
0010
0000
,
0100
0000
0001
0000
0010
0000
0100
0001
,
0001
0000
0000
0000
0010
0000
0000
0000
0100
0000
0000
0010
0000
0000
1000
0000
,
0100
0000
0010
0000
1000
0001
0001
0000
,
0010
0000
0000
0000
0100
0000
0000
0000
0100
0000
0000
0001
0000
0000
0100
0000
,
0010
0000
0000
0000
1000
0000
0000
0000
0001
0000
0000
0100
0000
0000
1000
0000
,
0100
0000
0010
0100
0010
0000
1000
0010
,
0010
0200
0301
0010
,
0100
0000
0010
0000
1000
0100
0000
0010
,
0010
0000
0100
0000
0001
1000
0001
1000
,
0010
0000
0100
0000
1000
0000
0001
0001
,
0010
0000
0100
0000
0020
0000
0130
1000
,
0100
0000
0000
0000
0010
0000
0000
0000
1000
0000
0000
0001
0000
0000
0100
0000
,
0010
1000
0100
0010
,
0011
0000
0000
0000
0100
0000
0010
0000
0200
0000
0000
0000
0000
0300
0000
0000
,
0010
0101
0010
1001
,
0200
0000
1300
0000
0010
0000
0100
0001
,
0010
1000
0010
0100
,
1000
0001
0001
0010
0100
0000
0010
0001
,
0010
0100
0000
0001
0000
0000
0110
0100
,
0001
1000
0100
0010
,
1000
0000
0001
0010
0001
0000
0100
0010
,
0100
1000
0100
0020
,
0130
0000
0001
0000
1000
0010
0010
0100
,
0001
0000
0010
0000
0100
0001
1000
0010
,
0100
1001
0100
0100
,
0110
0001
0010
1000
0000
0010
0100
0010
,
0000
0100
1100
0000
0010
0100
0100
0001
,
0010
1000
0010
0001
0000
0001
0010
0100
,
0000
0001
1001
0000
0100
0010
0010
1000
,
0100
0001
0100
1000
0000
0010
0110
0000
,
0001
0010
0000
0000
0010
0100
0000
0000
0010
0000
0000
1000
0000
0000
0010
0000
,
0100
0000
1000
0010
0100
0000
0001
1000
,
0010
0101
0110
1001
,
0100
1000
0100
0010
0000
0100
0001
0100
,
0000
0010
0011
0000
0100
0010
0010
0100
,
1000
0010
0100
0001
0000
0001
1000
0001
,
0000
0100
1100
0000
0010
0010
0100
0001
,
0000
0010
0100
0010
0000
1000
1100
0000
,
1000
0100
0010
0001
0010
0000
0100
0010
,
0200
0000
0010
0010
0310
0000
0001
0000
,
2000
0000
0100
0100
3100
0000
0010
0000
,
1000
0000
0100
0010
0001
0000
1000
0000
,
1001
0000
0000
0000
;

//---------------dance-single - ----------------
#NOTES:
     dance-single:
     :
     Medium:
     5:
     0.368,0.352,0.102,0.054,0.000:
1000
0100
0020
0030
,
0100
0001
0200
0300
,
0010
0010
0100
0001
,
1000
0001
1000
0000
0000
0000
1000
0000
,
1001
0000
0110
0000
0001
0010
0100
0000
,
0010
0000
0001
0000
0100
1000
0100
0000
,
0010
0000
0100
0000
0001
1000
0010
0100
,
0000
0100
0010
0000
0001
1000
0001
0000
,
0010
0000
1000
0100
1000
0000
0010
0000
,
0100
0000
0001
0010
0001
0000
0100
0000
,
0010
0000
1000
0001
1000
0000
0010
0000
,
0100
0100
0100
0100
0010
0000
0001
0010
,
0000
0000
2001
0000
0000
3000
0100
0000
,
1000
0000
0100
0010
0000
0100
0000
0001
,
0000
1000
0010
0000
0100
0000
0001
0010
,
0001
0000
0100
0010
0000
0010
0000
1000
,
0000
0010
0100
0000
0001
0000
0010
0100
,
1000
0000
0100
0010
0000
1000
0010
0000
,
0110
0000
0011
0000
0110
0000
0010
1000
,
0010
0100
0001
1000
,
0010
0001
0010
0100
,
0010
0000
1000
0100
0000
1000
0000
0100
,
0000
0010
0010
0000
0001
0000
0100
0000
,
0010
0000
0001
0010
0000
1000
0000
0010
,
0000
0100
0001
0000
0010
0000
0100
0010
,
0100
0000
0001
0010
0000
0010
0001
0000
,
0100
0000
0010
0000
1000
0000
0100
0010
,
0001
0000
0001
0010
0100
0000
0010
0000
,
0100
0000
1000
0100
0010
0000
0100
0000
,
0110
0000
0010
0000
1000
0000
0001
2000
,
0000
3000
0100
0010
0110
0000
0000
0000
,
2000
0000
0100
0000
3010
0000
0100
0010
,
0010
0100
0001
0010
,
0100
0000
0001
0000
0010
0000
1000
0010
,
0001
0100
0010
1000
,
0100
0000
0010
0000
1000
0010
0100
0000
,
0010
0000
0100
0000
1000
0001
1000
0000
,
0010
0000
0100
0001
0010
0000
0100
0000
,
1000
0002
0023
0130
,
1000
0000
0001
0000
0100
0000
1000
0100
,
0010
0100
0010
1000
,
0001
0000
0010
0000
0001
0010
0100
0000
,
1000
0100
0010
0010
,
0100
0000
0001
0000
1000
0010
1000
0000
,
0010
0000
0100
0000
0010
0100
0001
0000
,
0010
1000
0010
0100
,
1000
0001
1000
0000
0001
1000
0001
0000
,
0020
0100
0001
0130
,
1000
0100
0010
0000
0100
0001
1000
0000
,
0010
0000
0100
0000
1000
0010
0001
0000
,
0010
0100
0010
1000
,
0010
0000
0100
0000
0001
0000
1000
0010
,
1000
0000
0100
0001
0100
0000
0010
0000
,
1000
0000
1000
0000
0001
0000
0010
0100
,
0010
0000
1000
0000
0100
0010
0001
0000
,
0010
0010
0100
0100
,
0001
0011
0110
1100
,
0010
0100
0010
0000
1000
0100
1000
0000
,
0010
0100
0001
0000
0010
0000
0100
0010
,
0100
0000
0001
0010
0000
0100
0010
0100
,
0000
1000
0010
0000
0100
0000
0010
0000
,
1000
0100
1000
0100
0000
0010
0100
0000
,
0001
0000
0010
0000
0100
0000
0010
0010
,
1000
0100
0010
0001
,
0100
1100
0110
0011
,
0100
0000
0010
0100
0010
0000
0001
0000
,
0010
0100
1000
0000
0100
0000
0010
0100
,
0010
0000
1000
0001
0000
0010
0100
0010
,
0000
1000
0010
0000
0100
0000
0010
1000
,
0010
0000
0100
0001
0000
0001
0100
0000
,
0010
0000
0100
0010
0100
0000
0001
0010
,
0001
0000
0100
0010
0010
0000
0100
0000
,
1000
0000
0010
0100
1000
0000
0010
0000
,
0100
0000
0001
0010
0100
0000
0010
0000
,
0110
0000
0000
0000
;
