#TITLE:Endlessly;
#SUBTITLE:;
#ARTIST:Alina Baraz;
#TITLETRANSLIT:;
#SUBTITLETRANSLIT:;
#ARTISTTRANSLIT:;
#CREDIT:;
#BANNER:Endlessly banner.png;
#BACKGROUND:Endlessly bg.png;
#LYRICSPATH:;
#CDTITLE:;
#MUSIC:Endlessly.mp3;
#OFFSET:-16.680;
#SAMPLESTART:49.200;
#SAMPLELENGTH:15.000;
#SELECTABLE:YES;
#BPMS:0.000=118.000;
#STOPS:;
#BGCHANGES:0.000=Endlessly.avi=1.000=1=0=1,
220.000=Endlessly bg.png=1.000=0=0=1,
99999=-nosongbg-=1.000=0=0=0 // don't automatically add -songbackground-
;

//---------------dance-single - ----------------
#NOTES:
     dance-single:
     :
     Hard:
     7:
     0.366,0.362,0.093,0.178,0.019: // measure 1
2001
0000
3010
0000
0100
0010
0001
0000
,  // measure 2
0010
0100
1000
0000
0200
0000
0310
0000
,  // measure 3
1000
0000
0100
0000
0010
0001
0010
0100
,  // measure 4
0010
1000
0020
0130
,  // measure 5
2000
0000
3100
0000
1000
0010
0100
0001
,  // measure 6
1000
0010
1000
0001
0010
1000
0200
0000
,  // measure 7
1000
0000
0000
0000
1000
0000
0000
0300
,  // measure 8
0010
0001
1000
0010
,  // measure 9
0110
0000
0000
0000
1000
0000
0000
0000
0001
0010
0000
0000
0100
0000
0000
0000
,  // measure 10
0010
0100
0001
0010
1000
0010
0200
0000
,  // measure 11
0310
0000
0000
0000
1000
0000
0000
0000
0100
0001
0000
0000
0010
0000
0000
0000
,  // measure 12
1000
0010
0001
0010
1000
0010
0002
0000
,  // measure 13
0013
0000
0000
0000
0100
0000
0000
0000
0010
1000
0000
0000
0100
0000
0000
0000
,  // measure 14
0100
0010
0001
1000
0010
0100
0020
0000
,  // measure 15
0130
0000
1000
0001
1001
0000
0000
0000
,  // measure 16
0010
0000
0100
0000
,  // measure 17
0210
0000
0301
0000
1000
0010
0100
0001
,  // measure 18
0000
0020
0000
0000
0130
0000
1000
0100
,  // measure 19
0010
0000
0100
0010
0001
0010
0000
1000
,  // measure 20
0000
0000
0020
0000
0000
0000
0000
0000
0031
0000
0000
0000
0010
0100
0010
0000
,  // measure 21
1000
0001
1000
0000
0010
0100
0001
1000
,  // measure 22
0000
0020
0000
0000
0230
0000
0000
0000
,  // measure 23
0302
0000
0000
0013
,  // measure 24
0100
0010
1000
0001
,  // measure 25
1000
0100
0110
0000
0001
0010
0100
1000
,  // measure 26
0100
0010
0002
0000
0013
0000
0100
0000
,  // measure 27
0010
0100
0010
0000
1000
0001
0010
1000
,  // measure 28
0010
0000
0001
0000
0200
0000
0000
0000
0310
0000
0000
0000
0001
1000
0001
0000
,  // measure 29
0010
0100
0010
0000
0001
0100
0010
1000
,  // measure 30
0001
0100
2000
0000
3200
0000
0000
0000
,  // measure 31
0320
0000
0000
0130
,  // measure 32
0001
1000
0001
0000
0100
0010
1000
0000
,  // measure 33
0110
0000
0110
0000
0001
0010
0100
0000
,  // measure 34
0010
0100
1000
0000
0020
0000
0130
0000
,  // measure 35
1001
0000
1001
0000
0100
1000
0100
0000
,  // measure 36
0001
0010
0001
0000
0200
0000
1300
0000
,  // measure 37
0011
0000
1100
0000
0010
0100
0010
0000
,  // measure 38
1000
0001
1000
0000
0200
0000
0310
0000
,  // measure 39
1000
0000
0000
0000
,  // measure 40
0001
0000
0000
0000
0001
0000
0001
0010
,  // measure 41
1000
0100
0010
0001
1000
0100
0010
0001
,  // measure 42
0010
0100
0010
1000
0100
0001
0100
0010
,  // measure 43
1000
0001
0010
0100
0010
0001
1000
0100
,  // measure 44
0010
0100
0010
0001
0100
1000
0010
0100
,  // measure 45
1000
0100
0010
1000
0010
0001
0100
0010
,  // measure 46
1000
0100
0001
0010
0100
0001
1000
0100
,  // measure 47
0002
0103
0010
1000
,  // measure 48
0010
0000
0100
0000
0010
1000
0001
0100
,  // measure 49
0010
0000
0010
0000
0100
0001
0100
0000
,  // measure 50
0010
1000
0010
0000
0100
0010
0010
0001
,  // measure 51
0100
0000
0010
0000
1000
0100
1000
0000
,  // measure 52
0001
0010
0001
0000
0100
1000
1000
0010
,  // measure 53
0100
0000
0001
0000
0100
0010
0100
0000
,  // measure 54
0001
1000
0001
0000
0010
0100
0010
1000
,  // measure 55
0001
0100
0010
1000
,  // measure 56
0110
0000
0000
0000
;

//---------------dance-single - ----------------
#NOTES:
     dance-single:
     :
     Medium:
     4:
     0.278,0.277,0.023,0.085,0.000:
1000
0000
0010
0000
0100
0001
0100
0000
,
0010
1000
0010
0000
0100
0000
0001
0000
,
0100
0000
0010
0000
1000
0100
1000
0000
,
0010
0001
0010
0000
0100
0000
0010
0000
,
0100
1000
0010
0100
,
0001
0000
0010
0000
1000
0100
0020
0000
,
0000
0000
0000
0030
,
0100
0001
1000
0010
,
0100
0000
0001
0010
0001
0000
0100
0000
,
0010
0100
0100
0000
1000
0010
0010
0000
,
0110
0000
1000
0100
1000
0000
0010
0000
,
0100
0001
0001
0000
0010
1000
1000
0000
,
0010
0000
0001
1000
0001
0000
0100
0000
,
0010
0100
0100
0000
1000
0010
0010
0000
,
0100
0010
0110
0000
,
0010
0000
0100
0000
,
0010
0000
0001
0000
1000
0010
0000
0100
,
0000
0002
0000
0000
0013
0000
0100
0000
,
0010
0000
1000
0000
0001
0100
0000
0010
,
0000
2000
0000
0000
3100
0000
0010
0000
,
0010
0000
0100
0000
0001
1000
0000
0001
,
0000
0200
0000
0000
0310
0000
1000
0000
,
0020
0000
0000
0000
,
0130
1000
0010
0100
,
0001
0000
0010
0000
1000
0010
0000
0001
,
0000
0200
0000
0000
0310
0000
0100
1000
,
0100
0000
0010
0000
0100
0001
0000
1000
,
0000
0002
0000
0000
0013
0000
0100
0100
,
0010
0000
1000
0000
0010
0100
0000
0001
,
0000
2000
0000
0000
3100
0000
0010
0000
,
2000
0000
0000
0000
,
3100
0010
1000
0001
,
0010
0000
0010
0000
0100
0100
0100
0000
,
0001
0001
0001
0000
0010
0000
0100
0000
,
1000
0000
1000
0000
0010
0010
0010
0000
,
1000
1000
1000
0000
0010
0000
0001
0000
,
0100
0000
0100
0000
0010
0010
0010
0000
,
0100
0100
0100
0000
0010
0000
1000
0000
,
0002
0000
0003
0000
,
1000
0000
0100
0010
,
0100
0010
0100
0000
0001
1000
0000
0010
,
0000
0100
0000
0010
0100
0000
0001
0000
,
1000
0010
0100
0000
0001
0010
0000
1000
,
0000
0010
0000
0100
0010
0000
0001
1000
,
0001
1000
0001
0000
0100
0010
0000
1000
,
0000
0010
0000
0100
0010
0000
0100
0000
,
0020
0000
0100
0000
,
0130
1000
0001
0010
,
1000
0000
0100
0000
0010
0100
0010
0000
,
0001
0010
0100
0000
0010
0000
0100
0000
,
1000
0000
0010
0000
0100
1000
0100
0000
,
0001
0100
0001
0000
0010
0000
1000
0000
,
0010
0000
0100
0000
0010
0001
0010
0000
,
1000
0100
0010
0000
0100
0000
0010
0000
,
0100
0001
1000
0010
,
0110
0000
0000
0000
;

//---------------dance-single - ----------------
#NOTES:
     dance-single:
     :
     Easy:
     2:
     0.200,0.213,0.023,0.108,0.000:
0010
0000
0010
0000
,
0100
0100
0100
0000
,
0001
0000
0001
0000
,
1000
1000
1000
0000
,
0100
0000
0100
0000
,
0010
0010
0010
0200
,
0000
0000
0000
0300
,
0010
0000
0010
0000
,
0100
0001
0100
0000
,
0010
1000
0100
0001
,
0010
1000
0010
0000
,
0100
0010
1000
0100
,
0001
1000
0001
0000
,
0100
0010
1000
0100
,
0010
0100
1001
0000
,
0010
0000
0100
0000
,
0010
0001
1000
0100
,
0001
2000
0000
3000
,
0100
0010
0100
1000
,
0100
0002
0000
0003
,
0010
0100
0001
0100
,
0010
1000
0100
0000
,
0020
0000
0000
0000
,
0030
0000
0100
0100
,
0010
0100
0001
0010
,
1000
0020
0000
0030
,
0100
0010
0001
0010
,
0100
2000
0000
3000
,
0010
0100
0001
0010
,
1000
0010
0100
0000
,
0002
0000
0000
0000
,
0003
0000
0010
0010
,
0100
0100
0001
0001
,
0010
0020
0000
0030
,
0100
0100
1000
1000
,
0010
2000
0000
3000
,
0010
0010
0100
0100
,
0001
0020
0000
0030
,
0100
0000
0000
0000
,
0100
0000
0000
0100
,
0110
0001
0010
1000
,
0010
0100
0100
0100
,
0010
0001
0100
1000
,
0010
0001
0001
0001
,
0100
0010
1000
0100
,
0010
1000
1000
1000
,
0020
0000
0000
0000
,
0130
0001
1000
0010
,
0100
0100
0001
0001
,
0010
2000
3000
0010
,
1000
1000
0100
0100
,
0010
0200
0300
0001
,
0010
0100
0010
0001
,
0010
0200
0300
0010
,
0100
0001
1000
0010
,
0110
0000
0000
0000
;
