#TITLE:Do It;
#SUBTITLE:;
#ARTIST:CHLOE X HALLE;
#TITLETRANSLIT:;
#SUBTITLETRANSLIT:;
#ARTISTTRANSLIT:;
#CREDIT:;
#BANNER:Do It banner.png;
#BACKGROUND:Do It bg.png;
#LYRICSPATH:;
#CDTITLE:;
#MUSIC:Do It.mp3;
#OFFSET:-10.960;
#SAMPLESTART:57.960;
#SAMPLELENGTH:15.000;
#SELECTABLE:YES;
#BPMS:0.000=166.000;
#STOPS:;
#BGCHANGES:2.000=Do It.avi=1.000=1=0=0,
99999=-nosongbg-=1.000=0=0=0 // don't automatically add -songbackground-
;

//---------------dance-single - ----------------
#NOTES:
     dance-single:
     :
     Hard:
     8:
     0.602,0.549,0.388,0.085,0.014:
0000
1000
0100
0010
0002
0000
0003
0100
,
0110
0000
0001
0010
0100
0000
0010
0100
,
1000
0100
0010
0100
2000
0000
3000
0100
,
0101
0000
0010
0100
0110
0010
0100
1000
,
0001
0010
1000
0010
0200
0000
0300
0010
,
0110
1000
0100
0010
0001
0000
0100
0010
,
1000
0000
0001
0000
0100
0010
0000
0000
1001
0000
0000
0000
0100
0000
0010
0000
,
0110
0001
0010
0001
0100
0000
1001
0000
,
0010
1000
0100
0001
1000
0000
0100
0001
,
0010
0100
0001
0010
0100
0000
1000
0010
,
0001
0010
1000
0010
0101
0000
0010
0100
,
1100
0000
0000
0000
0010
0100
0000
0000
0001
0000
0000
0000
0010
0000
0000
0000
,
0100
0010
0100
0010
1001
0000
0010
0001
,
0100
1000
1000
0100
0010
0100
0001
1000
,
0010
0100
0001
0010
0011
0000
0100
1000
,
1100
0010
0100
0010
1001
0000
0010
0100
,
0010
0001
0010
1000
0020
0000
0000
0030
,
0100
0000
0001
0010
1000
0000
0010
0000
,
0100
0001
1000
0010
0002
0000
0000
0003
,
0010
0000
0100
1000
0100
0000
0110
0000
,
1000
0100
0010
0001
0020
0000
0000
0030
,
0100
0000
0001
0000
,
0010
0100
0010
0011
0000
0110
0000
1100
,
0000
0110
0000
1000
0001
0100
0010
1000
,
0000
0100
1000
0100
0010
0000
0100
0010
,
0101
0010
1100
0010
,
0100
0010
1000
0100
0001
0100
2000
0000
,
0000
0000
3100
0010
0001
1000
0001
0000
,
1000
0100
0010
0001
0100
0010
0100
0010
,
0002
0000
0013
0100
,
0010
0000
1000
0001
0000
0100
0000
0010
,
0000
1000
0010
1000
0000
0100
0000
0101
,
0000
0010
1000
0001
0110
0000
1000
0100
,
0011
0000
0010
0010
0100
0000
0001
0010
,
0100
1000
1001
0000
0010
0000
0100
1000
,
1100
0000
0010
0100
0000
1000
0100
0001
,
0100
1000
0010
0100
0001
0000
0001
0010
,
0000
0010
0100
0010
0000
1000
1100
0010
,
0100
0010
0001
1000
0000
1000
0010
0110
,
0000
0001
0010
0100
0000
0010
1000
0010
,
0001
0100
0110
0000
1001
0000
0100
0010
,
1000
0000
0100
0010
0001
1000
0010
0100
,
0001
1000
0110
0000
1000
0000
0100
0010
,
0001
0000
0010
0100
0000
0010
1000
0100
,
0001
0100
1000
0010
0000
0100
0010
0100
,
0001
1000
0100
0010
0000
0100
1000
0010
,
1000
0001
0100
0000
0100
1000
0100
0000
,
0010
0100
0001
0000
1000
0100
0020
0000
,
0000
0100
0100
0130
0001
0000
0010
0100
,
1001
0000
0010
0100
1000
0100
0001
0100
,
1000
0010
0100
0001
1000
0000
0010
0100
,
0110
0000
1000
0100
0010
0001
1000
0000
,
0010
0100
0000
0000
0010
0000
0001
0000
1001
0000
0000
0000
0010
0000
1000
0000
,
0110
0000
1000
0100
0001
0100
0001
1000
,
0010
0100
0001
0010
0110
0000
0010
0001
,
0100
0010
1000
0100
1000
0000
0010
0100
,
0010
0000
1000
0100
0001
0100
0110
0000
,
0011
0000
0100
0000
0100
0000
0010
0001
,
0010
1000
0010
0000
0110
0000
1000
0000
,
1000
1000
0100
0010
0100
0100
0001
0010
,
1000
0010
0001
0000
0110
0010
0001
0010
,
0100
0010
1000
0000
0100
0010
1000
0100
,
0001
0100
1000
0000
0110
0000
1000
0100
,
0001
0000
0001
0000
0100
0000
0010
1000
,
0001
0100
0010
0000
1001
0000
0000
0000
;

//---------------dance-single - ----------------
#NOTES:
     dance-single:
     :
     Medium:
     6:
     0.447,0.427,0.256,0.066,0.000:
0000
0000
1001
0010
,
0100
0000
0001
0010
0001
0000
0010
0100
,
0010
0000
1000
0100
1000
0000
0010
0000
,
1100
0000
0010
0100
0001
0000
0010
0100
,
1000
0000
0010
0100
0010
0000
1000
0000
,
0101
0000
0010
0100
1000
0000
0010
0000
,
0100
0000
0001
0010
0100
0000
0010
0000
,
1000
0000
0100
1000
0100
0000
0010
0000
,
1000
0000
0001
1000
0100
0000
0010
0000
,
0010
0100
0001
0010
,
1000
0000
0010
0001
1000
0000
0100
0000
,
1000
0000
0010
0010
0100
0000
0001
0000
,
1000
0100
1000
0000
0110
0000
1000
0000
,
0100
0000
0010
0100
0010
0000
0001
0010
,
0001
0000
1000
0001
0001
0000
0010
0000
,
0100
0000
0001
1000
1000
0000
0010
0000
,
0100
1000
0020
0000
,
0130
0001
0010
0100
,
1000
0000
0010
0100
2000
0000
0000
0000
,
3100
0000
0010
0100
0010
0000
1000
0000
,
0100
0001
0100
0000
0020
0000
0000
0000
,
0030
0000
0000
1000
,
1000
0010
0100
0010
0000
0001
0000
1000
,
0000
0010
0000
0100
0000
0001
0000
1001
,
0000
0010
0100
0010
0001
0000
0010
0000
,
0110
1000
0100
0010
,
0100
0000
0001
0000
1000
0010
0200
0000
,
0000
0300
0010
0000
0010
0000
0100
0001
,
0100
0000
0010
0000
1000
0001
0010
0000
,
0200
0000
0310
0010
,
1000
0000
0001
0010
0000
1000
0000
0010
,
0000
0100
0010
0100
0000
0001
0000
0011
,
0000
0010
0100
0000
1001
0000
0110
0000
,
0100
0000
1001
0000
0010
0000
0100
1000
,
0100
0110
0010
1001
,
1000
0000
1001
0000
0001
0010
0100
1000
,
0100
0110
1000
0010
,
0010
0000
0100
0000
0001
0010
0100
0000
,
0010
0101
0010
1100
,
0010
0100
0001
1000
,
0010
0100
0010
0000
1100
0000
0011
0000
,
0100
0000
0011
0000
0010
0000
0100
0010
,
0100
0010
1000
1100
,
0100
0000
1100
0000
0010
0000
0100
1000
,
0100
0010
0100
0001
,
1000
0000
0110
0000
0001
0000
0010
0100
,
0010
0001
0010
0100
,
1000
0010
1000
0002
,
0000
0010
0010
0013
0100
0000
0000
0000
,
0110
1000
0100
0010
,
0100
0000
0001
0010
0001
0000
0100
0010
,
0100
0010
1000
0001
,
0100
0000
1000
0010
0100
0000
0001
0100
,
0010
0000
0100
0000
0010
0000
1000
0100
,
1000
0000
0010
1000
0100
0000
0010
0000
,
0100
0000
0001
0001
0001
0000
0100
0100
,
0100
0000
0010
1000
0010
0000
0100
0000
,
0001
0000
0100
0000
0010
0000
1000
0001
,
0100
1010
0100
0010
,
0100
0000
1000
0000
0010
0000
0001
0100
,
1000
0110
0001
0010
,
0100
0000
0001
0000
0100
0000
0010
1000
,
0001
0000
0010
0000
0100
0000
0001
1000
,
0001
0010
0210
0000
,
0310
0010
1001
0000
;

//---------------dance-single - ----------------
#NOTES:
     dance-single:
     :
     Easy:
     4:
     0.341,0.336,0.104,0.123,0.000: // measure 1
0000
0000
1001
0000
,  // measure 2
0100
0010
0001
0010
,  // measure 3
1000
0010
0110
0000
,  // measure 4
0001
0010
0100
0010
,  // measure 5
1000
0100
1000
0000
,  // measure 6
0010
0100
0100
0010
,  // measure 7
0100
0001
0010
0000
,  // measure 8
1000
0100
0001
0000
,  // measure 9
0001
0010
0200
0300
,  // measure 10
0010
0100
0001
1000
,  // measure 11
0010
1000
0200
0300
,  // measure 12
0010
0001
0010
0010
,  // measure 13
0001
0100
0002
0003
,  // measure 14
0010
0100
1000
0010
,  // measure 15
1000
0100
2000
3000
,  // measure 16
0010
0100
0010
0000
,  // measure 17
1000
0100
0002
0000
,  // measure 18
0013
0100
0010
0100
,  // measure 19
0001
1000
0200
0000
,  // measure 20
0310
1000
1000
0010
,  // measure 21
0100
0001
2000
0000
,  // measure 22
3000
0000
0100
0100
,  // measure 23
0010
0100
0001
1000
,  // measure 24
0100
0010
0100
0001
,  // measure 25
0100
0010
1000
0000
,  // measure 26
1001
0000
0010
0000
,  // measure 27
0100
0001
0010
2000
,  // measure 28
0000
3000
0010
0010
,  // measure 29
0100
0001
1000
0020
,  // measure 30
0000
0030
0001
0000
,  // measure 31
0010
0100
0010
0010
,  // measure 32
1000
1000
0100
0001
,  // measure 33
1000
0000
0110
1000
,  // measure 34
0100
1000
0010
0001
,  // measure 35
0001
0110
0001
0010
,  // measure 36
1000
0010
0001
0100
,  // measure 37
0100
0010
0100
0001
,  // measure 38
0100
1000
0010
0100
,  // measure 39
0100
0010
1000
0100
,  // measure 40
1000
0001
0100
0010
,  // measure 41
0010
1001
0110
1000
,  // measure 42
0010
0100
0010
1000
,  // measure 43
1000
0010
0100
0001
,  // measure 44
0010
0001
0100
0010
,  // measure 45
0010
0100
0001
1000
,  // measure 46
1000
0010
0100
0001
,  // measure 47
0001
0100
0010
1000
,  // measure 48
0010
0100
0010
2000
,  // measure 49
0000
0100
3100
0000
,  // measure 50
0110
1000
0100
0001
,  // measure 51
0100
1000
0010
0010
,  // measure 52
0200
0310
0001
0010
,  // measure 53
1000
0010
0100
0001
,  // measure 54
0200
0301
0010
1000
,  // measure 55
0010
0001
0100
0000
,  // measure 56
0010
0100
0010
0000
,  // measure 57
0001
0010
1000
0010
,  // measure 58
0010
0100
0100
0001
,  // measure 59
1000
1001
0010
0001
,  // measure 60
0001
0010
0010
0100
,  // measure 61
1000
0110
1000
0001
,  // measure 62
0010
0100
0010
0001
,  // measure 63
1000
0010
0100
0001
,  // measure 64
0100
0100
0020
0000
,  // measure 65
1030
0001
1001
0000
;
