#TITLE:DUMHDURUM;
#SUBTITLE:;
#ARTIST:Apink;
#TITLETRANSLIT:;
#SUBTITLETRANSLIT:;
#ARTISTTRANSLIT:;
#CREDIT:;
#BANNER:DUMHDURUM banner.png;
#BACKGROUND:DUMHDURUM bg.png;
#LYRICSPATH:;
#CDTITLE:;
#MUSIC:DUMHDURUM.mp3;
#OFFSET:-4.480;
#SAMPLESTART:49.360;
#SAMPLELENGTH:15.000;
#SELECTABLE:YES;
#BPMS:0.000=115.000;
#STOPS:;
#BGCHANGES:0.000=DUMHDURUM.avi=1.000=1=0=0,
99999=-nosongbg-=1.000=0=0=0 // don't automatically add -songbackground-
;

//---------------dance-single - ----------------
#NOTES:
     dance-single:
     :
     Hard:
     9:
     0.587,0.607,0.232,0.087,0.424:
1000
0000
0100
0000
0010
0001
0010
0000
0000
0000
0100
0010
0001
0010
0100
0000
,
0100
0000
0010
0000
1000
0000
0001
0000
0100
0000
0000
0010
0100
0000
0100
0000
,
1001
0000
1000
0100
0010
0001
0010
0000
0100
0000
1000
0010
0100
0001
0100
0000
,
0010
0000
0001
0010
0100
0000
0010
0100
1000
0000
0010
0100
0010
0001
1000
0000
,
0100
0000
0010
0001
1000
0100
0010
0000
0100
0000
0001
0010
1000
0010
0001
0000
,
0100
0000
0010
0000
1000
0000
0100
0000
0001
0000
0000
0010
0100
0000
0010
0000
,
1001
0000
0000
0000
0100
0000
0010
0000
0001
0000
2000
0000
0000
3000
0010
0001
,
0100
0001
0100
0010
0100
0000
1000
0000
0012
0000
0000
0000
0103
0000
0000
0000
,
0010
0100
0001
1000
0010
0000
1000
0000
,
0100
0010
0001
0001
0200
0000
0310
0000
,
0001
0010
0100
1000
0100
0010
0000
0100
,
0000
0100
0101
0010
0100
1000
1100
0000
,
0010
0000
1000
0100
0010
0001
0010
0100
1000
0000
0010
0000
0000
0000
0100
0000
,
0001
0010
0100
1000
,
0011
0000
1100
0010
0100
0001
1000
0010
,
0200
0000
0301
2000
0000
0000
3100
0010
,
0001
1000
0010
0100
0001
0000
1000
0000
,
0010
0001
1000
0001
0100
0000
0010
0000
,
1100
0000
0011
0100
0010
0001
0010
0100
,
0020
0000
0000
0000
0130
0000
0002
0000
0000
0000
0000
0000
0013
0000
1000
0100
,
1000
0100
0010
0001
0010
0000
0100
0000
1000
0000
0010
0000
0100
0000
0001
0000
,
0000
0000
0110
0000
0110
0000
0110
0000
1000
0000
0100
0010
0001
0000
1000
0100
,
0020
0000
0000
0000
0130
0000
0001
1000
0001
0000
0010
0000
0100
0000
0001
0000
,
2000
0000
0000
0000
3010
0000
0000
0100
0010
0000
0001
0000
1000
0000
0010
0000
,
0100
0000
0000
0001
0000
0000
0010
1000
0010
0000
0100
0000
0100
0000
0000
0000
,
0010
0000
0000
1000
0000
0000
0010
0100
0010
0000
0001
0010
0100
0000
0010
0100
,
2000
0000
0000
0000
3100
0000
0001
0010
0001
0000
0100
0000
0010
0000
1000
0000
,
0100
0000
0000
0000
0020
0000
0000
0100
1030
0000
0001
0000
0100
0000
0010
0000
,
1000
0000
0100
0000
0001
0000
0100
0010
0000
1000
0000
0001
0000
1000
0000
0010
,
0000
0000
0100
0000
0110
0000
0000
0000
1001
0000
0000
0001
1000
0000
0010
0000
,
0110
0000
1000
0100
0010
0001
0010
0000
0100
0000
0010
0001
0010
1000
0010
0000
,
0100
0000
0001
1000
0001
0000
0010
0100
0010
0000
1000
0100
0010
0001
0010
0000
,
0100
0011
0011
0000
1100
1100
0000
0110
,
0000
0000
1000
0000
0001
0000
1000
0000
0010
0000
0000
0100
0001
0000
0010
0000
,
0110
0000
1000
0001
0010
0001
0100
0000
0010
0000
0100
0010
1000
0001
0100
0000
,
0010
0000
0001
0010
0100
0000
0010
0100
1000
0000
0010
0001
0100
0010
1000
0000
,
0100
0000
1000
0100
0010
0000
0100
0010
0001
0000
0010
0001
0010
0000
0000
0000
,
0010
0100
0001
2000
,
3010
0000
0100
0001
0100
0000
0010
1000
,
0001
0000
0000
0000
0010
0000
0000
0000
0100
0000
0000
0000
1000
0000
0000
0000
0000
0000
0000
0000
0000
0010
0000
0000
0100
0000
0000
0000
0000
0000
0000
0000
0000
0000
0000
0000
1010
0000
0000
0000
0000
0000
0000
0000
0000
0000
0000
0000
,
0100
0000
0000
0001
0000
0100
0010
0000
0001
0010
0000
1000
,
0100
0010
0100
0001
0000
0010
0100
0000
0000
0110
0000
0000
,
1001
0000
0100
0010
0001
0000
0010
0100
,
0001
1000
0010
0100
0001
1000
0010
0000
0100
0010
0100
0001
,
0100
0000
0000
0000
0000
0000
0010
0000
0000
0100
0000
0000
0110
0000
0000
0000
0001
0000
0010
0000
0100
0000
1000
0000
,
0100
0000
0000
0000
0000
0000
0000
0000
0010
0000
0000
0000
0100
0000
0000
0000
0000
0000
0000
0000
0000
0000
0000
0000
0010
0000
0000
0000
0000
0000
0001
0000
0000
0010
0000
0000
0100
0000
0000
1000
0000
0000
0100
0000
0000
0000
0000
0000
,
0110
0000
1000
0001
0010
0001
0100
0000
0010
0000
0100
0010
0100
1000
0100
0000
,
0010
0000
1000
0100
1000
0000
0100
0010
0100
0000
0001
0010
0100
1000
0100
0000
,
0011
0000
0100
0010
1000
0100
0001
0000
0100
0000
0010
0100
0001
1000
0010
0000
,
0100
0000
0001
0000
1000
0000
0010
0000
0100
0000
0000
0001
1000
0000
0010
0000
,
1100
0000
0010
0100
0010
1000
0001
0000
0010
0000
0001
0010
0100
0001
0010
0000
,
0100
0000
0010
1000
0010
0000
0100
0001
0100
0000
0010
1000
0010
0001
0100
0000
,
0010
0000
1000
0100
0010
0001
0010
0000
0100
0000
0010
0100
0001
1000
0010
0000
,
0100
0000
0001
0000
0010
0000
1000
0000
0010
0000
0000
0100
0001
0000
0010
0000
,
0110
0001
1000
0010
0001
0100
0010
1000
,
0010
0100
1000
0010
0001
0100
0010
0000
,
1000
0100
0100
0010
0001
0001
0010
0100
,
0001
0000
1001
0000
0010
0000
0010
0000
0100
0000
0000
0001
1000
0000
0010
0000
,
0110
1000
0001
0010
0001
0100
1000
0100
,
0010
0100
0001
1000
0010
0100
0001
0000
,
0010
0000
1000
0100
0001
0000
0100
1000
0001
0000
0010
1000
0001
0000
0000
0000
,
0010
0000
0100
0000
0100
0000
0001
0000
1000
0000
0000
0010
0100
0000
0001
0000
,
1001
0000
0000
0000
;

//---------------dance-single - ----------------
#NOTES:
     dance-single:
     :
     Medium:
     6:
     0.353,0.315,0.087,0.036,0.000:
1000
0100
0001
0000
0001
0100
1000
0000
,
0010
0000
0100
0010
0100
0000
0100
0000
,
1001
0000
0010
0000
0001
0000
0100
0010
,
0010
0000
0001
0000
0010
0100
1000
0000
,
1100
0000
0100
0010
0000
0010
0001
0000
,
0010
0100
0100
0001
0100
0000
0010
0000
,
1001
0000
0010
0000
0001
0001
0001
0000
,
0010
0100
0010
0000
2000
0000
3010
0000
,
0100
1000
0100
0000
0010
0000
0100
0000
,
0010
0000
1000
0001
2000
0000
3010
0000
,
0100
0000
0001
0010
0001
0010
0000
0100
,
0000
0010
0000
1000
0010
0000
0100
0000
,
0010
0000
1000
0000
0001
1000
0000
1000
,
0001
0010
0001
0100
,
0110
0000
0001
0000
1000
0000
0010
0100
,
0010
0000
1000
0002
0000
0000
0013
0000
,
0100
0000
0010
1000
0010
0000
0100
0000
,
0001
0000
1000
0010
1000
0000
0010
0000
,
0100
0000
0001
0000
0010
0000
0100
1000
,
0100
0000
0010
0002
0000
0000
0013
0000
,
0100
0000
0010
0000
1000
0000
0001
1000
,
0000
0010
0001
0000
0100
0100
0100
0100
,
0110
0000
0001
0010
0001
0000
1000
0100
,
1000
0000
0010
0000
0100
1000
0100
0000
,
0010
0000
0100
0000
0001
1000
1000
0000
,
0010
0000
0100
0000
0001
0001
0001
0001
,
1001
0000
0010
0000
0100
0000
0010
1000
,
0010
0000
0100
0000
0010
0100
0010
0000
,
0001
1000
0100
0010
,
1000
0001
0001
0000
0010
0000
0100
0010
,
0110
0000
0010
0001
0000
0001
0010
0000
,
0010
0100
1000
0000
1000
0100
0010
0000
,
0100
0010
0001
0000
0001
0010
0000
1000
,
0000
0010
0100
0010
0100
0000
0001
0000
,
1001
0000
0010
0000
0100
0001
0100
0000
,
0010
0000
1000
0010
0010
0000
0100
0000
,
0001
0010
0100
0000
0010
0100
1000
0000
,
1000
0100
0010
0002
,
0013
0000
0100
0010
0010
0000
0100
0000
,
0001
0010
0001
0000
1000
0000
0010
0000
,
0100
0000
0010
1000
1000
0000
0010
0000
,
0100
0000
0001
0000
1000
0000
0010
0100
,
0001
0000
1000
1000
0010
0000
0100
0010
,
0001
0010
0100
1000
,
0010
0000
0100
0001
0000
0001
0010
0000
,
0100
0000
0010
0000
0100
1000
0001
1000
,
1001
0010
1000
0010
0000
0010
0100
0010
,
0000
0001
0010
0000
0100
0000
0010
0000
,
1000
0001
1000
0001
0000
0010
0100
0000
,
0010
0000
0100
0001
0100
0000
0010
0000
,
0110
0001
0010
0100
0000
0010
0100
1000
,
0000
1000
0100
0000
0010
0000
0100
0000
,
0001
0000
1000
0001
1000
0000
0010
0100
,
0010
0000
0100
0000
0001
0000
0010
0100
,
0110
0000
1000
0000
0100
0010
0001
0000
,
0100
0000
0010
0000
1000
0001
1000
0000
,
0010
0100
0100
0000
0001
0010
0000
0001
,
0000
0100
0010
0000
0100
0000
0100
0001
,
0100
0000
0010
1000
0010
0000
0100
0000
,
0010
0100
0100
0000
0001
0010
0010
0000
,
1000
0000
0100
0000
0010
0001
0010
0000
,
0100
0010
0100
0010
0100
0000
0001
1000
,
1001
0000
0000
0000
;

//---------------dance-single - ----------------
#NOTES:
     dance-single:
     :
     Easy:
     3:
     0.261,0.225,0.080,0.058,0.000: // measure 1
0010
0100
0001
1000
,  // measure 2
0010
0010
0100
0010
,  // measure 3
1001
0010
0001
0010
,  // measure 4
0100
0010
1000
0100
,  // measure 5
0001
0100
0010
1000
,  // measure 6
0100
0100
0001
0001
,  // measure 7
1001
0000
0010
0000
,  // measure 8
0100
0100
0020
0030
,  // measure 9
1000
0100
0010
0001
,  // measure 10
0010
0100
0010
0010
,  // measure 11
0100
0001
1000
0010
,  // measure 12
0001
0001
0010
0200
,  // measure 13
0300
0010
0010
0100
,  // measure 14
0001
1000
0001
1000
,  // measure 15
0010
0100
0010
0001
,  // measure 16
2000
3000
0020
0030
,  // measure 17
0100
0100
0010
0010
,  // measure 18
1000
0001
0010
0100
,  // measure 19
0010
1000
0100
0001
,  // measure 20
0200
0300
0020
0030
,  // measure 21
0100
0100
0001
0001
,  // measure 22
1000
0000
0100
0100
,  // measure 23
1001
0000
0010
0001
,  // measure 24
0100
0100
0010
0001
,  // measure 25
0010
1000
0100
0100
,  // measure 26
0010
0010
0100
0001
,  // measure 27
1001
0000
0010
0001
,  // measure 28
0100
0010
0100
0001
,  // measure 29
0100
0010
1000
0010
,  // measure 30
0100
0100
0001
1000
,  // measure 31
1001
0010
0001
0100
,  // measure 32
0010
1000
0100
0010
,  // measure 33
0100
0001
0010
1000
,  // measure 34
0100
0010
0100
0001
,  // measure 35
0110
1000
0100
0010
,  // measure 36
0001
0010
0100
1000
,  // measure 37
0010
0010
0100
0100
,  // measure 38
1000
0100
0010
0001
,  // measure 39
0020
0030
0100
0100
,  // measure 40
0001
0010
0001
0100
,  // measure 41
0020
0030
1000
0100
,  // measure 42
0010
0100
0010
0001
,  // measure 43
0010
1000
1000
0010
,  // measure 44
0100
0100
0001
0001
,  // measure 45
0010
0000
0100
0000
,  // measure 46
0010
0001
0000
1000
,  // measure 47
1001
0010
0100
0010
,  // measure 48
0001
0010
1000
0010
,  // measure 49
0100
0001
0010
0100
,  // measure 50
0010
1000
0100
0010
,  // measure 51
1001
0010
0100
1000
,  // measure 52
0010
0001
0100
0010
,  // measure 53
1000
0010
0100
0001
,  // measure 54
0100
0010
0100
0100
,  // measure 55
0110
0010
0001
0010
,  // measure 56
1000
0010
0100
0001
,  // measure 57
0100
0100
0010
0010
,  // measure 58
1000
0100
0001
0100
,  // measure 59
0110
1000
0001
0010
,  // measure 60
0001
0100
0010
1000
,  // measure 61
0001
0001
1000
1000
,  // measure 62
0010
0100
0010
0100
,  // measure 63
0110
0000
0000
0000
;
