#TITLE:DBDBDIB;
#SUBTITLE:;
#ARTIST:SATURDAY;
#TITLETRANSLIT:;
#SUBTITLETRANSLIT:;
#ARTISTTRANSLIT:;
#CREDIT:;
#BANNER:DBDBDIB banner.png;
#BACKGROUND:DBDBDIB bg.png;
#LYRICSPATH:;
#CDTITLE:;
#MUSIC:DBDBDIB.mp3;
#OFFSET:-9.480;
#SAMPLESTART:61.980;
#SAMPLELENGTH:15.000;
#SELECTABLE:YES;
#BPMS:0.000=128.000;
#STOPS:;
#BGCHANGES:;

//---------------dance-single - ----------------
#NOTES:
     dance-single:
     :
     Hard:
     7:
     0.451,0.434,0.332,0.055,0.028:
1001
0010
0100
0001
,
1010
0100
0010
1000
,
0001
0000
0000
0010
0000
0000
0100
0000
0010
0000
0000
1000
0000
0000
0010
0000
,
0000
0000
0000
0000
,
1000
0100
0100
0001
0100
0000
0010
0001
,
0100
0010
0001
1000
0010
0000
0110
0000
,
0010
0100
0100
0001
0100
0000
1000
0010
,
0100
1000
0100
0010
0100
0001
0001
0000
,
0010
0100
0100
0001
0100
0000
0010
0100
,
0010
0000
1000
0100
1000
0000
0011
0000
,
1000
0100
0010
1000
,
0020
0000
0030
0110
,
1000
0000
0100
0000
0010
0100
0100
0000
,
0001
0000
0010
0000
0001
0100
0100
0000
,
0010
1000
0010
0000
0100
0001
0010
0000
,
1000
1000
0100
0100
0010
0010
0001
0000
,
0110
0000
1001
0000
0010
1000
1000
0000
,
0100
0010
0100
0010
0001
0010
1000
0000
,
0010
0100
0010
1000
0100
0000
0100
0000
,
0110
0000
0011
0000
0010
0100
0000
0000
,
1100
0100
0010
0000
1000
0010
0001
0010
,
0100
0100
0010
1000
0000
0001
0000
1000
,
0010
0000
0000
0010
0000
0000
0100
0000
0001
0000
0000
1000
0000
0000
1000
0000
,
0010
0100
0010
0001
1000
1000
1010
0000
,
0100
0010
1000
0000
0001
0010
0100
0010
,
0001
0010
0100
1000
0000
0010
0000
0100
,
0001
0000
0000
0010
0000
0000
0100
0000
0010
0000
0000
1000
0000
0000
0010
0000
,
0100
0000
0000
0001
0000
0000
0100
0000
0010
0000
0010
0000
0010
0000
0000
0000
,
1001
0000
0010
0100
0001
0000
0010
1000
,
0200
0000
0000
0300
1001
1001
1001
0000
,
0010
0100
0001
0010
0001
0001
0010
0000
,
0100
0010
1000
0001
0100
0010
1000
0000
,
0010
0100
1000
0100
0020
0000
0130
0002
,
0000
0000
0003
0000
0110
0110
0110
0000
,
1000
0100
0010
0001
0010
0100
1000
0000
,
0010
0010
0100
0100
0001
0001
0000
1000
,
0010
0000
0100
1000
0000
0000
1000
0001
,
0100
0000
0010
1000
0000
0000
0010
0100
,
0010
1010
0100
0101
,
0010
0000
0100
0001
1001
0000
0010
0000
,
0100
0000
0001
0010
0100
0000
0010
0000
,
0100
0010
0010
1000
0100
0000
0010
0000
,
0101
0000
0010
0010
0100
0000
0010
1000
,
0001
1000
0010
0100
0000
2002
0000
0000
,
0000
0000
0000
3003
,
0110
0001
0010
0100
0010
0000
1000
0010
,
0100
0000
0001
0100
0110
0110
0110
0000
,
1000
0100
0010
0100
0001
0001
0010
0100
,
0001
0001
0010
0010
0100
0100
1000
0000
,
0010
0100
0010
1000
0100
0000
0001
0100
,
0010
0000
1000
0001
1001
1001
1001
0000
,
0010
0100
0001
0010
1000
1000
0010
0000
,
1000
1000
0100
0100
0010
0010
0000
0100
,
0110
0001
1000
0010
0100
0001
0010
0001
,
1000
0100
0010
0100
1000
0011
0011
0100
,
0010
0000
1000
0001
1000
0000
0010
0100
,
1000
0100
0010
1001
,
1000
1000
1100
0000
0010
0010
0110
0000
,
1000
1000
1001
0000
0010
0100
0200
0000
,
0310
0010
0011
0000
0100
0100
0110
0000
,
1000
0001
1001
0000
0010
0100
1001
0000
,
0110
0000
0000
0000
;

//---------------dance-single - ----------------
#NOTES:
     dance-single:
     :
     Challenge:
     8:
     0.555,0.531,0.277,0.055,0.321:
1100
0000
0000
0000
0010
0000
0100
0000
0001
0000
1000
0010
0000
0000
0100
0000
,
0001
0000
0010
0000
0100
0000
0100
0000
0001
0000
0010
1000
0000
0000
0010
0000
,
0100
0000
0001
1000
0000
1000
0001
0000
0010
0000
0100
0010
0000
0010
0100
0000
,
0000
0000
0000
0000
0000
0000
0000
0000
1000
0000
1001
0000
0010
0000
0100
0001
,
0100
0010
0010
0100
0010
0000
1000
0100
,
0110
0001
0010
0100
0010
0000
0110
0000
,
0001
1000
1000
0010
0100
0000
0001
0010
,
0100
0010
0001
1000
0010
0100
1001
0010
,
1000
0000
0100
0010
0100
0000
0001
0000
0010
0000
0000
0000
0100
0000
1000
0000
,
1100
0000
0010
0001
0011
0000
0110
0000
,
0010
0000
1000
0001
1000
0000
0010
0000
0100
0000
0000
0001
0000
0000
0100
0000
,
0000
0000
0010
0000
0100
0000
0001
0000
1010
0000
0000
1100
0000
0000
0000
0000
,
0010
0000
0100
0001
0100
0000
0010
0000
0001
0000
1000
0010
0000
0010
1000
0000
,
0100
0000
1000
0010
1000
0000
0100
0000
0001
0000
0100
0010
0000
0010
0100
0000
,
1000
0000
0010
0000
0001
0000
0010
0000
1000
0000
0010
0100
0000
0100
0010
0000
,
1000
0100
1000
0000
0100
0010
0100
0000
0010
0001
0010
0000
0010
0000
0100
0000
,
0101
0000
1010
0000
0100
0010
0100
0000
,
0010
0010
0100
1000
0010
0001
0100
0000
,
0010
0000
0010
0000
0100
0000
0100
0000
0001
1000
0000
0000
0110
0000
0000
0000
,
1000
0000
0100
0000
0010
0100
0000
0000
,
1100
0010
0001
0000
0100
0010
0100
0001
,
0001
0010
0100
1000
0000
0010
0000
0100
,
0110
0000
0001
0010
0000
0000
0100
0000
0010
0000
1000
0100
0000
0000
0010
0000
,
0100
0000
0001
0010
0000
0010
0100
0000
0010
0000
1000
0000
1010
0000
0000
0000
,
0100
0001
0010
0000
1000
0010
0001
0010
,
1000
0000
0010
0000
0100
0000
1000
0000
0000
0000
0010
0000
0000
0000
0100
1000
,
0100
0000
0010
0001
0000
0000
0010
0000
0100
0000
0010
1000
0000
0000
0010
0000
,
0100
0000
0001
1000
0000
1000
0001
0000
0100
0000
0010
0000
0110
0000
0000
0000
,
1001
0000
0100
0010
0100
0000
0001
0000
0010
0000
0000
0000
0100
0000
0010
0000
,
2000
0000
0000
0000
3100
0000
0000
0000
0010
0100
0010
0100
0010
0000
0000
0000
,
1000
0000
0100
0000
0010
0000
0010
0000
0100
0000
0001
1000
0000
0000
0110
0000
,
1000
0100
0001
0000
1000
0100
0001
0000
1000
0100
0001
0000
0010
0000
0000
0000
,
0110
0000
0001
1000
0001
0000
0010
0000
0100
0000
0000
0000
0010
0000
0100
0000
,
0002
0000
0000
0000
0013
0000
0000
0000
0100
0010
0100
0010
0100
0000
0000
0000
,
0010
0000
1000
0100
1000
0000
0010
0000
0100
0000
0001
0100
0000
0000
0000
0000
,
0001
0010
1000
0000
0001
0010
1000
0000
0001
0010
1000
0000
0000
0000
0010
0000
,
0110
0000
0001
0010
0100
0000
0010
1000
,
0100
0000
0001
0200
0000
0000
0310
1000
,
0010
0000
0100
0000
0001
0000
1000
0010
,
0100
0000
0001
2000
0000
0000
0000
3000
,
0100
0000
0010
0001
0011
0000
0010
0100
,
0000
0100
0010
1000
1001
0000
0010
0100
,
0010
0000
1000
0100
0001
0000
0001
0010
,
0100
0010
1000
0010
0000
0220
0000
0000
,
0000
0000
0000
0330
,
1001
0000
0010
0100
0010
0000
1000
0000
0100
0000
0000
0000
0001
0000
0010
0000
,
0100
0000
0000
0000
0010
0000
0100
0000
0001
1000
0001
1000
0001
0000
0000
0000
,
0010
0000
0100
0010
0001
0000
0010
0000
0100
0000
0010
1000
0000
0000
0010
0000
,
0100
1000
0100
0000
0001
0010
0001
0000
0100
1000
0100
0000
0110
0000
0000
0000
,
1000
0000
0100
1000
0100
0000
0010
0000
0001
0000
0000
0000
0100
0000
0010
0000
,
0110
0000
0000
0000
0001
0000
0000
0000
1000
0001
1000
0001
1000
0000
0000
0000
,
0110
0000
0010
1000
0010
0000
0100
0000
0001
0000
1000
0010
0000
0000
0000
0000
,
0100
0010
0001
0000
0100
0010
0001
0000
0100
0010
0001
0000
0010
0000
0100
0000
,
1001
0000
0000
0000
0010
0000
0100
0000
2000
0000
0000
0000
3010
0000
0100
0001
,
0100
0000
0010
0000
1000
0000
0010
0000
0110
0000
1000
0001
1000
0000
0010
0000
,
1100
0000
0010
0100
0001
0000
1000
0010
,
1000
0100
0000
0000
0100
0010
0000
0000
0010
0001
0000
0000
1001
0000
0000
0000
,
1000
0100
1000
0100
1000
0000
0000
0000
0010
0100
0010
0100
0010
0000
0000
0000
,
0001
0010
0001
0010
0001
0000
0000
0000
0100
0000
0010
0000
0110
0000
0000
0000
,
1000
0010
0100
0001
0100
0000
0000
0000
0010
1000
0100
0001
0100
0000
0000
0000
,
0100
0001
0010
0001
1000
0000
0000
0000
0010
0100
0000
0000
1001
0000
0000
0000
,
0110
0000
0000
0000
;

//---------------dance-single - ----------------
#NOTES:
     dance-single:
     :
     Medium:
     5:
     0.410,0.410,0.261,0.103,0.000:
1100
0100
0100
0100
,
0011
0001
0001
0001
,
0010
0100
0100
0000
0001
0010
0010
0000
,
2000
0000
0000
0000
3010
0100
0100
0010
,
0100
0000
0001
0010
0010
0000
1000
0010
,
0100
0000
0001
0100
1000
0000
1000
0000
,
0010
0000
0100
0010
0010
0000
1000
0000
,
0010
0000
0010
0000
0100
0001
0010
0000
,
1000
0010
0010
0001
0010
0000
0100
0010
,
0100
0000
0010
1000
0010
0000
0100
0000
,
0010
1000
0001
0100
,
0010
0000
0000
0000
0010
0100
0010
0000
,
1000
0000
0100
0000
0010
0001
0010
0100
,
0010
0000
1000
0000
0001
0100
1000
0100
,
0001
0000
0110
0000
0010
0010
0010
0000
,
1000
1000
1000
0110
,
1000
0000
0001
0000
0100
1000
0010
0000
,
0100
0000
0010
0000
1000
0001
0010
0000
,
0100
0100
0100
0000
0011
0000
0010
0000
,
0200
0000
0302
0000
0013
0010
0000
0000
,
0110
0000
0100
0001
0100
0000
0010
1000
,
0010
0000
0100
0010
2000
0000
3100
0000
,
0010
0010
0010
0000
1000
1000
1000
0000
,
0100
0010
0001
0000
0010
0100
0110
0000
,
1000
0100
0010
1000
,
0100
0010
0001
1000
0000
1000
0000
0010
,
0100
0000
0011
0000
0010
0100
0011
0000
,
0010
0000
0100
0000
0010
1000
0001
0000
,
0010
0100
0010
1000
0020
0000
0130
0001
,
0200
0000
0300
0000
1001
1001
1001
0000
,
0010
0100
1000
0000
0010
0000
1100
0000
,
0010
0100
0001
1000
0010
0100
0001
0000
,
0110
0000
0100
1000
1000
0000
0010
0100
,
1000
0000
0010
0000
0110
0110
0110
0000
,
0001
1000
0010
0000
0100
0000
0100
0000
,
0010
0000
1000
0000
0001
0020
0000
0030
,
0110
1000
0010
0100
,
0001
0000
0010
0000
1000
0000
0010
0100
,
1000
0001
1000
0001
,
0010
0000
0100
0001
0010
0000
0010
0000
,
0110
0000
0100
0001
0010
0000
0010
1000
,
0000
1000
0100
0010
0100
0000
0010
0000
,
0110
0000
1000
0001
1000
0000
0010
0100
,
0010
0000
1000
0010
0000
0020
0000
0000
,
0200
0000
0000
0330
,
1001
0001
0001
0010
0100
0000
1000
0000
,
0010
0000
0100
0000
1100
1100
1100
0000
,
0010
0100
0001
0000
1000
0010
0100
0000
,
0010
1000
0001
0100
0010
1000
0010
0000
,
0110
0000
1000
0010
0010
0000
0100
0000
,
0010
0000
1000
0000
0011
0011
0011
0000
,
0100
0000
0010
0000
0100
1000
0001
0000
,
0010
0100
0010
1000
0001
0000
0100
0000
,
0010
0000
0100
1000
0200
0300
0010
0100
,
0001
0000
0010
0100
0002
0003
0010
0000
,
0100
0000
0010
1000
0002
0003
0010
0100
,
0011
0110
1100
1001
,
0010
0010
0010
0000
0100
0100
0100
0000
,
0001
0001
0001
0000
1000
0100
0020
0000
,
1030
1000
1000
0000
0100
0100
0100
0000
,
0010
0010
0010
0000
1000
0001
0100
0000
,
1001
0000
0000
0000
;

//---------------dance-single - ----------------
#NOTES:
     dance-single:
     :
     Easy:
     2:
     0.283,0.290,0.142,0.087,0.000: // measure 1
0100
0100
0100
0100
,  // measure 2
0010
0010
0010
0010
,  // measure 3
0001
0010
0100
0010
,  // measure 4
2000
0000
3000
0000
,  // measure 5
0100
0010
0010
0100
,  // measure 6
0001
0010
1000
1000
,  // measure 7
0010
0100
0100
1000
,  // measure 8
0010
0100
0001
0001
,  // measure 9
0010
0100
0010
0001
,  // measure 10
0010
0100
1000
1000
,  // measure 11
0010
0100
0010
1000
,  // measure 12
0020
0000
0030
0110
,  // measure 13
0010
0001
0010
1000
,  // measure 14
0010
0100
0010
0001
,  // measure 15
1000
0010
1000
1000
,  // measure 16
0010
0100
0010
0110
,  // measure 17
1000
0100
0010
0010
,  // measure 18
0100
0010
0001
0001
,  // measure 19
0010
0100
0001
0010
,  // measure 20
2000
0000
3000
0000
,  // measure 21
0100
0100
0010
0010
,  // measure 22
1000
1000
0200
0300
,  // measure 23
0010
0100
0010
0100
,  // measure 24
0001
0010
0100
0100
,  // measure 25
0010
0001
0010
0100
,  // measure 26
0010
0001
0020
0030
,  // measure 27
0100
0100
0010
0010
,  // measure 28
1000
0100
0001
0100
,  // measure 29
0110
1000
0100
0001
,  // measure 30
0200
0300
0110
0110
,  // measure 31
1000
0100
0001
0100
,  // measure 32
1000
1000
1000
0010
,  // measure 33
1001
0010
0001
0100
,  // measure 34
0020
0030
1001
1001
,  // measure 35
0100
0010
1000
0100
,  // measure 36
1000
1000
1000
0000
,  // measure 37
0010
0000
0110
0000
,  // measure 38
0010
0000
1001
0000
,  // measure 39
0010
1000
0001
0100
,  // measure 40
0010
0000
0010
0000
,  // measure 41
0100
0100
0010
1000
,  // measure 42
0100
0001
0100
0010
,  // measure 43
0001
0010
0001
0100
,  // measure 44
0010
0100
1000
2000
,  // measure 45
0000
0000
0000
3000
,  // measure 46
1001
0100
0010
1000
,  // measure 47
0100
0001
0110
0110
,  // measure 48
0010
0100
0010
0001
,  // measure 49
0010
0010
0010
0100
,  // measure 50
0110
0001
0010
0100
,  // measure 51
0010
1000
1001
1001
,  // measure 52
0010
0100
0010
0010
,  // measure 53
1000
0100
0010
0001
,  // measure 54
1000
0100
0020
0130
,  // measure 55
0001
0010
0200
0310
,  // measure 56
0100
0100
0020
0030
,  // measure 57
1000
0100
0010
1001
,  // measure 58
0100
0100
0010
0010
,  // measure 59
0100
0100
0001
0010
,  // measure 60
0001
0001
1000
1000
,  // measure 61
0001
0001
0100
0010
,  // measure 62
1001
0000
0000
0000
;
