#TITLE:Cry For You (UK Radio Edit);
#SUBTITLE:;
#ARTIST:September;
#TITLETRANSLIT:;
#SUBTITLETRANSLIT:;
#ARTISTTRANSLIT:;
#CREDIT:;
#BANNER:Cry For You (UK Radio Edit) banner.png;
#BACKGROUND:Cry For You (UK Radio Edit) bg.png;
#LYRICSPATH:;
#CDTITLE:;
#MUSIC:Cry For You (UK Radio Edit).mp3;
#OFFSET:-7.860;
#SAMPLESTART:43.140;
#SAMPLELENGTH:15.000;
#SELECTABLE:YES;
#BPMS:0.000=130.020;
#STOPS:;
#BGCHANGES:;

//---------------dance-single - ----------------
#NOTES:
     dance-single:
     :
     Hard:
     7:
     0.509,0.416,0.067,0.134,0.000:
0010
0100
0002
0000
0013
0100
0100
0010
,
1000
0100
0020
0000
0130
0001
0001
0010
,
0100
0001
2000
0000
3100
0010
0010
0100
,
0010
1000
0200
0000
0310
0001
0010
0000
,
1000
0000
0010
0000
0100
0001
0001
0010
,
0100
0000
0010
1000
0000
1000
0010
0100
,
0010
0000
1000
0000
0001
0100
0010
1000
,
0100
0001
0100
0010
0000
0010
0100
0001
,
0010
0000
0110
0000
0100
0001
0001
0010
,
1000
0000
0100
0010
0000
0010
0100
1000
,
0001
1000
0001
0000
0010
0100
0100
0001
,
0010
0001
1000
0010
0000
0010
0100
0010
,
1000
0200
0000
0310
0001
0020
0000
0130
,
0000
0001
0100
0010
1000
0020
0000
0130
,
0110
0001
0010
1000
0010
0000
0100
0010
,
0000
1000
0100
0001
0200
0000
0310
1000
,
0001
0020
0000
0130
0001
0200
0000
0310
,
0000
1000
0010
0100
0001
2000
0000
3010
,
0110
1000
0010
0100
0001
0000
0010
0100
,
0000
0010
0110
1000
0001
0100
0010
1000
,
0001
0010
0100
1000
0001
0010
0100
1000
,
0010
0100
0010
1000
0100
0001
0100
0010
,
1000
0000
0100
0020
0000
0000
0130
0000
,
0001
1000
0010
0010
0100
0010
1000
0010
,
1000
0100
0010
0001
1000
0100
0010
0001
,
0010
0100
0010
0000
1000
0100
0010
0100
,
0100
0001
0000
0010
0100
0010
0000
1000
,
0001
1000
0010
0000
0100
0010
0010
0001
,
0010
1000
0000
0010
0100
1000
0000
0110
,
0000
1000
0100
0010
0001
0010
0000
0100
,
0010
0010
0100
0001
0010
0000
1000
0001
,
0000
0010
0100
0000
0100
0010
0000
1000
,
0001
1000
0000
0001
1000
0001
0000
0110
,
0000
0001
0010
0100
1000
0100
0000
0010
,
0010
0100
0001
1000
0010
0000
0100
0010
,
0010
0100
0001
0010
1000
0010
0100
0010
,
1000
0001
0100
0010
1000
0100
0001
0100
,
1000
0010
0001
0100
0010
1000
0100
0010
,
0100
0001
0001
0010
0100
1000
0100
0010
,
0000
0010
0100
0010
1000
0100
0001
0100
,
0010
1000
0100
1000
0001
0100
1000
0010
,
0001
1000
0010
0100
0001
0010
0100
0010
,
1000
0001
0100
0010
1000
0000
0100
0010
,
0000
0100
0001
0001
0010
1000
0010
0100
,
0001
0010
0010
0100
0010
1000
1000
0010
,
0100
0010
1000
1000
0100
0001
0100
0010
,
1000
0010
0100
0001
0010
0100
0100
0010
,
0100
1000
0100
0010
0100
0001
0010
1000
,
0100
0100
0010
0100
0001
1000
1000
0010
,
0100
0001
0001
0010
0100
0010
1000
0000
,
0100
0010
1000
0100
0001
0000
0001
0220
,
0000
0330
0000
0000
0000
0000
0000
0000
;

//---------------dance-single - ----------------
#NOTES:
     dance-single:
     :
     Medium:
     5:
     0.368,0.317,0.077,0.029,0.000:
1001
0000
0110
0000
1000
0100
0000
0100
,
0000
0010
0100
0000
0001
0010
0000
0100
,
0000
0010
1000
0000
0010
0100
0000
1000
,
0000
0010
0100
0000
0001
1000
0000
0100
,
0010
0000
0001
0000
0010
0000
0100
0100
,
0100
0000
1000
0100
0000
0010
0000
0100
,
0100
1000
0010
0100
,
0001
0001
0000
0010
0000
0100
0010
0100
,
0000
0010
0010
0000
0100
0000
0010
0010
,
0010
0000
0001
0100
0000
0010
0000
1000
,
0100
0000
1000
0000
0010
0010
0010
0000
,
1000
0000
0100
0010
0000
0000
0100
0010
,
0100
0001
0000
0010
0100
0010
0000
1000
,
0000
0100
1000
0000
0100
0010
0000
0100
,
1000
0000
0010
0001
0100
0000
0010
0002
,
0000
0003
0100
0000
0010
0000
0100
0000
,
1000
0000
0100
0010
0100
0000
0001
0010
,
0000
0100
0010
0000
1000
0010
0000
0100
,
1000
0000
0010
0100
0010
0000
1000
0020
,
0000
0100
0130
0100
,
1001
0110
1000
0100
,
0010
0000
0100
0000
0001
0010
0001
0000
,
0100
0000
0010
2000
0000
0000
3000
0000
,
0100
0010
0100
0001
,
0110
1001
0010
0100
,
0001
0010
0001
0000
0100
0010
1000
0010
,
0000
0100
0000
0001
0000
0010
0000
1000
,
0000
0100
0000
1000
0000
0010
0000
0100
,
0100
0000
0010
0100
0010
0000
0001
0010
,
0000
0100
0010
0000
1000
0010
0000
0100
,
1000
0000
0010
0100
0010
0000
1000
0001
,
0000
0010
0100
0000
0001
0010
0000
0100
,
0010
0001
0000
0010
0100
1000
0000
0010
,
0000
0100
0001
0100
0001
0100
0000
0010
,
0010
0000
1000
0100
0010
0000
0100
1000
,
0000
0000
0110
0000
1000
1000
1000
0000
,
0110
1000
0100
0010
,
0100
0000
0010
0000
0001
1000
0001
0000
,
0100
0000
0010
0100
0000
0010
0000
0100
,
0000
0001
0010
0000
0100
0010
0100
0000
,
0001
0000
0010
0000
0100
0000
0010
1000
,
0000
0100
1000
0000
0010
0100
0000
0010
,
1000
0000
0100
0010
0100
0000
0001
1000
,
0000
1000
0001
0000
0100
0010
0100
0000
,
1000
0100
0010
0100
,
1000
0010
1000
0000
0100
0001
0100
0000
,
0010
0000
1000
0001
0000
0001
0010
0100
,
0000
0010
0000
0001
0000
0100
0010
0000
,
0100
0000
0010
1000
0010
0000
0100
0001
,
0000
1000
0010
1000
0010
1000
0000
0010
,
0100
0010
0100
0010
0001
0000
0010
0100
;

//---------------dance-single - ----------------
#NOTES:
     dance-single:
     :
     Easy:
     2:
     0.283,0.318,0.125,0.038,0.000: // measure 1
1000
1000
0100
0100
,  // measure 2
0010
0100
0010
0100
,  // measure 3
0001
0001
0010
0010
,  // measure 4
0100
0010
0010
0010
,  // measure 5
0100
0000
0001
0010
,  // measure 6
0001
0100
0010
1000
,  // measure 7
0200
0300
1000
1000
,  // measure 8
0100
0010
0100
0010
,  // measure 9
0100
1000
1000
0010
,  // measure 10
0100
0001
0010
0001
,  // measure 11
0200
0300
0010
0010
,  // measure 12
0001
0100
0010
0001
,  // measure 13
1000
1000
0010
0010
,  // measure 14
0100
0001
0100
0001
,  // measure 15
0010
0100
0010
1000
,  // measure 16
0001
0000
0100
0000
,  // measure 17
0010
0010
0100
0100
,  // measure 18
0001
0010
1000
0100
,  // measure 19
0010
0010
0100
0001
,  // measure 20
0000
0110
0010
0010
,  // measure 21
1001
0110
1000
0010
,  // measure 22
0001
0010
1000
0010
,  // measure 23
0100
0100
0002
0003
,  // measure 24
0010
0010
0100
0100
,  // measure 25
0001
0010
0100
1000
,  // measure 26
0100
0010
0001
0100
,  // measure 27
0010
2000
3000
0100
,  // measure 28
0100
0010
0010
0010
,  // measure 29
1000
1000
0100
0100
,  // measure 30
1000
0010
1000
0010
,  // measure 31
0100
0001
0100
1000
,  // measure 32
0010
0000
0100
0000
,  // measure 33
0001
0000
0010
0000
,  // measure 34
0100
0100
0010
0000
,  // measure 35
1000
0100
0010
0100
,  // measure 36
0001
0000
0010
0110
,  // measure 37
1001
1001
0110
0110
,  // measure 38
0001
0010
0100
1000
,  // measure 39
0010
0001
0100
0010
,  // measure 40
1000
0000
0100
0010
,  // measure 41
0110
0110
1001
1001
,  // measure 42
0010
0100
1000
0001
,  // measure 43
0100
0010
0001
0001
,  // measure 44
0010
1000
1000
0010
,  // measure 45
1000
0100
0010
0001
,  // measure 46
1000
0100
0010
0001
,  // measure 47
0010
0100
1000
1000
,  // measure 48
0010
0100
0001
0010
,  // measure 49
0001
0010
0100
1000
,  // measure 50
0100
0010
0001
1000
,  // measure 51
0010
0100
0001
1000
,  // measure 52
1001
0000
0000
0000
;
