#TITLE:Can't Get You Out Of My Head;
#SUBTITLE:;
#ARTIST:Kylie Minogue;
#TITLETRANSLIT:;
#SUBTITLETRANSLIT:;
#ARTISTTRANSLIT:;
#CREDIT:;
#BANNER:Can't Get You Out Of My Head banner.png;
#BACKGROUND:Can't Get You Out Of My Head bg.png;
#LYRICSPATH:;
#CDTITLE:;
#MUSIC:Can't Get You Out Of My Head.mp3;
#OFFSET:-8.020;
#SAMPLESTART:15.600;
#SAMPLELENGTH:15.000;
#SELECTABLE:YES;
#BPMS:0.000=126.000;
#STOPS:;
#BGCHANGES:;

//---------------dance-single - ----------------
#NOTES:
     dance-single:
     :
     Hard:
     7:
     0.447,0.416,0.102,0.075,0.014:
1000
0100
0010
0001
0000
0100
0000
0010
,
0000
1000
0000
1000
0000
0100
0000
0010
,
0100
0010
0001
0010
0000
0100
0000
0010
,
0000
1000
0000
0010
0000
0100
0110
0000
,
1000
0000
0100
0000
0010
0000
0100
0001
,
0000
0001
0010
1000
1000
0000
0010
0000
,
0001
0000
0010
0000
0100
0000
1000
0010
,
0010
0100
0001
1000
1000
0000
0110
0000
,
1000
0000
0010
0000
0100
0000
0010
1000
,
0000
1000
0000
0010
0100
0001
0001
0000
,
0010
0000
0100
0000
0010
0000
1000
0001
,
0010
0100
0100
0010
1000
0000
0100
0000
,
0110
0000
0001
0010
0100
0010
1000
0000
,
1001
0000
0000
0000
0010
0000
0000
0000
0001
0010
0000
0000
0010
0100
0000
0000
,
1010
0000
0100
0010
0001
0000
0010
0000
,
0010
0100
0010
0000
1000
0001
0100
0010
,
0001
0000
0010
0100
0010
1000
0001
0000
,
0110
0000
0000
0000
1000
0000
0000
0000
0100
1000
0000
0000
0010
0001
0000
0000
,
0100
0000
0001
0010
1000
0000
0010
0000
,
0001
0100
0010
0000
0100
0100
0010
0100
,
2000
0000
0100
0000
3100
0000
0010
0100
,
0100
0001
0010
1000
0010
0000
0010
0000
,
0002
0000
0010
0000
0013
0000
0100
0010
,
0010
1000
0001
0100
0010
0000
1000
0000
,
1001
0000
0100
0010
0001
1000
0010
0000
,
0101
0000
1010
0000
0100
0001
0001
0010
,
0100
0000
0010
1000
0010
0000
0100
0000
,
0010
1000
0010
0000
0100
0000
1000
0000
,
0110
0000
1000
0100
0001
0100
1000
0000
,
0011
0000
1100
0000
0010
0001
0100
0010
,
0001
0000
1000
0010
0100
0000
0001
0000
,
1000
0001
1000
0000
0010
0000
0100
0000
,
0001
0000
0010
0100
0010
0000
0001
0010
,
0200
1000
0010
1300
,
0100
0001
0100
0000
0010
1000
0000
0001
,
0000
0100
0010
0000
1000
0000
0001
0000
,
1100
0000
0100
0010
0100
0001
0020
0000
,
0130
0000
0001
0010
0100
1000
0010
0000
,
0100
0001
1000
0010
,
0200
0000
0010
0310
,
0001
0010
0100
0010
1000
0100
0001
0010
,
1000
0100
0010
0100
0010
0001
1000
0010
,
0010
0100
1000
0100
0001
0100
0010
1000
,
0001
0010
0100
0100
,
0001
0010
0001
1000
0100
1000
0010
0100
,
0010
1000
0100
1000
0010
1000
0010
0001
,
0100
0001
0010
0100
0010
1000
0001
1000
,
0010
0000
0100
0010
0010
0001
0010
0000
,
0200
0000
0310
1000
0010
0001
0100
0000
,
0020
0000
0031
0100
0010
1000
0100
0000
,
0010
0000
0100
0100
0100
0000
0001
0010
,
2000
0000
0000
0200
3000
0000
0000
0310
,
0110
0001
0010
0100
0010
1000
0100
1000
,
0010
0100
0010
0001
0100
0000
0010
0000
,
1000
0100
0010
0100
0010
0001
0100
0010
,
0001
0010
1000
0010
0100
0000
0001
0000
,
0010
0100
0010
0001
0010
0100
0010
1000
,
0100
0010
0100
0010
1000
0000
0100
0000
,
0010
0100
1000
0100
0001
1000
0010
0100
,
0001
0010
0100
0001
1000
0000
0010
0000
,
0100
0100
0001
0010
1000
0010
0002
0000
,
0013
0001
0100
1000
1000
0100
0010
0000
,
0100
0010
1000
0100
0001
0010
0001
0100
,
0010
0100
0010
1000
0001
0000
1000
0000
,
0010
0010
0001
0010
1000
0010
2000
0000
,
3100
0001
0100
0010
1000
0000
0001
0000
,
0100
0010
0100
1000
0010
0100
0001
0010
,
0100
0010
1000
0000
0001
0000
1000
0010
,
0100
0001
0010
0001
1000
0100
1000
0010
,
0100
0010
0100
0001
0010
0001
1000
0100
,
1000
0010
0100
0010
0001
0000
1000
0010
,
0100
0010
0010
0100
0001
0000
1000
0000
,
1001
0000
0000
0000
;

//---------------dance-single - ----------------
#NOTES:
     dance-single:
     :
     Medium:
     5:
     0.350,0.318,0.143,0.095,0.000:
1000
0100
1000
0100
0000
0010
0000
0100
,
0000
0001
0000
0001
0000
0010
0000
0100
,
0001
0100
0001
0100
0000
0010
0000
1000
,
0000
0010
0000
0100
0000
0100
0010
0000
,
1000
0000
0100
0000
0010
0000
0100
0001
,
0000
0010
0000
0001
0100
0000
0110
0000
,
0001
0000
0010
0000
0100
0000
0010
1000
,
0000
0100
0000
1000
0010
0000
0110
0000
,
1000
0000
0010
0000
0001
0000
0100
0010
,
0000
1000
0000
0001
0010
0000
1001
0000
,
0010
0000
0100
0000
0010
0000
1000
0001
,
0000
1000
0000
0001
0100
0000
0010
0000
,
0110
0000
1000
0001
1000
0000
0100
0000
,
1100
0010
0100
0010
,
0001
0010
0100
0010
,
1000
0100
0010
0000
0100
0000
0100
0000
,
0011
0000
0010
0100
0010
0000
1000
0000
,
0110
0001
0010
0100
,
0010
0000
1000
0100
1000
0000
0010
0000
,
0100
0001
0100
0000
0010
0000
0010
0000
,
0002
0000
0023
0000
0230
0000
0300
0010
,
0000
1000
0000
0010
0100
0000
0110
0000
,
2000
0000
3200
0000
0320
0000
0030
0100
,
0000
0001
0000
0010
0001
0000
0100
0000
,
0010
0000
0100
0010
0100
0000
0010
0000
,
0100
0000
1000
0000
0100
0010
0001
0000
,
0010
0000
0100
0001
0100
0000
0010
0000
,
1000
0010
0100
0000
0010
0000
0010
0000
,
0110
0000
0001
0010
0001
0000
0100
0000
,
1100
0010
0100
1000
,
0100
0000
1000
0010
1000
0000
0100
0000
,
0001
1000
0001
0000
0010
0000
0001
0000
,
0020
0000
0030
0100
0100
0000
0010
0000
,
2000
0000
3000
0010
0100
0000
0001
0000
,
0020
0000
0030
0100
,
0100
0101
0010
1010
,
0100
0000
1000
0010
0000
0010
0100
0000
,
0001
0000
0010
0100
0000
0100
0010
0000
,
0001
0010
0100
1000
,
0020
0000
0000
0130
,
0110
1000
0100
0010
,
0100
0000
0001
0000
0010
0000
0100
0010
,
0100
0000
0001
0010
0000
0100
0000
0010
,
0000
0010
0000
0100
0001
0000
0010
0000
,
1100
0010
0100
1000
,
0010
0000
0100
0000
0001
0010
0001
0000
,
0010
0100
0000
0010
0000
1000
0000
0001
,
0000
0100
0000
0010
0000
0010
0100
0000
,
0010
0000
0100
0002
0003
0000
0011
0000
,
0010
0000
0100
2000
3000
0000
1100
0000
,
0010
0010
0010
0010
,
0200
0000
0000
0320
0000
0000
0000
0000
,
0130
0000
0001
0000
0100
0000
0010
0100
,
0000
1000
0100
0010
0100
0000
0010
0000
,
0100
0000
0001
0000
0010
0000
0001
0100
,
0000
0100
0010
0100
0100
0000
0010
0000
,
1000
0000
0100
0000
0010
0000
0100
0001
,
0000
0010
1000
0010
0001
0000
0100
0000
,
0001
0000
0010
0000
0001
0000
0010
0100
,
0000
0100
1000
0100
1000
0000
0010
0000
,
0100
0000
0010
0100
0010
0000
1000
0000
,
0110
0000
0100
0001
0100
0000
0010
0000
,
0100
0000
1000
0000
0100
0000
0010
0001
,
0000
0100
0000
0010
1000
0000
0010
0000
,
0011
0000
0100
0010
0100
0000
0010
0000
,
1010
0000
0100
0001
0100
0000
0010
0000
,
0100
0000
0010
0000
0010
0000
0100
0001
,
0000
0010
0000
0100
0010
1000
0010
0000
,
0100
0000
1000
0001
1000
0000
0001
1000
,
0001
0010
0100
0010
,
0100
0000
0100
0000
0010
0000
0000
1000
,
0000
0100
0000
0010
0100
0000
0110
0000
,
1001
0000
0000
0000
;

//---------------dance-single - ----------------
#NOTES:
     dance-single:
     :
     Easy:
     4:
     0.268,0.244,0.020,0.075,0.000: // measure 1
1000
0100
0010
0100
,  // measure 2
0001
0001
0001
0010
,  // measure 3
0001
0010
0100
0010
,  // measure 4
1000
1000
1000
0010
,  // measure 5
0100
0010
0100
0000
,  // measure 6
0001
0010
0100
0100
,  // measure 7
0010
1000
0010
0000
,  // measure 8
0100
0100
1000
0100
,  // measure 9
0001
0010
0001
0000
,  // measure 10
0100
0010
0001
0001
,  // measure 11
1000
0010
1000
0000
,  // measure 12
0010
0100
0001
0001
,  // measure 13
0010
0100
0010
1000
,  // measure 14
0200
0300
0010
0010
,  // measure 15
0100
0010
0001
0010
,  // measure 16
0100
0100
0010
1000
,  // measure 17
0100
0010
0100
0010
,  // measure 18
0002
0003
0010
0010
,  // measure 19
0100
0010
0100
0001
,  // measure 20
0010
2000
3000
0010
,  // measure 21
0100
0010
0010
0000
,  // measure 22
0100
0010
0001
0010
,  // measure 23
0100
1000
1000
0000
,  // measure 24
0100
0010
0100
0010
,  // measure 25
0001
0010
0001
0010
,  // measure 26
0200
0310
0100
0100
,  // measure 27
0010
0100
1000
0100
,  // measure 28
0010
0010
0100
0001
,  // measure 29
0010
0001
1000
0100
,  // measure 30
2000
3100
0010
0010
,  // measure 31
0100
0010
0001
0010
,  // measure 32
0100
0020
0030
0100
,  // measure 33
1000
0100
0010
0001
,  // measure 34
0020
0000
0030
0000
,  // measure 35
0001
0010
0100
1000
,  // measure 36
0100
0200
0000
0300
,  // measure 37
0010
0000
0100
0010
,  // measure 38
0001
0000
0010
0100
,  // measure 39
1000
0000
0100
0000
,  // measure 40
0010
0000
0010
0100
,  // measure 41
0110
0001
1000
0010
,  // measure 42
0100
1000
0100
0010
,  // measure 43
0100
0100
0010
0010
,  // measure 44
0001
0001
0100
0010
,  // measure 45
1001
0010
0001
0010
,  // measure 46
1000
0100
1000
0010
,  // measure 47
1000
1000
0001
0001
,  // measure 48
0100
0010
0001
0001
,  // measure 49
0010
0100
0010
1000
,  // measure 50
0010
0100
0010
1000
,  // measure 51
0010
0000
0100
0000
,  // measure 52
0001
0000
0020
0000
,  // measure 53
0130
0001
0100
0010
,  // measure 54
1000
1000
0100
0010
,  // measure 55
0100
0010
0100
0010
,  // measure 56
0001
0001
0010
0100
,  // measure 57
0001
0010
0001
0100
,  // measure 58
0010
0010
0100
0010
,  // measure 59
1000
0100
0010
0001
,  // measure 60
0100
0100
0010
1000
,  // measure 61
0100
0100
0010
0100
,  // measure 62
0002
0003
1000
1000
,  // measure 63
0010
0100
0010
0001
,  // measure 64
0010
0100
0010
0100
,  // measure 65
1000
0010
0100
1000
,  // measure 66
0200
0300
0010
0010
,  // measure 67
0100
0010
0001
0010
,  // measure 68
0100
0010
0001
0010
,  // measure 69
0100
0100
0010
1000
,  // measure 70
0100
0100
0010
0010
,  // measure 71
0100
0010
0100
0000
,  // measure 72
0001
0010
0100
1000
,  // measure 73
1001
0000
0000
0000
;
