#TITLE:Bon Bon Chocolat;
#SUBTITLE:;
#ARTIST:EVERGLOW;
#TITLETRANSLIT:;
#SUBTITLETRANSLIT:;
#ARTISTTRANSLIT:;
#CREDIT:;
#BANNER:Bon Bon Chocolat banner.png;
#BACKGROUND:Bon Bon Chocolat bg.png;
#LYRICSPATH:;
#CDTITLE:;
#MUSIC:Bon Bon Chocolat.mp3;
#OFFSET:-5.500;
#SAMPLESTART:62.060;
#SAMPLELENGTH:15.000;
#SELECTABLE:YES;
#BPMS:0.000=140.000;
#STOPS:;
#BGCHANGES:3.000=Bon Bon Chocolat.avi=1.000=0=0=0,
99999=-nosongbg-=1.000=0=0=0 // don't automatically add -songbackground-
;

//---------------dance-single - ----------------
#NOTES:
     dance-single:
     :
     Hard:
     9:
     0.642,0.724,0.228,0.304,0.249:
0000
0000
0000
0000
,
1000
0000
0100
0000
0001
0000
0100
0000
1000
0000
0010
0100
0000
0000
0001
0000
,
0010
0100
0010
0000
0001
0000
1000
0000
0010
0000
0100
1000
0000
0000
0010
0000
,
0100
0001
0001
0010
1000
0010
0001
0100
,
1000
0000
0100
0000
0100
0000
0010
0000
0100
0000
0001
1000
0000
0000
0010
0000
,
0100
2000
3200
0320
0031
0010
0100
1000
,
0010
0100
0001
1000
0010
0000
0100
0000
,
0010
0002
0023
0230
1300
0100
0010
0001
,
0100
0010
1000
0001
0100
0000
0010
0000
,
1000
0100
0000
0000
0100
0010
0000
0000
0010
0001
0000
0000
0010
0100
0000
0000
,
0001
0010
1000
0010
0001
0100
0100
0000
,
0010
1000
0000
0000
0100
1000
0000
0000
0010
1000
0000
0000
0001
0000
0000
0000
,
0100
0010
0010
1000
0100
0001
0100
0010
,
0010
0001
0000
0000
0100
0010
0000
0000
1000
0100
0000
0000
0010
0000
0000
0000
,
0100
0010
1000
0001
0200
0000
0310
0010
,
1000
0100
0001
0100
1000
0000
0010
0010
,
0001
0010
0000
0000
0010
0100
0000
0000
1001
0000
0000
0000
0110
0000
0000
0000
,
1000
0100
0010
0001
0010
0000
0100
0000
,
0020
0000
0031
0200
0000
0310
1000
0010
,
0100
1000
1000
0001
0110
0000
1100
0000
,
0002
0000
0013
0200
0000
0310
1000
0001
,
0100
0000
0010
0000
0010
0000
1000
0000
0100
0000
0000
0000
0001
0010
0000
0000
,
2000
0000
3100
0010
0100
0010
0002
0013
,
0100
0000
0010
0000
0010
0000
1000
0000
0001
1000
0000
0000
1000
0000
0000
0000
,
0010
0000
1000
0000
1000
0000
0100
0000
0001
0100
0000
0000
0010
0000
0000
0000
,
1000
0000
0100
0010
0000
0000
0100
0000
0001
0000
0100
0010
0000
0000
1000
0000
,
0001
0000
0010
0100
0010
0000
1000
0000
0100
0000
0001
0100
0000
0000
0010
0000
,
1000
0000
0001
0100
0000
0000
0010
0000
1000
0000
0100
1000
0000
0000
0010
0000
,
0100
0000
0001
1000
0001
0000
0100
0000
0010
0000
1000
0002
0000
0000
0000
0000
,
0013
0100
0010
1000
0001
0000
0010
0000
,
2000
0000
3100
0020
0000
0130
0001
0100
,
0010
1000
1000
0001
0100
0000
0110
0000
,
0001
0010
0100
1000
0100
0000
0110
0000
,
1000
0000
0010
0000
0110
0000
0001
1000
0001
0000
0010
0000
0101
0000
0010
0000
,
1100
0000
0010
0000
0100
0000
0001
0010
0001
0000
2000
0000
3200
0000
0310
0000
,
1001
0000
0100
0000
0010
0000
1000
0001
1000
0000
0010
0000
1100
0000
0010
0000
,
0100
0000
0001
0000
0001
0000
0100
0000
0020
0000
0000
0000
0130
0001
0000
0000
,
0110
0000
1000
0000
0100
0000
0010
0100
0010
0000
0001
0000
1001
0000
0100
0000
,
1001
0000
0010
0000
1100
0000
0010
0100
0010
0000
0002
0000
0023
0000
0130
0000
,
1001
0000
0010
0000
0001
0000
0100
0010
0100
0000
1000
0000
1100
0000
0010
0000
,
0011
0000
0100
0000
0010
0000
1000
0100
0001
0000
0000
0010
0000
0000
0100
0000
,
2000
0000
0000
0000
3000
0000
0100
0000
0010
0000
0000
0001
0000
0000
1000
0000
,
0010
0000
0000
0100
0000
0000
0001
0000
0100
0000
0000
0010
0000
0000
1000
0000
,
0020
0000
0000
0000
0030
0000
0001
0000
1000
0000
0000
0010
0000
0000
0100
0000
,
0001
0000
0000
1000
0000
0000
0010
0000
0100
0000
0001
0100
0000
0000
0100
0000
,
0010
0000
0000
1000
0000
0000
0100
0000
1000
0000
0010
0100
0000
0000
0001
0000
,
0100
0000
0000
0010
0000
0000
0010
0000
0100
0000
0001
1000
0000
0000
0010
0000
,
0100
0000
0000
0001
0000
0000
1000
0000
0010
0000
0000
1000
0000
0000
0100
0000
,
1000
0000
0000
0001
0000
0000
0100
0000
0010
0000
0000
2000
0000
0000
0000
0000
,
3010
0000
0100
0000
0001
0000
0100
0010
0100
0000
1000
0000
0100
0000
0001
0000
,
0100
0000
1000
0000
0010
0000
0100
1000
0100
0000
0000
0000
0010
0001
0010
0000
,
0100
0000
0010
0000
1000
0000
0100
1000
0100
0000
0001
0000
0100
0000
0001
0000
,
1000
0000
0010
0000
0001
0000
0100
0010
0100
0000
0000
0000
0001
0010
0100
0000
,
0010
0000
0100
0000
0010
0000
1000
0001
1000
0000
0010
0000
0100
0000
0010
0000
,
1000
0000
0000
0000
0000
0000
0001
0000
0000
0000
0000
0000
0100
0000
0000
0000
0000
0000
0001
0000
0000
1000
0000
0000
0001
0000
0000
0000
0000
0000
0000
0000
0000
0000
0000
0000
1000
0000
0000
0000
0100
0000
0000
0000
0010
0000
0000
0000
,
0001
0000
0010
0000
0100
0000
0010
1000
0010
0000
0100
0000
1000
0000
0100
0000
,
0001
0010
0200
0000
0000
0000
0000
0000
0000
0000
1000
0000
1300
0000
0000
0000
,
0010
0100
0001
0010
1000
0000
0010
0000
,
0200
0000
0310
1000
0010
0100
0002
0000
,
0013
0100
0100
0010
0011
0000
1100
0000
,
0020
0000
0130
1000
0100
0010
0200
0000
,
0310
0001
0001
1000
0010
0000
0100
0000
,
0002
0000
0013
0100
1000
0100
0020
0000
,
0130
0000
0010
0000
0010
0000
1000
0000
0100
0001
0000
0000
0110
0000
0000
0000
,
0001
0000
0010
0000
1000
0000
0010
0000
0001
0100
0000
0000
0110
0000
0000
0000
,
1000
0100
0010
0001
1001
0000
0000
0000
,
0001
0010
0100
1000
2002
0000
3003
0000
,
0010
0100
0001
1000
0110
0000
0000
0000
,
0100
0010
1000
0001
0220
0000
0330
0000
,
1000
0100
0010
0001
0010
0000
0100
0000
,
0002
0000
0013
0200
0000
0310
1000
0010
,
0100
0001
0001
0010
0100
0000
0110
0000
,
1000
0100
0010
0100
0001
0000
1001
0000
,
0110
0000
0010
0000
0010
0000
0001
0010
0001
0000
0010
0000
0100
0000
0100
0000
,
0010
0000
1000
0000
0010
0000
1000
0100
0010
0000
0002
0003
0002
0003
0002
0003
,
0110
0000
1000
0000
0100
0000
0010
0100
0010
0000
0001
0000
1000
0000
0010
0000
,
1000
0000
0100
0000
0100
0000
0010
0000
0100
0000
0000
0000
0001
0020
0000
0000
,
0130
0000
1000
0000
0100
0000
0001
0100
0001
0000
0010
0000
1000
0000
0010
0000
,
0110
0000
1000
0000
1100
0000
0010
0100
0010
0000
2000
0000
3200
0000
0320
0000
,
0130
0000
0001
0000
0010
0000
1000
0100
1000
0000
0100
0000
0010
0000
0010
0000
,
1000
0000
0001
0000
1001
0000
0010
0100
0010
0000
0000
0000
0000
0000
0000
0000
;

//---------------dance-single - ----------------
#NOTES:
     dance-single:
     :
     Medium:
     6:
     0.421,0.390,0.118,0.069,0.000:
0000
0000
0000
0000
,
1000
0000
0100
0000
0010
1000
1000
0000
,
0010
0100
0100
0000
0001
0000
1000
1000
,
0001
0000
0100
0000
0010
0010
0010
0010
,
0000
1000
0001
0000
0100
0000
0110
0000
,
1000
0200
0310
0000
1000
0001
1000
0000
,
0001
0010
0100
0000
0010
0000
1001
0000
,
0100
0020
0031
0000
0100
0010
0100
0000
,
1000
0001
1000
0000
0010
0000
1010
0000
,
1000
0100
0010
0001
,
0100
0010
0100
0000
0001
0010
0010
0000
,
0001
0010
0100
1000
,
0010
1000
1000
0000
0100
0010
0100
0000
,
0010
0100
0001
1000
,
0010
1000
0001
0000
0200
0000
0000
0300
,
0010
0000
1000
0001
1000
0000
0100
0000
,
2000
3020
0230
0301
,
1000
0001
1000
0001
1000
0000
0010
0000
,
0100
0000
0001
0010
0000
0010
0100
0000
,
0010
0100
0010
0100
0010
0000
0010
0000
,
1000
0000
0010
0100
0000
0100
0010
0000
,
0100
0001
0100
0001
0100
0000
0010
0000
,
0100
0000
0001
1000
0000
1000
0001
0000
,
0010
0000
1000
0010
1000
0000
1001
0000
,
0010
0000
0100
0001
0100
0000
0101
0000
,
0010
1000
1000
0000
0010
1000
1000
0000
,
0100
0010
0001
0000
0100
0010
0100
0000
,
0001
0010
0010
0000
0001
0010
0010
0000
,
0100
0010
0100
0000
0001
1000
0001
0000
,
1000
0100
0010
0001
0010
0000
0100
0000
,
0010
0000
1000
0001
0000
0001
1000
0000
,
0010
0000
0100
0001
0001
0000
1001
0000
,
0000
0100
0010
0100
0010
0000
1001
0000
,
0110
0000
1000
0001
1000
0000
0010
0000
,
0001
0000
0100
0010
0100
0000
0001
0001
,
0001
0000
0010
0000
0100
0010
0100
0000
,
1000
0100
0010
0000
0010
0000
0110
0000
,
1001
0000
0010
0000
0100
0001
0100
0000
,
0010
1000
0010
0000
0100
0000
1000
1000
,
1000
0000
0010
0000
0100
0001
0100
0000
,
0010
0000
1000
0001
0010
0000
0010
0000
,
0200
0000
1000
0301
,
0010
0010
0100
0001
,
2000
0000
0001
3010
,
0100
0000
0100
0000
0010
0010
0010
0000
,
1000
0000
0100
0000
0001
0001
0001
0000
,
0010
0000
0100
0000
0010
0010
0010
0000
,
1000
0100
0010
0001
,
0100
0010
0100
0100
,
0010
0100
0010
0000
0001
1000
0001
0000
,
0100
0000
0010
1000
0010
0000
0100
0000
,
0001
1000
0001
0000
0100
1000
0100
0000
,
0010
0000
0100
0001
0100
0000
0010
0000
,
1000
0100
0010
0000
0100
0010
0001
0000
,
0010
0000
0100
0001
0001
0000
0010
0000
,
0100
0010
0100
0000
0010
0100
0010
0000
,
2000
0000
0000
3000
,
0100
0001
0100
0001
0100
0000
0010
0000
,
1000
0000
0010
0100
0000
0100
0010
0000
,
1000
0100
1000
0100
1000
0000
1000
0000
,
0010
0000
0100
0001
0000
0001
0100
0000
,
0010
0001
0010
0001
0010
0000
0100
0000
,
0010
0000
1000
0001
0000
0001
1000
0000
,
0010
0100
1000
0100
0010
0000
0010
0000
,
0100
0010
0001
0010
0100
0000
0100
0000
,
0010
0010
0110
0000
,
1000
1000
1010
0000
,
0100
0100
0101
0000
,
0010
0010
1010
0000
,
0100
0010
0100
0010
0100
0000
0100
0000
,
0001
0000
1000
0010
0000
0010
1000
0000
,
0010
0000
0001
0100
0100
0000
0010
0000
,
0000
1000
0100
0010
0001
0000
1001
0000
,
0020
0000
0000
0000
0000
0000
0000
0030
,
0100
0000
0100
0000
0001
1000
1000
1000
,
0010
0000
0100
0000
0001
0100
0001
0000
,
0010
1000
0010
0000
0100
0000
1001
0000
,
0010
1000
0001
0000
0010
1000
0001
0000
,
0100
0100
0100
0000
0010
0000
0001
0000
,
1000
0100
0010
0000
1000
0100
0010
0000
,
0001
0000
1000
0001
1001
0000
0000
0000
;

//---------------dance-single - ----------------
#NOTES:
     dance-single:
     :
     Easy:
     4:
     0.345,0.390,0.277,0.180,0.000: // measure 1
0000
0000
0000
0000
,  // measure 2
1000
0010
0100
0100
,  // measure 3
0001
0010
1000
0010
,  // measure 4
0100
0001
0100
0100
,  // measure 5
0010
1000
0100
1000
,  // measure 6
0002
0023
0130
0001
,  // measure 7
1000
0010
0100
0100
,  // measure 8
2000
3200
0310
0100
,  // measure 9
0001
0010
1000
1000
,  // measure 10
0010
0110
0010
0010
,  // measure 11
0001
0010
1000
1001
,  // measure 12
0010
1010
0100
0100
,  // measure 13
0001
0100
0010
1000
,  // measure 14
0100
0100
0010
0010
,  // measure 15
1000
0001
2000
3000
,  // measure 16
0010
0100
0001
0010
,  // measure 17
1000
1000
0110
0000
,  // measure 18
1000
0100
0010
0001
,  // measure 19
0020
0030
0200
0300
,  // measure 20
0001
0010
0100
1000
,  // measure 21
0200
0300
0020
0030
,  // measure 22
0100
0001
1000
0010
,  // measure 23
0002
0003
2000
3000
,  // measure 24
0010
0100
0010
0010
,  // measure 25
0100
1000
0100
0100
,  // measure 26
1001
1001
0110
0110
,  // measure 27
0010
0100
0001
1000
,  // measure 28
0110
0110
1001
1001
,  // measure 29
0100
0010
1000
0001
,  // measure 30
0010
0100
0010
1000
,  // measure 31
0002
0003
0020
0030
,  // measure 32
0100
0010
0100
0100
,  // measure 33
0000
0010
0010
0010
,  // measure 34
1001
0010
0100
0010
,  // measure 35
0001
0010
0100
1000
,  // measure 36
0110
1000
0100
0001
,  // measure 37
0100
0010
1000
0010
,  // measure 38
1001
0010
0001
0100
,  // measure 39
0010
1000
0010
0010
,  // measure 40
0110
1000
0100
0001
,  // measure 41
0100
1000
0010
0010
,  // measure 42
2000
3000
0010
0010
,  // measure 43
0100
0001
0100
0010
,  // measure 44
0002
0003
0100
0100
,  // measure 45
0010
1000
0100
0100
,  // measure 46
0010
0100
0001
0001
,  // measure 47
1000
0100
0010
0010
,  // measure 48
1000
0001
0100
0010
,  // measure 49
1000
0100
0001
0010
,  // measure 50
0100
0100
0100
0110
,  // measure 51
0001
0001
1001
0000
,  // measure 52
0010
0010
0010
0110
,  // measure 53
1000
1000
1001
0000
,  // measure 54
0001
0001
0001
1001
,  // measure 55
1000
1000
1001
0000
,  // measure 56
0010
0100
0010
0110
,  // measure 57
0010
0020
0000
0030
,  // measure 58
0100
0010
1000
0001
,  // measure 59
0020
0030
0200
0300
,  // measure 60
0010
0100
1000
0100
,  // measure 61
0002
0003
0200
0300
,  // measure 62
0010
1000
0001
0100
,  // measure 63
2000
3000
0020
0030
,  // measure 64
0100
0010
0001
0001
,  // measure 65
0010
0100
1000
1000
,  // measure 66
1001
1001
1001
0000
,  // measure 67
0110
0110
0110
0000
,  // measure 68
0110
0110
0110
0000
,  // measure 69
1001
1001
1001
0000
,  // measure 70
0010
0010
0100
0100
,  // measure 71
0002
0003
2000
3000
,  // measure 72
0010
0010
0100
0010
,  // measure 73
0000
1000
1000
1000
,  // measure 74
2002
0000
0000
0000
,  // measure 75
0000
3003
0010
0010
,  // measure 76
0110
0001
0010
0100
,  // measure 77
1000
0010
0100
0100
,  // measure 78
1001
0010
0100
0001
,  // measure 79
0010
0001
0100
0100
,  // measure 80
0110
1000
0100
0001
,  // measure 81
0010
0100
1001
0000
;
