#TITLE:Beach Again;
#SUBTITLE:;
#ARTIST:SSAK3;
#TITLETRANSLIT:;
#SUBTITLETRANSLIT:;
#ARTISTTRANSLIT:;
#CREDIT:;
#BANNER:Beach Again banner.png;
#BACKGROUND:Beach Again bg.png;
#LYRICSPATH:;
#CDTITLE:;
#MUSIC:Beach Again.mp3;
#OFFSET:-9.480;
#SAMPLESTART:75.820;
#SAMPLELENGTH:15.000;
#SELECTABLE:YES;
#BPMS:0.000=132.000;
#STOPS:;
#BGCHANGES:;

//---------------dance-single - ----------------
#NOTES:
     dance-single:
     :
     Hard:
     7:
     0.449,0.405,0.192,0.122,0.017:
1000
0010
0100
0001
0010
1000
0010
0000
,
0100
0001
0010
0001
1000
0100
0010
0000
,
0001
0000
0001
0000
0001
0000
0001
0000
0001
0010
0000
0000
0110
0000
0000
0000
,
2000
3200
0320
0031
,
1001
0000
0110
0000
1000
0100
0010
0001
,
0000
0000
0010
0000
0110
0000
0000
0000
0001
0000
0000
1000
0000
0000
0010
0000
,
0100
0001
0010
1000
,
0100
1000
0010
0100
0000
0001
0000
0010
,
0100
0001
0110
0000
1000
0001
1000
0010
,
0000
0100
0010
1000
0000
0100
0110
0000
,
0001
0000
0010
0000
0100
1000
0010
0100
,
0011
0110
1100
1001
,
0020
0000
0130
0000
0001
0000
0010
1000
,
1000
0000
0010
0100
0000
0100
0001
1000
,
0010
0000
0100
0000
1000
0100
0010
0001
,
0000
0001
0010
0100
0000
0010
0100
0010
,
1001
0000
0010
0000
0100
1000
0010
0010
,
0000
0100
0000
0001
0000
0010
0100
0010
,
1000
0000
0100
1000
0000
0010
0100
0001
,
0000
0010
0100
1000
0001
0010
0100
0010
,
0001
0000
0011
0000
0100
0010
0010
1000
,
0100
0000
0010
1000
0000
0001
1000
0010
,
0100
0000
1001
0000
0100
0000
1000
0100
,
0010
0100
1000
0010
0000
0100
0001
1000
,
0020
0000
0130
0000
0001
0000
0010
0100
,
0010
0000
0100
0001
0000
1000
0000
0010
,
0100
0001
0100
0010
1000
0001
0010
1000
,
0000
0100
0010
0000
1000
0001
0100
0010
,
1001
0000
2000
0000
3100
0010
0100
0100
,
0000
0001
0010
0100
0000
0010
0100
0010
,
1001
0000
0002
0000
0013
0100
0010
0010
,
0000
0100
1000
0100
0000
0011
0000
1100
,
0010
0100
0001
0010
1000
0010
0100
0000
,
0010
1000
0100
1000
0010
0100
0010
0000
,
1000
0001
1000
0010
0000
0001
0000
0010
,
0200
0302
2003
3020
,
0130
0100
0000
0000
,
1001
0100
1000
0010
0000
0100
0001
0100
,
0000
0110
0000
0001
0010
0100
0010
1000
,
0100
0010
0100
0001
0000
0010
0000
0100
,
1000
0000
0010
0000
0100
0001
1000
0010
,
0000
0100
0001
0100
0000
0010
1000
0010
,
0000
0100
1000
0110
0000
0100
1000
0010
,
0010
0100
0001
0010
0000
1000
0000
0001
,
0000
0100
0010
0001
1000
0100
0010
0001
,
0110
0001
0010
1000
0000
0010
0100
0010
,
0000
0100
0000
0010
1000
0100
0001
0100
,
1000
0000
0010
0100
0000
0001
1000
0002
,
0000
0000
0000
0013
0100
0010
1000
0010
,
0000
0100
0001
1000
0000
0010
1000
0001
,
0000
0100
0010
1000
0000
0010
0100
1000
,
0100
0010
0100
0000
0001
0010
0001
0000
,
0100
0010
2000
3020
0000
0000
0130
0100
,
0001
1000
0010
0000
0100
0001
1000
0000
,
0001
0010
0001
0000
0010
0100
0010
0000
1000
0000
0100
0000
0110
0000
0000
0000
;

//---------------dance-single - ----------------
#NOTES:
     dance-single:
     :
     Medium:
     4:
     0.336,0.310,0.200,0.052,0.000:
1000
0011
0100
0010
,
1000
1100
0010
0100
,
1000
1000
1000
1000
0010
0000
0100
0000
,
0001
0010
0100
1000
,
1001
0100
0010
0100
,
0001
0000
1000
0000
0010
0000
0100
0001
,
0001
0010
0100
1000
,
0100
0000
0010
1000
0000
0100
0000
0010
,
0100
1001
0100
0010
,
1000
0001
0100
0010
,
1000
1000
0100
0010
,
0100
0010
1000
0001
,
0020
0030
0100
0001
,
0100
0000
0010
1000
0000
0001
0000
0200
,
0000
0300
0000
0000
0100
0000
0001
0000
,
0010
0000
0100
0010
0000
0001
0000
2000
,
0000
3000
0000
0000
0010
0100
0010
0100
,
0000
0001
0000
0100
0000
1000
0000
0010
,
1000
0000
0100
1000
0000
0010
0000
0100
,
0000
0010
0010
0000
0100
0000
0001
0000
,
1000
1010
0100
0010
,
0101
0000
0010
0001
0000
0010
0000
0100
,
0010
1000
0100
0010
,
1000
0010
1000
0010
0000
1000
0000
0010
,
0100
0001
0001
0010
,
0100
0000
0010
0001
0000
0100
0000
1000
,
0100
0000
0010
0001
1000
0000
0100
0000
,
0100
0010
1000
0001
,
0200
0000
0000
0300
0010
0000
0100
0000
,
0001
0000
0010
0100
1000
0000
0100
1000
,
0002
0000
0000
0003
1000
0000
0100
0000
,
0010
0000
1000
0100
1000
0000
0010
0001
,
0100
0110
0010
1010
,
0100
0101
0010
1001
,
0100
0010
0100
0010
0000
1000
0000
0001
,
1000
0100
0010
0001
,
0110
0110
0000
0000
,
1001
0000
0010
0100
0000
1000
0000
0010
,
0000
0100
0000
0001
0010
0000
1000
0010
,
0100
0000
0001
0010
0000
1000
0000
0010
,
0000
0100
0000
0010
0100
0010
0001
0010
,
0100
1100
0010
1100
,
0010
0011
0100
0011
,
0100
0000
0010
1000
0000
0001
0000
1000
,
0010
0100
0001
1000
,
1001
0000
0010
0100
0010
0000
1000
0100
,
0010
0100
0001
0010
,
1000
0000
0010
0100
0000
0001
0000
0010
,
0100
0000
0010
0000
1000
0001
1000
0000
,
0010
1100
0010
0110
,
1000
0101
0010
0110
,
0010
2000
0000
3000
,
0001
1000
0001
1000
0000
0000
0010
0100
,
0000
0100
0010
0000
0010
0000
1000
0000
,
0001
0010
0100
1001
;

//---------------dance-single - ----------------
#NOTES:
     dance-single:
     :
     Easy:
     3:
     0.280,0.310,0.131,0.113,0.000: // measure 1
1000
0100
0010
0001
,  // measure 2
0001
0010
0100
1000
,  // measure 3
0010
0010
0010
0000
,  // measure 4
0100
0010
1000
0001
,  // measure 5
1001
1001
0010
0100
,  // measure 6
0010
1000
0010
0001
,  // measure 7
0200
0000
0310
1000
,  // measure 8
0100
0001
0100
0100
,  // measure 9
0010
1001
0010
0001
,  // measure 10
0010
0100
0010
1000
,  // measure 11
0001
0001
0010
0010
,  // measure 12
0100
0010
1000
0001
,  // measure 13
2000
3000
0100
1000
,  // measure 14
0100
0010
0100
0010
,  // measure 15
0002
0003
0100
0010
,  // measure 16
0100
0100
0010
1000
,  // measure 17
0200
0300
0010
0010
,  // measure 18
1000
0100
0001
0000
,  // measure 19
0001
0010
0100
0010
,  // measure 20
1000
1000
0010
0100
,  // measure 21
0010
0110
0010
1000
,  // measure 22
0100
0001
0100
0010
,  // measure 23
1000
1001
0010
0100
,  // measure 24
0010
1000
0100
0001
,  // measure 25
0020
0030
0001
0010
,  // measure 26
0100
0100
0010
0000
,  // measure 27
1000
0100
0010
1000
,  // measure 28
0010
0000
0100
0100
,  // measure 29
0020
0030
0001
0010
,  // measure 30
0100
0010
1000
0100
,  // measure 31
2000
3000
0010
0010
,  // measure 32
0100
0010
1000
0010
,  // measure 33
0001
0110
0001
0110
,  // measure 34
1000
0110
1000
0110
,  // measure 35
0001
0010
0100
1000
,  // measure 36
0020
0000
0030
0100
,  // measure 37
0110
0110
0000
0000
,  // measure 38
1001
0100
0010
0100
,  // measure 39
0010
0010
0001
0010
,  // measure 40
0100
0010
2000
3000
,  // measure 41
0010
0100
0010
0010
,  // measure 42
0001
0110
0010
0001
,  // measure 43
1000
0100
1000
1000
,  // measure 44
0010
0100
0010
0100
,  // measure 45
0001
0001
0010
0001
,  // measure 46
0100
0110
0001
0010
,  // measure 47
0200
0300
0010
1000
,  // measure 48
0100
1000
0010
0100
,  // measure 49
0002
0003
0010
0010
,  // measure 50
0100
0010
0001
0010
,  // measure 51
0100
0010
1000
0100
,  // measure 52
0020
0000
0030
0000
,  // measure 53
0100
0100
0010
1000
,  // measure 54
0100
0002
0003
0000
,  // measure 55
0100
0010
1000
1001
;
