#TITLE:BLACK MAMBA;
#SUBTITLE:;
#ARTIST:aespa;
#TITLETRANSLIT:;
#SUBTITLETRANSLIT:;
#ARTISTTRANSLIT:;
#CREDIT:;
#BANNER:BLACK MAMBA banner.png;
#BACKGROUND:BLACK MAMBA bg.png;
#LYRICSPATH:;
#CDTITLE:;
#MUSIC:BLACK MAMBA.mp3;
#OFFSET:-5.360;
#SAMPLESTART:45.340;
#SAMPLELENGTH:15.000;
#SELECTABLE:YES;
#BPMS:0.000=90.000,28.000=180.000,60.000=90.000,76.000=180.000,140.000=90.000,172.000=180.000;
#STOPS:172.000=1.500
,172.500=0.160
,173.000=0.160
,173.500=0.160
;
#BGCHANGES:4.000=BLACK MAMBA.avi=1.000=1=0=0,
99999=-nosongbg-=1.000=0=0=0 // don't automatically add -songbackground-
;

//---------------dance-single - ----------------
#NOTES:
     dance-single:
     :
     Hard:
     9:
     0.559,0.621,0.332,0.079,0.271:
0000
0000
0000
0000
,
1001
0000
0000
0000
0010
0000
0000
0100
0000
0000
0001
0000
0010
0100
1000
0100
,
0010
0000
0000
0000
1000
0000
0000
0100
0010
0001
0010
0100
0000
0000
1000
0001
,
1000
0000
0100
0000
0011
0000
0100
0010
0100
0000
1000
0000
0011
0000
0100
0000
,
0001
0010
0100
1000
0100
0010
0001
0000
0010
0000
0100
0000
2000
0000
3100
0010
,
0100
0000
0010
0000
1100
0000
0010
0001
0010
0000
0100
0000
0002
0000
0000
0000
,
0013
0100
1000
0100
0010
0100
0001
0010
1000
0000
1000
0000
1001
0000
0000
0000
,
0100
0000
0010
0010
0100
0001
0010
1000
,
0100
0000
0001
0001
0010
0100
0010
1000
,
0001
0000
0010
0100
0100
0010
0100
0000
,
2001
0000
0000
0000
3100
0100
0010
0100
,
0001
0000
0010
0100
1000
0100
0001
0100
,
0110
0000
0110
0000
1000
0001
0100
0010
,
0100
0000
0001
0010
0000
0010
0100
1000
,
0010
0000
0100
0000
0001
1000
0010
0100
,
0001
0000
0010
0000
0100
0000
1000
0000
0001
0010
0100
1000
0000
0010
0100
0000
,
1001
0000
0100
0000
0010
0000
0001
0000
1000
0010
0100
0001
0000
0010
0100
0000
,
0110
0000
0001
0000
0010
0000
1000
0000
0010
0100
0010
0100
0000
0001
0010
0100
,
1000
0000
0100
0010
0001
0000
1000
0010
0001
0000
0010
0000
0110
0000
1001
0000
,
0110
0000
1000
0100
0001
0100
0010
1000
,
0000
0100
0100
0010
0100
0000
0001
0000
,
1001
0000
0010
0001
0010
0100
0010
1000
,
0000
0100
0001
0000
0010
0100
1000
0010
,
0110
0000
1000
0100
0001
0100
1000
0010
,
0000
0001
0001
0010
0100
0000
0010
0000
,
1001
0000
0100
0010
1000
0001
0100
0010
,
0000
1000
0001
0100
0010
0010
0100
0100
,
0011
0000
0010
0100
1000
0000
0010
0100
,
0001
0000
1000
0010
0100
0000
0110
0000
,
0001
0000
0010
0000
0100
0000
1000
0000
0010
0000
0100
0000
,
0002
0000
0000
0003
1001
0000
0010
0100
,
1001
0000
0010
0100
0001
0000
0010
0001
,
1000
0010
0110
0011
,
1000
0000
0010
0000
0100
0000
0001
0000
1000
0000
0010
0000
,
0100
0000
0001
1000
0010
0000
0110
0000
,
1001
0000
0000
0000
0100
0000
0010
0000
0100
0000
0000
0001
0010
0000
0000
0010
,
0100
0000
0000
0010
1000
0000
0000
0100
0020
0000
0000
0000
0130
0000
0000
0000
,
0110
0000
0010
0000
0001
0000
0000
0010
0100
0000
0000
0010
0001
0000
0000
0100
,
1000
0000
0000
0010
0100
0000
0000
1000
0020
0000
0000
0000
2030
0000
0000
0000
,
3100
0000
0010
0000
0001
0000
0000
1000
0010
0000
0000
0100
0010
0000
0000
0001
,
0010
0000
0000
0100
0010
0000
0000
1000
0002
0000
0000
0000
0013
0000
0000
0000
,
0100
0000
0010
0000
0100
0000
0000
0001
0010
0000
0000
1000
0010
0000
0000
0100
,
0020
0000
0000
0000
0100
0100
0130
1000
,
0110
1000
0100
0010
1001
0010
0100
0001
,
0010
1000
0010
0100
0000
0001
0010
0100
,
1001
0000
1100
0000
0110
0001
0010
0100
,
0010
1000
0100
0001
0000
0001
0010
0000
,
0100
0010
0100
0010
1000
0001
0010
0100
,
0010
1000
0100
0001
0000
1000
0100
0010
,
0011
0000
1100
0000
0110
1000
0100
0001
,
0100
0010
1000
0100
0001
0010
0100
0000
,
1000
0001
1000
0001
0110
0000
0010
0001
,
0010
0100
0010
1000
0010
0000
0100
0001
,
1000
0000
0000
0110
0000
0000
0001
0000
1000
0000
0010
0000
,
0100
0000
0001
0000
1000
0000
0010
0000
0000
0100
0000
0000
,
0010
0001
1000
0010
0100
0000
0001
0010
,
0100
0010
1000
0100
0001
0000
0100
0010
,
1000
0000
0000
0110
0000
0000
0100
0000
0001
0000
1000
0000
,
0010
0000
0000
0000
0100
0000
0000
0000
0001
0000
0000
0000
0010
0000
0000
0000
0000
0000
1000
0000
0000
0001
0000
0000
,
0110
1001
0000
0000
;

//---------------dance-single - ----------------
#NOTES:
     dance-single:
     :
     Challenge:
     10:
     0.743,0.854,0.551,0.166,0.612:
0000
0000
0000
0000
,
1010
0000
0000
0100
0001
0000
0010
0100
0000
0100
0010
0000
1000
0100
0010
0001
,
0010
0000
0100
0001
0100
0000
0010
1000
0100
0001
0100
0010
0000
0000
1000
0100
,
0011
0000
0110
0000
0010
0000
1000
0001
1010
0000
0110
0000
0010
0000
1000
0000
,
0001
0010
0100
0010
1000
0100
0001
0000
0110
0000
1001
0000
0020
0000
0130
0001
,
1010
0000
1100
0000
0010
0000
0100
0001
1000
0000
0010
0000
0200
0000
0000
0000
,
0301
0010
0001
0010
0100
0010
1000
0100
0001
0000
0010
0000
0110
0000
0000
0000
,
1000
0100
0000
0000
0010
0000
0001
0000
0010
0000
0100
0000
0010
0000
1000
0000
,
0001
0000
0010
0100
0001
0010
1000
0010
,
0100
0100
0010
0010
0001
1000
0001
1000
,
0200
0000
0301
0010
1000
0010
0100
0000
,
0001
0010
0000
0000
0010
0000
0100
0000
1000
0000
0010
0000
0100
0000
0001
0000
,
1000
0100
0000
0000
0010
0100
0000
0000
0010
0000
0010
0000
0100
0000
0001
0000
,
0010
0100
1000
0001
0001
0100
0010
1000
,
0210
0000
0310
0000
0001
1000
0001
0010
,
0110
0000
0010
0010
0001
0010
0100
0010
1000
0100
0001
0010
0000
0100
0010
0000
,
1001
0000
0010
0100
0010
0001
0010
0100
0010
1000
0100
0001
0000
0001
0010
0100
,
1001
0000
0010
0100
1000
0010
0001
0100
1000
0100
0010
0100
0010
0001
0010
0100
,
0110
0000
0000
0000
0001
0000
1000
0000
0001
0000
0000
0000
0010
0000
0100
0000
0010
0000
0000
0000
1000
0100
0000
0000
0010
0001
0000
0000
0100
0000
0000
0000
,
1001
0000
0010
0000
0100
0000
0001
0000
0100
0000
1000
0000
0010
0000
0100
0001
,
0000
0000
0010
0000
1000
0000
0100
0000
0001
0010
0000
0000
0010
0100
0000
0000
,
0110
0000
0001
0000
0010
0000
1000
0000
0010
0000
0100
0000
0001
0000
0010
0100
,
0000
1000
0100
0010
2000
3200
0320
0032
,
0103
0000
0010
0000
0001
0000
1000
0000
0010
0000
0100
0000
0001
0000
0010
0001
,
0000
0000
0010
0000
0100
0000
0010
0000
1000
0100
0000
0000
0001
0010
0000
0000
,
0100
0000
0010
0000
0010
0000
0100
0000
0010
0000
1000
0000
0100
0000
0001
0100
,
0000
0010
1000
0010
0200
0320
2030
3001
,
0110
0000
0000
1000
0100
0000
0000
0001
0010
0000
0000
0000
0100
0000
0010
0000
,
0001
0000
0001
0000
0010
0000
0100
0000
0010
1000
0000
0000
1000
0010
0000
0000
,
1100
0000
0110
0000
1001
0000
0110
0000
0011
0000
0110
0000
,
1001
0000
0110
0000
1000
0100
0010
0001
,
0110
0000
0000
0000
0001
0000
0010
0000
0100
0010
0000
0000
1000
0000
0010
0000
,
0100
0001
0000
0000
0010
0100
0000
0000
1000
0010
0000
0000
0100
1000
0000
0000
,
0011
0000
0110
0000
1100
0000
0110
0000
0011
0000
0110
0000
,
1100
0000
0000
0000
0010
0000
0100
0000
0001
1000
0000
0000
0110
0000
0000
0000
,
1001
0000
0000
0000
0100
0000
0010
0001
0010
0000
0010
0100
1000
0000
0100
0010
,
1000
0000
0100
0001
0010
0000
0100
0001
0020
0000
0030
0000
0110
0000
0000
0000
,
1000
0000
0010
0100
0010
0000
0001
0010
0001
0000
1000
0100
1000
0000
0010
0100
,
0010
0000
1000
0100
0010
0000
0001
0010
0200
0000
0300
0000
0010
0010
0100
0010
,
0001
0100
1000
0010
0100
0001
0010
1000
0100
0001
0010
0100
0000
0000
0000
0000
,
0010
0100
0001
0010
1000
0100
0010
0001
0100
1000
0010
0001
0110
0000
0000
0000
,
1000
0100
0010
0001
0010
0100
1000
0100
0010
0001
0010
0100
0010
0000
1000
0100
,
0010
0000
0001
0010
0100
0000
0010
1000
0001
0100
0010
1000
0100
0100
0100
0010
,
0110
1100
0110
0011
1001
0010
0100
0010
,
0001
0000
0010
0000
1000
0000
0100
0010
0000
0000
0010
0000
0010
0000
0100
0000
,
0001
0010
0000
0000
1000
0010
0000
0000
0110
0000
1000
0000
0100
0000
0001
0000
,
0010
0000
0100
0000
0001
0000
1000
0010
0000
0000
0100
0000
0010
0000
0010
0000
,
0200
0302
0023
1030
0110
1000
0100
0001
,
0100
0000
0010
0000
1000
0000
0010
0001
0000
0000
0100
0000
0010
0000
1000
0000
,
0100
1000
0000
0000
0010
0100
0000
0000
1001
0000
0010
0000
0001
0000
0100
0000
,
0010
0000
1000
0000
0001
0000
0010
0001
0000
0000
0010
0000
0100
0000
0010
0000
,
2000
3002
0203
1300
0110
0000
0001
0010
,
0100
0010
0000
0000
1000
0000
0100
0000
0010
0100
0000
0000
0001
0000
0010
0000
,
0100
0000
0000
1000
0000
0000
0000
0000
0000
0000
0000
0000
0010
0000
0000
0100
0000
0000
0000
0000
0000
0000
0000
0000
1010
0000
0000
0000
0000
0000
0000
0000
1100
0000
0000
0000
0000
0000
0000
0000
0110
0000
0000
0000
0000
0000
0000
0000
,
1001
0000
0011
0000
0110
0000
1001
0000
0000
0100
0000
0000
,
0001
0010
0100
1000
0100
0000
0010
0000
0110
0000
0000
0000
1000
0000
0100
0000
,
0001
0010
0000
0000
0010
0000
0100
0000
0010
1000
0000
0000
0100
0010
0000
0000
,
0001
0000
0000
0010
0000
0000
0000
0000
0000
0000
0000
0000
0100
0000
0000
0010
0000
0000
0000
0000
0000
0000
0000
0000
1001
0000
0000
0000
0000
0000
0000
0000
1100
0000
0000
0000
0000
0000
0000
0000
0110
0000
0000
0000
0000
0000
0000
0000
,
1001
0000
0000
0000
0011
0000
0000
0000
1010
0000
0000
0000
0110
0000
0000
0000
0000
0000
1000
0000
0000
0001
0000
0000
,
0100
0010
0000
0000
1001
0000
0000
0000
0000
0000
0000
0000
0000
0000
0000
0000
;

//---------------dance-single - ----------------
#NOTES:
     dance-single:
     :
     Medium:
     7:
     0.407,0.414,0.341,0.026,0.000:
0000
0000
0000
0000
,
0010
0000
0100
0000
0010
0000
0001
0001
,
0010
0000
0100
0000
0010
1000
0000
0000
,
0110
0000
1001
0000
0010
0100
1001
0000
,
0010
0100
1000
0100
0010
0010
0200
0000
,
0310
0000
0001
0000
1000
0010
0200
0000
,
0301
0000
0010
0000
0001
0010
0100
0000
,
1001
0000
0010
0000
,
0100
0000
0010
0000
0001
0000
0010
0100
,
1000
0000
0110
0000
,
1000
0000
0100
0000
0010
0100
0001
1000
,
0010
0000
0100
0100
,
0011
0000
0110
0000
0010
0000
1000
0100
,
0010
0000
0100
0010
,
0001
0010
0100
0100
,
0110
0000
0001
0000
0010
0100
1000
0001
,
0100
0000
0010
0000
1000
0100
0010
0100
,
0001
0000
0010
0000
0100
0001
0010
0010
,
1000
0100
0001
0100
0010
0100
0100
0100
,
1001
0000
0000
0000
0100
0000
0000
0010
,
0000
1000
0100
0010
0001
0000
0001
0000
,
1001
0000
0000
0000
0010
0000
0000
0100
,
0000
0001
0010
0000
0100
0010
0100
0010
,
0100
0000
0001
0000
0010
0000
1000
0010
,
0000
0100
0001
0100
0001
0000
0010
0000
,
0100
0000
0010
0000
1000
0000
0010
0100
,
0000
1000
0010
0000
0100
0001
0100
1000
,
0010
0000
0100
0000
0001
0000
1000
0010
,
1000
0000
0100
0001
0100
0000
0010
0000
,
1100
1100
1100
0011
,
1001
0000
0110
0000
,
0100
0000
0010
0001
0100
0000
1000
0010
,
0100
0001
0010
0100
,
0011
0011
0011
1100
,
1001
0000
0010
0010
,
0100
0000
0001
0010
0001
0100
0010
1000
,
0010
0000
0100
0001
0100
0000
1001
0000
,
0010
0000
1000
0100
0010
0100
0010
0001
,
1000
0000
0100
0010
0100
0000
1001
0000
,
0010
0000
0100
0001
0010
1000
0010
0100
,
0010
0010
1000
0100
0001
0100
0110
0000
,
0010
0000
0001
0001
0010
0010
0100
1000
,
0020
0000
0000
0130
,
0110
0000
0110
1000
,
0100
0000
0001
0010
0000
0100
0010
0100
,
0001
1000
0010
0100
,
0001
0000
1000
0100
0000
0100
0010
0000
,
1000
0001
1000
0001
0110
0000
0001
0000
,
0010
0000
0001
0010
0000
0100
0010
0001
,
0100
0100
0010
1000
,
0010
0000
0100
0001
0000
1000
0010
0000
,
0100
0001
0100
0001
0010
0000
1000
0100
,
0010
0000
0100
0010
0001
0000
0100
0010
,
0100
0010
0110
0110
,
0110
0011
1001
0000
,
0110
0000
0100
0000
0010
0000
1000
0100
,
0001
0000
0010
0100
1000
0000
0010
0000
,
0100
0001
1001
1001
,
1001
1100
0110
0010
,
0001
1001
0000
0000
;

//---------------dance-single - ----------------
#NOTES:
     dance-single:
     :
     Easy:
     5:
     0.297,0.362,0.297,0.035,0.000: // measure 1
0000
0000
0000
0000
,  // measure 2
0010
0010
0100
0100
,  // measure 3
0001
1000
0010
0100
,  // measure 4
0010
0110
0010
0110
,  // measure 5
1000
0100
0010
0200
,  // measure 6
0310
0001
1000
0020
,  // measure 7
0130
0001
0100
0000
,  // measure 8
1001
0000
0010
0000
,  // measure 9
0100
0000
0001
0000
,  // measure 10
1000
0000
0010
0010
,  // measure 11
0200
0300
0000
0000
,  // measure 12
0010
0000
1000
0000
,  // measure 13
0010
0100
0000
0001
,  // measure 14
0010
0000
0100
1000
,  // measure 15
0001
0000
0010
0010
,  // measure 16
0100
0001
0010
0010
,  // measure 17
0100
0001
1000
1000
,  // measure 18
0100
0001
0100
0100
,  // measure 19
0010
0010
0010
0100
,  // measure 20
1001
0000
0010
0000
,  // measure 21
0100
0001
1000
0010
,  // measure 22
1000
0000
0010
0000
,  // measure 23
0100
0001
0001
0001
,  // measure 24
0110
0000
0001
0000
,  // measure 25
0010
0100
0001
0010
,  // measure 26
1000
0000
0010
0000
,  // measure 27
0001
0100
0100
0100
,  // measure 28
1001
0000
0010
0001
,  // measure 29
0010
0100
0010
0010
,  // measure 30
1001
1001
1001
1001
,  // measure 31
1001
0000
0110
0000
,  // measure 32
1000
0100
0001
0010
,  // measure 33
1000
0010
1000
1000
,  // measure 34
0110
0110
0110
0110
,  // measure 35
0110
0000
0010
0010
,  // measure 36
0100
0001
0010
1000
,  // measure 37
0010
0100
0001
0110
,  // measure 38
0100
0010
1000
0100
,  // measure 39
0001
0100
0010
0010
,  // measure 40
0100
0001
1000
0010
,  // measure 41
0100
0001
1000
0110
,  // measure 42
0001
0010
0100
1000
,  // measure 43
0200
0000
0000
0310
,  // measure 44
1001
0000
0110
0000
,  // measure 45
0010
0001
0010
1000
,  // measure 46
0010
0010
0100
0001
,  // measure 47
0010
1000
0010
1000
,  // measure 48
1000
1000
0110
0000
,  // measure 49
1000
0100
0010
0100
,  // measure 50
0001
0001
1000
0010
,  // measure 51
0100
0010
1000
0010
,  // measure 52
0010
0010
0100
0001
,  // measure 53
0100
0001
1000
0010
,  // measure 54
0001
0001
0110
0110
,  // measure 55
0110
0110
0110
0000
,  // measure 56
1001
0000
0010
0100
,  // measure 57
0001
0100
0010
1000
,  // measure 58
0100
0100
1001
1001
,  // measure 59
1001
1001
1001
0000
,  // measure 60
0010
1001
0000
0000
;
