#TITLE:Adios;
#SUBTITLE:;
#ARTIST:EVERGLOW;
#TITLETRANSLIT:;
#SUBTITLETRANSLIT:;
#ARTISTTRANSLIT:;
#CREDIT:;
#BANNER:Adios banner.png;
#BACKGROUND:Adios bg.png;
#LYRICSPATH:;
#CDTITLE:;
#MUSIC:Adios.mp3;
#OFFSET:-0.260;
#SAMPLESTART:61.140;
#SAMPLELENGTH:15.000;
#SELECTABLE:YES;
#BPMS:0.000=128.400,32.000=128.000;
#STOPS:;
#BGCHANGES:0.000=Adios.avi=1.000=0=0=0,
99999=-nosongbg-=1.000=0=0=0 // don't automatically add -songbackground-
;

//---------------dance-single - ----------------
#NOTES:
     dance-single:
     :
     Hard:
     8:
     0.535,0.555,0.283,0.085,0.726:
0000
0000
0000
0000
,
0000
0000
0000
0000
,
0000
0000
0000
0000
,
0000
0000
0000
0000
,
0000
0000
0000
0000
0000
0000
1000
0000
0001
0010
0000
0100
,
0010
0000
0000
1001
0000
1001
0000
0000
0010
0100
0000
0000
,
0001
0010
0100
1000
0100
0010
0001
0000
0010
0100
0000
1000
,
0000
0000
0010
0011
0000
1100
0000
0000
0000
0010
0000
0000
,
0100
0000
0000
0001
0000
1000
0020
0000
0000
0130
0000
0100
,
0000
0000
0001
0110
0000
0110
0000
0000
0000
1000
0000
0000
,
0001
0000
1000
0010
0000
1000
0100
0000
0100
0010
0000
0001
,
0010
0000
0000
1000
0000
0001
0010
0000
0100
1000
0000
0010
,
0100
0000
0000
0000
0000
0000
2000
0000
0000
3000
0000
0000
1001
0000
0000
0000
0000
0000
0001
0000
0010
0000
0100
0000
,
1000
0000
0000
1000
0100
0010
0001
0000
0000
0010
0100
0010
,
0200
0000
0000
0000
0000
0000
0302
0000
0000
0003
0000
0000
1001
0000
0000
0000
0000
0000
0100
0000
0010
0000
1000
0000
,
0001
0000
0000
0010
0100
0001
1000
0000
0000
0001
0010
0100
,
1000
0000
0000
1000
0000
1000
0100
0000
0010
0001
0000
0001
,
0010
0000
0100
0010
0000
1000
0100
0010
0001
0010
0000
0100
,
0020
0000
0000
0100
0000
0000
0130
0000
0001
0010
0000
0010
,
0100
0000
0100
1000
0000
0100
0010
0100
1000
0010
0001
0100
,
0010
0000
1000
0000
0001
0010
0100
0000
,
2000
0000
0000
0000
3100
0000
0010
0000
0001
0000
0000
0010
0000
0000
0100
0000
,
0000
1000
0000
0000
1001
0000
0000
0000
0100
0000
0010
0000
0001
0000
0000
0000
,
2000
0000
0000
0000
3010
0000
0100
0000
0001
0000
0000
1000
0000
0000
0001
0000
,
0000
0100
0000
0000
0010
0000
0000
0010
0011
0000
0000
0000
0110
0000
0000
0000
,
1100
0000
0000
0100
0010
0000
0001
0000
0010
0000
0000
1000
0000
0000
0010
0000
,
0000
0100
0000
0000
0010
0000
0000
0000
1000
0000
1000
0000
0100
0000
0100
0000
,
0010
0000
0010
0000
0001
0000
0100
0000
0010
0001
1000
0100
0001
0010
0100
1000
,
0200
0000
0000
0300
0000
0001
0010
0000
0100
1000
0000
0010
,
0100
0000
0000
0000
0000
0001
0010
0000
1000
0100
0000
0001
,
1000
0000
0000
0000
0000
1000
0100
0000
0100
0010
0000
0010
,
0001
2000
0000
0000
,
3000
0000
0000
1001
0000
0000
0110
0000
0001
1000
0000
1000
,
0010
0000
0100
0001
0000
0010
0100
1000
0100
0001
0100
1000
,
0010
0000
0000
1001
0000
0000
1100
0000
0010
0100
0000
0010
,
0001
0000
0010
0100
0000
0010
1000
0000
1000
0010
0000
0100
,
0001
0000
0000
1001
0000
0000
0011
0000
1000
0100
0000
0010
,
0100
0000
1000
0001
0000
0100
0010
1000
0100
0001
0010
0100
,
1000
0000
0000
0100
0010
0001
0110
0000
1000
0100
0000
0010
,
0100
0000
0001
0010
0000
1000
0100
0010
0001
0010
0100
1000
,
0100
0010
0001
0010
0000
0000
1001
0000
0000
0001
0000
0010
,
0100
0000
0000
0110
0000
0000
1000
0000
1000
0100
0000
0100
,
0010
0000
0000
0011
0000
0000
0010
0000
0000
0100
0000
0001
,
1000
0000
0000
0010
0000
1000
0001
0000
0001
1000
0000
1000
,
0001
0000
0000
1001
0000
0000
0010
0000
0100
0010
0000
0100
,
0001
0000
0000
1100
0000
0000
1000
0000
0001
0010
0000
0010
,
0100
0000
0000
1001
0000
0000
0100
0000
1000
0100
0000
0010
,
0100
0000
0000
0010
0000
1000
0100
0000
0001
0100
0000
0010
,
0100
1000
0100
0110
0000
0000
1001
0000
0001
0010
0000
0010
,
0100
0000
0100
1000
0000
1000
0100
0010
0001
1000
0100
0010
,
0001
0000
0000
1001
0000
0000
1000
0000
0100
0010
0000
0010
,
0100
0000
1000
0100
0000
0001
0100
1000
0010
0100
0001
1000
,
0010
0000
0000
1001
0000
0000
0100
0000
0010
0100
0000
0001
,
1000
0000
0010
1000
0000
1000
0010
0100
1000
0100
0010
0100
,
1000
0000
0000
1010
0000
0000
0001
0000
1000
0010
0000
0100
,
0001
0000
0100
0010
0000
0001
0010
0000
0010
0100
0000
0100
,
1000
0000
0000
0000
;

//---------------dance-single - ----------------
#NOTES:
     dance-single:
     :
     Medium:
     6:
     0.364,0.370,0.264,0.113,0.137:
0000
0000
0000
0000
,
0000
0000
0000
0000
,
0000
0000
0000
0000
,
0000
0000
0000
0000
,
0000
0000
1000
0100
,
0010
0000
0000
0001
0000
0001
0000
0000
0000
0110
0000
0000
,
0010
1020
0130
0001
,
0100
0000
0000
0010
0000
0010
0000
0000
0000
0101
0000
0000
,
0010
0000
0000
0100
0000
0001
0010
0000
0000
1000
0000
0000
,
0010
0000
0000
1000
0000
1000
0000
0000
0000
0110
0000
0000
,
1000
0002
0013
0100
,
0010
0000
0000
1000
0000
0001
0010
0000
0000
0100
0000
0000
,
0110
0000
0000
2000
0000
0000
3100
0000
0000
0001
0000
0001
,
0010
0000
0000
0010
0000
0010
0100
0000
0000
0100
0000
0100
,
1000
0000
0000
1001
0000
0000
0110
0000
0000
1000
0000
0001
,
1000
0000
0000
1000
0000
0001
1000
0000
0000
0010
0000
0100
,
0001
0110
1000
0100
,
0010
0000
0000
0001
0000
0000
0010
0000
0000
0100
0000
0001
,
1000
1001
0010
0100
,
0010
0000
0000
0100
0000
0000
0001
0000
0000
1000
0000
0010
,
0100
0000
0101
0020
,
0230
0000
1300
0000
0010
0000
0100
0001
,
0000
0001
0100
0000
0110
0000
1000
0000
,
0010
0000
0100
0000
0001
0000
1000
0010
,
0000
0010
1000
0000
0110
0000
0011
0000
,
0110
0000
0100
0000
1000
0000
0010
0100
,
0000
0100
0010
0000
0001
0000
1000
0000
,
0001
0000
1000
0000
0010
0100
1000
0000
,
0020
0000
0000
0030
0100
0000
0100
0000
,
0200
0000
0000
0300
0001
0000
0001
0000
,
0002
0000
0000
0003
0010
0000
0010
0000
,
0010
0200
0000
0000
,
0000
0300
1001
0000
0100
0000
0001
0000
,
0010
0000
0000
1000
0000
0000
0010
0000
0000
1000
0000
0010
,
0100
0110
1000
0100
,
0010
0000
0000
0001
0000
1000
0100
0000
0100
0010
0000
0010
,
0001
1001
0010
0100
,
1000
0010
0100
0001
,
0100
0000
0000
0001
1000
0001
1000
0000
0000
0100
0000
0000
,
0010
1000
0020
0230
,
0320
0000
0030
0110
0000
0000
1001
0000
0000
0100
0000
0010
,
0001
0000
0000
0010
0000
0000
0100
0000
0000
0010
0000
1000
,
0001
0000
0000
1001
0000
0000
0010
0000
0000
0100
0000
1000
,
0010
0000
0000
0100
0000
0000
0001
0000
0001
0010
0000
0010
,
0100
0000
0000
1001
0000
0000
0100
0000
0000
0010
0000
1000
,
0010
0000
0000
0100
0000
0000
0001
0000
0000
0010
0000
1000
,
0001
0000
0000
1001
0000
0000
0010
0000
0000
0100
0000
1000
,
0010
0000
0000
0100
0000
0000
1000
0000
0100
0010
0000
0010
,
0001
1001
0010
0100
,
1000
0010
1000
0001
,
1001
0110
1000
0100
,
0010
0100
0001
0100
,
0010
1001
0010
0100
,
0001
0010
1000
0010
,
0100
1100
0010
0100
,
0010
0001
0010
0010
,
0110
0000
0000
0000
;

//---------------dance-single - ----------------
#NOTES:
     dance-single:
     :
     Easy:
     3:
     0.273,0.290,0.113,0.047,0.000: // measure 1
0000
0000
0000
0000
,  // measure 2
0000
0000
0000
0000
,  // measure 3
0000
0000
0000
0000
,  // measure 4
0000
0000
0000
0000
,  // measure 5
0000
0000
1000
0000
,  // measure 6
0010
0100
0001
0000
,  // measure 7
0010
0100
0020
0030
,  // measure 8
0100
0100
0002
0003
,  // measure 9
1000
1000
0010
0100
,  // measure 10
0001
1000
0010
0000
,  // measure 11
0100
0010
0100
0100
,  // measure 12
0001
0010
1000
1000
,  // measure 13
0010
0100
1001
0010
,  // measure 14
0010
0100
0100
0001
,  // measure 15
1000
1000
0110
0001
,  // measure 16
0001
1000
1000
0010
,  // measure 17
0100
0100
0010
1000
,  // measure 18
0100
0001
0100
0010
,  // measure 19
0200
0300
0001
0001
,  // measure 20
0010
0010
0100
0001
,  // measure 21
0100
0000
0010
0100
,  // measure 22
0100
0000
0001
1000
,  // measure 23
0010
0100
1000
0010
,  // measure 24
0100
0000
0010
0100
,  // measure 25
0001
0010
0100
0100
,  // measure 26
0100
0001
0010
0010
,  // measure 27
0010
1000
0010
0100
,  // measure 28
0001
1000
0010
0100
,  // measure 29
0002
0000
1003
0000
,  // measure 30
0000
0000
0100
0000
,  // measure 31
0000
0000
0010
0000
,  // measure 32
0000
0002
0000
0000
,  // measure 33
0003
0010
0110
1000
,  // measure 34
0100
0010
0100
0100
,  // measure 35
0100
0001
1001
0010
,  // measure 36
0100
0001
1000
1000
,  // measure 37
1000
0010
0110
0100
,  // measure 38
0001
0010
0001
1000
,  // measure 39
0010
0100
0100
0010
,  // measure 40
0100
1000
0001
0001
,  // measure 41
0001
0001
1001
0010
,  // measure 42
0100
0010
1000
0100
,  // measure 43
0100
0100
0001
0010
,  // measure 44
0100
0010
1000
0001
,  // measure 45
1000
1001
0010
0100
,  // measure 46
0001
0100
0010
1000
,  // measure 47
1000
1000
0010
0100
,  // measure 48
0010
0001
0010
0010
,  // measure 49
0010
0110
1000
0100
,  // measure 50
0010
0001
0100
0100
,  // measure 51
0100
0110
0001
0010
,  // measure 52
0100
1000
0010
0100
,  // measure 53
0010
1001
0100
0010
,  // measure 54
1000
0100
0001
0100
,  // measure 55
0010
0110
0001
0001
,  // measure 56
0001
0010
0100
0010
,  // measure 57
0110
0000
0000
0000
;
