#TITLE:34+35;
#SUBTITLE:;
#ARTIST:Ariana Grande;
#TITLETRANSLIT:;
#SUBTITLETRANSLIT:;
#ARTISTTRANSLIT:;
#CREDIT:;
#BANNER:34 35 banner.png;
#BACKGROUND:34 35 bg.png;
#LYRICSPATH:;
#CDTITLE:;
#MUSIC:34+35.mp3;
#OFFSET:-1.080;
#SAMPLESTART:88.340;
#SAMPLELENGTH:15.000;
#SELECTABLE:YES;
#BPMS:0.000=110.000;
#STOPS:156.000=1.640
;
#BGCHANGES:;

//---------------dance-single - ----------------
#NOTES:
     dance-single:
     :
     Hard:
     9:
     0.599,0.597,0.407,0.149,0.622:
1001
0000
0100
0010
0001
0010
0100
0000
0020
0000
0000
0030
,
1000
0000
0001
0010
0100
1000
0001
0000
2000
0000
0000
3000
,
0010
0100
0001
0010
0100
0010
1000
0000
0200
0000
0000
0300
,
0010
0000
0100
0001
1000
0010
1001
0000
2002
0000
0000
3003
,
0010
0000
0000
0100
0010
1000
0100
0001
0100
0010
0000
0000
,
1000
0000
0000
0010
0001
0010
0100
0100
1000
0100
0000
0000
,
0011
0000
0000
0000
1000
0100
0000
0000
0100
0010
0000
0000
0010
0001
0000
0000
,
1100
0000
0000
0000
0011
0000
0000
0100
0020
0030
0000
0010
0100
0000
0000
0000
,
1001
0000
0000
0000
1000
0100
0010
0100
0010
0000
0001
0000
1000
0000
0010
0000
,
0110
0000
0000
0001
0010
0100
0010
1000
0100
0000
0010
0000
0100
0000
1100
0000
,
0110
0000
0000
0100
0010
0001
0010
0100
0010
0000
1000
0000
0001
0000
0000
0100
,
0010
1000
0100
0001
0100
0000
0010
0000
1000
0000
0000
0000
2002
0000
0000
3003
,
0010
0000
0000
0000
0100
0001
0010
0100
1000
0000
0020
0000
0000
0000
0130
0000
,
1000
0000
0000
0100
1000
0100
0010
0100
0001
0000
0020
0000
0000
0000
0130
0000
,
0110
0000
0000
1000
0001
0010
0001
1000
0110
0000
1001
0000
0010
0000
0100
0000
,
0100
0000
0000
0000
0010
0100
0010
0001
0010
1000
0200
0000
0000
0000
0310
0000
,
0110
0000
0000
1000
0000
0000
0001
0000
0000
0000
0000
0000
1000
0000
0100
0000
0010
0000
0001
0000
0000
0010
0000
0000
,
0110
0000
0000
1000
0000
0000
0001
0000
0000
0000
0000
0000
1001
0000
0010
0000
0100
0000
0001
0000
0000
0010
0000
0000
,
0110
0000
0000
1000
0000
0000
0001
0000
0000
0000
0000
0000
0001
0000
0010
0000
0100
0000
1000
0000
0000
0100
0000
0000
,
0002
0023
0230
2300
,
3110
0000
0000
0010
0000
0000
0011
0000
0000
0010
0000
0000
0100
0000
1000
0000
0010
0000
0100
0000
0000
0010
0000
0000
,
1001
0000
0000
0100
0000
0000
0100
0000
0000
0010
0000
0000
0001
0000
0010
0000
1000
0000
0001
0000
0000
0010
0000
0000
,
0110
0000
0000
0010
0000
0000
1000
0000
0000
0010
0000
0000
0100
0000
0010
0000
1000
0000
0001
0000
0000
0100
0000
0000
,
0110
1001
0110
1001
,
0010
0000
0000
0000
1000
0010
0100
0001
0010
0100
1000
0000
0010
0000
1000
0001
,
1001
0000
0110
0000
1000
0010
0100
0001
0010
0100
0010
1000
0010
0000
0100
0010
,
0100
0000
0001
0000
0010
0100
0010
0001
0010
0100
1000
0100
0010
0010
0100
0001
,
1000
0000
0100
0000
0010
0100
0000
0100
0010
0000
0001
0000
1001
0000
0000
0000
,
0110
0000
0001
0010
0001
0000
0010
0000
0100
1000
0011
0000
0101
0000
0000
0000
,
0110
0000
0100
0000
1010
0000
0100
0001
1000
0010
0100
0000
1001
0000
0000
0000
,
1000
0100
0010
0000
0100
0001
0010
1000
0001
0100
0010
0000
0010
0000
0000
0000
,
0100
0000
0000
0100
0000
0000
0001
0000
0000
0010
0000
0000
1000
0000
0100
0000
0010
0000
0100
0000
0000
0000
0000
0000
,
0010
0000
0000
0100
0000
0000
0001
0000
0000
1000
0000
0000
0010
0000
0000
0000
0000
0000
0000
0000
0000
0000
0000
0000
0001
0000
0000
0000
0010
0000
0000
0000
0100
0000
0000
0000
0001
0000
0000
0000
0000
0000
0000
0000
0000
0000
0000
0000
,
1000
0000
0000
0010
0000
0000
0100
0000
0000
0001
0000
0000
1000
0000
0000
0000
0000
0000
0000
0000
0000
0000
0000
0000
0010
0000
0000
0000
1000
0000
0000
0000
0001
0000
0000
0000
0100
0000
0000
0000
0000
0000
0010
0000
0000
0000
0000
0000
,
0100
0000
0000
0001
0000
0000
1000
0000
0000
0010
0000
0000
0100
0000
0000
0000
0000
0000
0000
0000
0000
0000
0000
0000
0010
0000
0000
0000
0000
0000
0100
0000
0000
0000
0000
0000
0000
0000
0000
0000
0001
0000
0000
0000
0010
0000
0000
0000
,
0100
1000
0100
0010
0001
0010
0100
0010
1000
0110
0000
0000
,
0100
0000
0010
0000
1000
0000
0100
0000
0001
0000
0100
0000
0010
0000
2000
0000
0000
0000
0000
0000
3000
0100
0000
0000
,
0100
0000
0010
0000
0001
0000
0010
0000
0100
0000
0010
0000
1000
0000
0002
0000
0000
0000
0000
0000
0003
0010
0000
0000
,
0010
0000
1000
0001
1000
0000
0010
0000
0110
0000
0000
0000
1001
0000
0000
0000
,
1001
0000
0000
0000
0000
0000
1000
0000
0000
0100
0000
0000
0010
0000
0000
0001
0000
0000
1000
0000
0010
0000
0100
0000
,
0001
0000
0000
0000
0000
0000
0010
0000
0000
0000
0000
0000
0110
0000
0000
0000
0000
0000
1000
0000
0000
0000
0000
0000
0001
0000
0000
0010
0000
0000
0001
0000
0000
0000
0000
0000
0010
0000
0000
0000
0100
0000
0000
0000
0001
0000
0000
0000
,
1000
0000
0000
0000
0000
0000
0010
0000
0000
0000
0000
0000
1010
0000
0000
0000
0000
0000
0001
0000
0000
0100
0000
0000
0001
0000
0000
0000
0000
0000
0010
0000
0000
0000
0000
0000
1000
0000
0000
0000
0100
0000
0000
0000
0010
0000
0000
0000
,
0001
0000
0010
0000
1000
0100
0000
0000
0001
0010
0000
0000
1000
0100
0000
0000
,
0001
0000
0000
0010
0000
0000
0000
0000
0000
0000
0000
0000
0110
0000
0000
0000
0000
0000
0100
0000
0000
0000
0000
0000
0110
0000
0000
0000
0000
0000
1000
0000
0000
0000
0000
0000
0001
0000
0000
0000
1000
0000
0000
0000
0001
0000
0000
0000
,
1000
0000
0000
0000
0000
0000
0010
0000
0000
0000
0000
0000
1001
0000
0000
0000
0000
0000
0010
0000
0000
0000
0000
0000
0001
0000
0000
1000
0000
0000
0001
0000
0000
0000
0000
0000
0100
0000
0000
0000
0010
0000
0000
0000
0100
0000
0000
0000
,
0010
0000
0000
0000
0000
0000
1000
0000
0000
0000
0000
0000
1001
0000
0000
0000
0000
0000
0100
0000
0000
0000
0000
0000
0010
0000
0000
0000
0000
0000
1000
0000
0000
0001
0000
0000
1000
0000
0000
0000
0010
0000
0000
0000
0100
0000
0000
0000
,
0001
0000
0010
0000
0100
0010
0000
0000
0001
1000
0000
0000
0010
0100
0000
0000
,
1000
0001
0000
0000
0110
0000
0000
0000
0001
0000
0000
0000
1000
0100
0010
0100
,
0010
0000
0001
0010
0000
0010
0100
0000
0000
0000
0000
0000
1000
0000
0200
0000
,
0000
0000
0000
0000
0000
0000
0000
0300
0011
0000
0000
0000
0000
0000
0000
0000
,
0110
0001
0000
0010
,
0000
0100
0010
0000
1000
0000
0001
0000
,
0000
0000
0000
0000
0100
0010
0001
0010
0000
0000
0000
0000
0000
0000
0000
0000
,
1000
1001
0000
0000
;

//---------------dance-single - ----------------
#NOTES:
     dance-single:
     :
     Medium:
     6:
     0.377,0.354,0.108,0.266,0.000:
1000
0000
0010
0100
0100
0000
0001
0000
,
2000
3200
0320
0032
,
0013
0000
0100
0001
0001
0000
0010
0000
,
0001
0000
1000
0001
1000
0000
1001
0000
,
0010
0000
0100
0010
0100
0000
0011
0000
,
0200
0320
2030
3002
,
0103
0000
0010
0000
1000
0000
0100
0010
,
0001
0000
0001
0010
0100
0000
0110
0000
,
1001
0000
0100
1000
0100
0000
0010
0000
,
0100
0000
0001
1000
0010
0000
0010
0000
,
0100
0000
0001
0000
1000
0010
0100
0000
,
0001
1000
0001
1000
0001
0000
0110
0000
,
0010
0000
0001
0000
0100
0020
0000
0000
,
0130
0000
1000
0000
0100
0002
0000
0010
,
0013
0000
0100
0000
0010
2000
0010
3000
,
0001
0000
0100
0000
0010
0000
1000
1000
,
0110
0000
0001
0000
0010
0100
1000
0010
,
0001
0000
0100
0000
0010
0010
0100
0001
,
1000
0000
0010
0000
0100
1000
0001
0100
,
0020
0032
0203
2300
,
3010
0010
0100
0000
0001
0010
1000
0010
,
0001
0100
1000
0000
0010
1000
0100
0001
,
0100
1000
1000
0000
0010
0100
0010
0001
,
0200
2300
3020
0230
,
0310
0000
1000
0000
0001
0010
0100
0010
,
0001
0000
0100
0000
0010
0000
1000
0010
,
0100
0000
1000
0000
0010
0000
0100
0001
,
1000
0000
0010
0100
0001
0000
1001
0000
,
0010
0000
0100
0001
1000
0010
0010
0000
,
0100
0100
0001
0010
1000
0010
0100
0000
,
1000
0100
0010
0001
0010
0100
1000
0000
,
0110
0000
0110
0000
0001
0010
0100
0000
,
0020
0000
0000
0030
1000
1000
1000
0000
,
0200
0000
0000
0300
0001
0001
0001
0000
,
0010
0100
0001
1000
,
0100
0100
0010
0010
1000
0001
1000
0000
,
0010
0000
0001
0000
0100
0010
2000
3000
,
0100
0000
0010
0000
1000
0100
0020
0030
,
0100
0100
0001
0001
1000
0000
0001
0000
,
0110
0000
1001
0000
0100
0000
0010
1000
,
0001
0100
0010
0000
1000
0000
0001
0010
,
0010
0100
0010
1000
1000
0000
0010
0100
,
0010
0001
2000
0000
3200
0000
0320
0000
,
0032
0000
0103
0100
0010
0000
1000
0100
,
0001
0100
1000
0000
0010
0000
0100
0001
,
1000
0010
0100
0000
0010
0000
0001
0100
,
0100
0010
2000
0000
3002
0000
0023
0000
,
0230
0000
0310
0000
1000
0000
0010
0010
,
0100
0001
1000
0010
0000
0000
0000
0020
,
0000
0000
0130
0000
,
1001
0010
0000
0100
,
0000
0001
0010
0100
,
0000
0010
0100
1000
,
0000
0110
0000
0000
;

//---------------dance-single - ----------------
#NOTES:
     dance-single:
     :
     Easy:
     3:
     0.244,0.265,0.124,0.025,0.000: // measure 1
1000
0100
0010
0010
,  // measure 2
0001
1000
0001
0100
,  // measure 3
0010
0000
1000
0000
,  // measure 4
0001
0001
0010
0010
,  // measure 5
0100
0001
1000
1000
,  // measure 6
0010
0001
0010
0010
,  // measure 7
0100
0001
1000
0010
,  // measure 8
0100
0001
1000
1000
,  // measure 9
0010
0100
0010
0010
,  // measure 10
1000
0000
0010
0010
,  // measure 11
1001
0010
0001
0100
,  // measure 12
0010
1000
0100
1001
,  // measure 13
0100
0010
1000
1000
,  // measure 14
0001
0100
0001
0001
,  // measure 15
0010
0100
0010
0010
,  // measure 16
1000
0001
0010
0000
,  // measure 17
1001
0000
0010
0100
,  // measure 18
0001
0000
0010
0010
,  // measure 19
0100
0000
1000
0010
,  // measure 20
0100
0001
0010
0010
,  // measure 21
1001
0010
0100
0100
,  // measure 22
1000
0010
0001
0001
,  // measure 23
0100
0010
1000
1000
,  // measure 24
0010
0010
0010
0010
,  // measure 25
1001
0010
0100
0001
,  // measure 26
0110
1000
0100
0001
,  // measure 27
1001
0010
0001
0100
,  // measure 28
0010
0010
0100
0100
,  // measure 29
0001
0010
0100
1000
,  // measure 30
0100
1000
0010
0100
,  // measure 31
0001
1000
0001
0010
,  // measure 32
0100
0100
0001
0001
,  // measure 33
2001
0000
3010
0010
,  // measure 34
1002
0000
0013
0010
,  // measure 35
0210
0000
0300
0000
,  // measure 36
1000
0100
0001
0100
,  // measure 37
0010
0010
0100
0100
,  // measure 38
0001
0001
1000
1000
,  // measure 39
0001
0010
0100
1000
,  // measure 40
0110
1001
0000
0010
,  // measure 41
0100
0001
0001
1000
,  // measure 42
0010
1000
0000
0100
,  // measure 43
0100
0010
0010
1000
,  // measure 44
0001
1001
0010
0100
,  // measure 45
0100
1000
0010
1000
,  // measure 46
1000
0010
0001
0100
,  // measure 47
0100
0001
0010
0100
,  // measure 48
1000
1001
0000
0010
,  // measure 49
0010
0100
0000
0001
,  // measure 50
0000
1000
0100
0000
,  // measure 51
0010
1000
0000
0001
,  // measure 52
0000
0100
0000
0000
,  // measure 53
0000
0010
0000
0000
,  // measure 54
0000
0110
0000
0000
;
