#TITLE:17才;
#SUBTITLE:;
#ARTIST:Chisato Moritaka;
#TITLETRANSLIT:17 SAI;
#SUBTITLETRANSLIT:;
#ARTISTTRANSLIT:;
#CREDIT:;
#BANNER:17 SAI banner.png;
#BACKGROUND:17 SAI bg.png;
#LYRICSPATH:;
#CDTITLE:;
#MUSIC:17 SAI.mp3;
#OFFSET:-7.740;
#SAMPLESTART:6.420;
#SAMPLELENGTH:15.000;
#SELECTABLE:YES;
#BPMS:0.000=129.900;
#STOPS:;
#BGCHANGES:;

//---------------dance-single - ----------------
#NOTES:
     dance-single:
     :
     Hard:
     7:
     0.467,0.429,0.184,0.104,0.000:
1000
0010
0100
0001
1000
0010
0100
0001
,
0010
0000
0100
0001
0010
1000
0010
0100
,
0000
0100
0001
0100
0010
1000
0000
0100
,
0000
0100
0001
0000
0001
0010
1000
0010
,
0100
0010
1000
0001
0100
0010
1000
0001
,
0010
0000
0100
0010
0001
1000
0010
0100
,
0010
0000
0010
0100
0100
1000
0001
0010
,
0100
0000
0002
0000
0013
0100
0000
0100
,
0010
1000
0001
0100
0010
1000
0001
0100
,
0010
0000
1000
0100
0001
0100
1000
0010
,
0000
0010
0001
0100
0010
1000
0100
0001
,
0000
0001
0010
0000
0100
0010
0000
1000
,
0001
0010
0100
1000
0001
0010
0100
1000
,
0010
0010
0100
0100
0001
1000
0001
1000
,
0010
0100
0110
0110
0000
0001
1000
0000
,
0001
1000
1001
1001
0000
0100
0010
0000
,
0010
0100
0011
1100
0000
0010
0100
0000
,
0002
0000
0000
0003
,
0110
0000
2000
0000
3100
0010
0000
0010
,
0000
0100
0001
0010
1000
0010
0100
0001
,
1000
0000
1000
0100
0010
0001
0000
0001
,
0200
0000
0000
1300
0001
1000
0001
1000
,
0000
0010
0000
0010
0100
0001
0010
1000
,
0010
0100
0002
0000
0013
1000
0000
1000
,
0000
0010
0000
0001
1000
0001
0010
1000
,
0010
0000
0100
0010
0200
0000
0301
0001
,
0010
0000
1000
0010
0110
0000
1001
0000
,
0001
0010
1000
0100
0010
0001
1000
0100
,
0010
0200
0000
0301
0010
1000
0010
0100
,
1000
0100
0010
0001
0010
0100
0001
1000
,
0010
2000
0000
3100
0100
0000
0010
0100
,
0010
0000
0001
1000
0001
0000
0100
1000
,
0100
0000
0001
0010
0001
0000
0100
1000
,
0020
0000
0000
0130
,
1000
0100
0010
0001
0010
0100
1000
0100
,
0010
0100
0010
0001
1000
0000
0010
0000
,
0100
0001
0100
0001
0000
0010
0100
0010
,
1001
0000
0010
0100
0000
0100
0010
0001
,
0010
0100
2000
0000
3010
0100
0000
0100
,
0000
0010
0100
0010
0000
0001
1000
0010
,
0100
0002
0000
0000
0013
0100
0010
0100
,
0010
0000
1001
0000
0100
0010
0000
0010
,
0100
0001
0010
1000
0100
0010
1000
0100
,
0001
0010
0100
0010
0001
0100
0010
1000
,
0000
0001
0100
0010
1000
0010
0000
0100
,
0000
0001
1000
0000
1000
0001
0000
0100
,
0010
1000
0100
0001
0010
0001
0100
0010
,
1000
0100
0010
0100
1000
0010
0100
0001
,
0001
0000
0010
0100
0010
0001
0010
0100
,
1000
0000
0110
0000
1000
0010
0000
0010
,
0100
0001
0010
0001
1000
0100
1000
0010
,
0100
0010
1000
0001
1000
0010
0100
0001
,
0000
0010
0100
0010
1000
0100
0000
0001
,
0000
0010
0100
0000
0010
0001
0000
0010
,
1000
0010
0100
0001
0100
0000
0010
0000
,
1100
0110
0011
1001
,
0010
0100
0110
0110
0000
1000
0001
0000
,
1000
0001
1001
1001
0000
0010
0100
0000
,
0001
0010
1100
0011
0000
0100
0010
0000
,
2002
0000
0000
0000
,
0000
0000
0000
0000
,
0000
0000
0000
0000
,
0000
0000
0000
0000
,
0000
3003
0000
0000
0000
0000
0000
0000
0000
0000
0000
0000
0000
0000
0000
0000
;

//---------------dance-single - ----------------
#NOTES:
     dance-single:
     :
     Medium:
     5:
     0.327,0.328,0.088,0.096,0.000:
1001
0000
0010
0000
0100
0001
0000
0020
,
0000
0030
0010
0000
0100
0001
0000
1000
,
0000
0010
0100
0000
0001
0010
0000
2000
,
0000
3000
0100
0000
0010
1000
0000
0002
,
0000
0003
0010
0000
1000
0001
0000
0100
,
0000
0000
0010
0000
0100
0001
0000
1000
,
0010
0100
1000
0001
,
0100
0000
0110
0000
0001
1000
0000
2000
,
0000
3000
0110
0000
0001
1000
0000
0002
,
0000
0003
0100
0000
0010
1000
0000
0001
,
0000
0100
0010
0000
0001
0010
0000
2000
,
0000
3000
0010
0000
0100
0001
0000
0010
,
0000
0000
0100
0000
0010
1000
0000
0001
,
0100
0001
1000
0010
,
1000
0001
1000
0001
0000
0100
0100
0000
,
0001
1000
0001
1000
0000
0010
0010
0000
,
0100
0100
0100
0100
0000
0001
0010
0000
,
0210
0000
0000
0000
0000
0000
0000
0300
,
1000
0000
0100
0000
0010
0001
0000
0010
,
0000
0100
0010
0001
,
1001
0010
0100
0001
,
2000
0000
3000
0000
0010
0100
0010
0100
,
0000
0001
0010
0100
,
1001
0000
0010
0000
0100
0001
0000
1000
,
0000
0100
0000
0001
0000
0100
0000
0010
,
0100
0001
0010
0100
,
1000
1000
0010
0010
,
0100
0001
0100
0010
,
1000
0000
1000
0001
0000
0001
0010
0000
,
0100
0010
1000
0001
,
0100
0000
0100
0000
0010
0000
0001
0010
,
0001
0000
0010
0000
0100
0000
0010
0100
,
0010
1000
1000
0010
,
2000
0000
0000
3100
,
0010
0100
0001
1000
,
0120
0000
0000
0030
,
0001
1000
0001
1000
0000
0010
0100
0000
,
0110
0000
0000
1000
0000
0001
0010
0000
,
0010
0000
0100
0000
0001
1000
0000
0010
,
0000
0100
0001
0010
,
1000
1000
0001
0001
,
0100
0000
0010
0000
0100
0001
0000
1000
,
0000
0100
0100
0000
0010
0100
0000
0001
,
0000
1000
0010
0000
0010
1000
0000
0100
,
0000
0001
0010
0000
0100
0010
0000
1000
,
0000
0001
0100
0000
0010
0100
0000
0010
,
1000
0000
0110
0000
0001
0100
0000
0010
,
0001
0000
0010
0100
0010
0000
1000
0000
,
1100
0010
0100
0001
,
1000
0000
0010
0000
0100
0001
0000
0001
,
0100
0000
0010
0000
1000
0001
0000
0100
,
0000
0010
0100
0000
0001
0010
0000
1000
,
0000
0010
0100
0000
0001
0010
0000
0100
,
0000
0010
1000
0000
0100
0001
0000
0100
,
0000
0010
0100
0000
0010
0000
0100
0000
,
0001
1000
0010
0100
,
0001
1000
0001
1000
0000
0010
0010
0000
,
1000
0001
1000
0001
0000
0100
0100
0000
,
0010
0010
0010
0010
0000
0100
0010
0000
,
2002
0000
0000
0000
,
0000
0000
0000
0000
,
0000
0000
0000
0000
,
0000
0000
0000
0000
,
3003
0000
0000
0000
;

//---------------dance-single - ----------------
#NOTES:
     dance-single:
     :
     Easy:
     3:
     0.264,0.227,0.016,0.088,0.000: // measure 1
1000
0100
0010
0001
,  // measure 2
1000
0100
0010
0001
,  // measure 3
0010
0010
0100
0100
,  // measure 4
0002
0003
0010
0010
,  // measure 5
0001
0010
0100
1000
,  // measure 6
0001
0010
0100
1000
,  // measure 7
0010
0000
1000
0001
,  // measure 8
1000
0010
0100
0001
,  // measure 9
0100
0010
1000
0001
,  // measure 10
0100
0010
1000
0001
,  // measure 11
0100
0100
0010
0010
,  // measure 12
2000
3000
0001
0100
,  // measure 13
0010
0100
0001
1000
,  // measure 14
0010
0100
0001
1000
,  // measure 15
0010
0010
0100
0100
,  // measure 16
0001
0001
1000
1000
,  // measure 17
0010
0100
0010
0100
,  // measure 18
1001
0000
0000
0000
,  // measure 19
0010
0100
0001
0010
,  // measure 20
1000
0100
0010
0100
,  // measure 21
0001
0100
0010
1000
,  // measure 22
0200
0000
0300
0000
,  // measure 23
0010
0010
0100
0100
,  // measure 24
0001
0010
1000
0010
,  // measure 25
0001
0100
0010
1000
,  // measure 26
0020
0000
0130
0000
,  // measure 27
0001
0000
0010
0100
,  // measure 28
0010
0010
1000
1000
,  // measure 29
0001
0100
0010
1000
,  // measure 30
0100
0100
0001
0001
,  // measure 31
1000
0010
0100
0001
,  // measure 32
2000
3000
0010
0010
,  // measure 33
0200
0300
0001
0001
,  // measure 34
0020
0000
0030
0100
,  // measure 35
0001
0010
0100
1000
,  // measure 36
0010
0010
0100
0100
,  // measure 37
0001
1000
0010
0100
,  // measure 38
0020
0030
0100
0100
,  // measure 39
1000
0100
0001
0100
,  // measure 40
1000
0010
0001
0001
,  // measure 41
0200
0300
0010
0000
,  // measure 42
0100
0001
1000
0010
,  // measure 43
1000
0100
0010
0001
,  // measure 44
1000
0100
0010
0001
,  // measure 45
0100
0010
0001
0010
,  // measure 46
0100
0010
1000
0100
,  // measure 47
0001
0010
0100
1000
,  // measure 48
0001
0010
0100
1000
,  // measure 49
0010
0100
0001
0001
,  // measure 50
0010
0100
0010
1000
,  // measure 51
0010
0100
0001
1000
,  // measure 52
0010
0100
0001
1000
,  // measure 53
0010
0010
0100
0100
,  // measure 54
1000
0010
0100
0001
,  // measure 55
0100
0010
1000
0001
,  // measure 56
0100
0010
1000
0001
,  // measure 57
0010
0010
0100
0100
,  // measure 58
0001
0001
1000
1000
,  // measure 59
0010
0100
0010
0100
,  // measure 60
2002
0000
0000
0000
,  // measure 61
0000
0000
0000
0000
,  // measure 62
0000
0000
0000
0000
,  // measure 63
0000
0000
0000
0000
,  // measure 64
3003
0000
0000
0000
;
