#VERSION:0.83;
#TITLE:Free;
#SUBTITLE:;
#ARTIST:HUNTR/X;
#TITLETRANSLIT:;
#SUBTITLETRANSLIT:;
#ARTISTTRANSLIT:;
#GENRE:;
#ORIGIN:;
#CREDIT:mfsmia;
#BANNER:Free-Banner.png;
#BACKGROUND:Free-BG.png;
#PREVIEWVID:;
#JACKET:;
#CDIMAGE:;
#DISCIMAGE:;
#LYRICSPATH:;
#CDTITLE:K-POP DEMON HUNTERS.png;
#MUSIC:Free.mp3;
#OFFSET:0.093500;
#SAMPLESTART:30.129786;
#SAMPLELENGTH:11.571429;
#SELECTABLE:YES;
#GASongDataVersion:1;
#GASongData:{"SyncOffset"\:0.009,"DefaultChartType"\:"dance_single","DefaultChartIndex"\:1};
#BPMS:0.000000=140.000000,
339.000000=110.000000;
#STOPS:;
#DELAYS:;
#WARPS:;
#TIMESIGNATURES:0.000000=4=4;
#TICKCOUNTS:0.000000=4;
#COMBOS:0.000000=1;
#SPEEDS:0.000000=1.000000=0.000000=0;
#SCROLLS:0.000000=1.000000;
#FAKES:;
#LABELS:;
#LASTSECONDHINT:152.292123;
#KEYSOUNDS:;
#ATTACKS:;

//---------------dance-single - ----------------
#NOTEDATA:;
#CHARTNAME:;
#STEPSTYPE:dance-single;
#DESCRIPTION:;
#CHARTSTYLE:;
#DIFFICULTY:Beginner;
#METER:1;
#RADARVALUES:;
#CREDIT:mfsmia;
#GAChartDataVersion:1;
#GAChartData:{"MusicOffset"\:0,"ShouldUseChartMusicOffset"\:false,"ExpressedChartConfig"\:"a19d532e-b0ce-4759-ad1c-02ecbbdf2efd","Patterns"\:{}};
#OFFSET:0.093500;
#BPMS:0.000000=140.000000,
339.000000=110.000000;
#STOPS:;
#DELAYS:;
#WARPS:;
#TIMESIGNATURES:0.000000=4=4;
#TICKCOUNTS:0.000000=4;
#COMBOS:0.000000=1;
#SPEEDS:0.000000=1.000000=0.000000=0;
#SCROLLS:0.000000=1.000000;
#FAKES:;
#LABELS:;
#ATTACKS:;
#DISPLAYBPM:;
#NOTES:
0000
0000
0000
0000
,
0000
0000
0000
0000
,
0000
0000
0000
0000
,
0000
0000
0000
0000
,
0000
0000
0000
0000
,
0000
0000
0000
0000
,
1000
1000
1000
1000
,
1000
1000
1000
1000
,
1000
1000
1000
1000
,
1000
1000
1000
1000
,
1000
1000
1000
1000
,
1000
1000
1000
1000
,
1000
1000
1000
1000
,
1000
1000
1000
1000
,
0001
0001
0001
0001
,
0001
0001
0001
0001
,
0001
0001
0001
0001
,
0001
0001
0001
0001
,
0001
0001
0001
0001
,
0001
0001
0001
0001
,
0001
0001
0001
0001
,
0001
0001
0001
0001
,
0010
0010
0010
0010
,
0010
0010
0010
0010
,
0010
0010
0010
0010
,
0010
0010
0010
0010
,
0010
0010
0010
0010
,
0010
0010
0010
0010
,
0010
0010
0010
0010
,
0010
0010
0010
0010
,
0000
0000
0100
0000
,
0100
0000
0100
0000
,
0100
0000
0100
0000
,
0100
0000
0100
0000
,
0100
0100
0100
0100
,
0100
0100
0100
0100
,
0100
0100
0100
0100
,
0100
0100
0100
0100
,
1000
1000
1000
1000
,
1000
1000
1000
1000
,
1000
1000
1000
1000
,
1000
1000
1000
1000
,
1000
1000
1000
1000
,
1000
1000
1000
1000
,
1000
1000
1000
1000
,
1000
1000
1000
1000
,
0001
0001
0001
0001
,
0001
0001
0001
0001
,
0001
0001
0001
0001
,
0001
0001
0001
0001
,
0001
0001
0001
0001
,
0001
0001
0001
0001
,
0001
0001
0001
0001
,
0001
0001
0001
0001
,
0010
0010
0010
0010
,
0010
0010
0010
0010
,
0010
0010
0010
0010
,
0010
0010
0010
0010
,
0010
0010
0010
0010
,
0010
0010
0010
0010
,
0010
0010
0010
0010
,
0010
0010
0010
0010
,
0100
0000
0100
0000
,
0100
0000
0100
0000
,
0100
0000
0100
0000
,
0100
0000
0100
0000
,
0100
0000
0100
0000
,
0100
0000
0100
0000
,
0100
0000
0100
0000
,
0100
0000
0100
0000
,
0100
0000
0010
0000
,
0010
0000
0010
0000
,
0010
0000
0010
0000
,
0010
0000
0010
0000
,
0010
0000
0010
0000
,
0010
0000
0010
0000
,
0010
0000
0010
0000
,
0010
0000
0010
0000
,
0010
0000
0100
0100
,
0100
0100
0100
0100
,
0100
0100
0100
0100
,
0100
0100
0100
0100
,
0001
0001
0001
0001
,
0001
0001
0001
0001
,
0001
0000
0001
0000
,
2002
0000
3003
0000
;

//---------------dance-single - ----------------
#NOTEDATA:;
#CHARTNAME:;
#STEPSTYPE:dance-single;
#DESCRIPTION:;
#CHARTSTYLE:;
#DIFFICULTY:Easy;
#METER:5;
#RADARVALUES:;
#CREDIT:mfsmia;
#GAChartDataVersion:1;
#GAChartData:{"MusicOffset"\:0,"ShouldUseChartMusicOffset"\:false,"ExpressedChartConfig"\:"a19d532e-b0ce-4759-ad1c-02ecbbdf2efd","Patterns"\:{}};
#OFFSET:0.093500;
#BPMS:0.000000=140.000000,
339.000000=110.000000;
#STOPS:;
#DELAYS:;
#WARPS:;
#TIMESIGNATURES:0.000000=4=4;
#TICKCOUNTS:0.000000=4;
#COMBOS:0.000000=1;
#SPEEDS:0.000000=1.000000=0.000000=0;
#SCROLLS:0.000000=1.000000;
#FAKES:;
#LABELS:;
#ATTACKS:;
#DISPLAYBPM:;
#NOTES:
0000
0000
0000
0000
,
0000
0000
0000
0000
,
0000
0000
0000
0000
,
0000
0000
0000
0000
,
0000
0000
0000
0000
,
0000
0000
0001
0000
,
0100
0010
0100
0010
,
1000
0010
0100
0001
,
1000
0100
1000
0100
,
1000
0000
0001
0000
0000
0000
1000
0001
,
0100
0001
1000
0100
,
1000
0000
0001
0000
0100
0000
0010
1000
,
0010
1000
0100
0010
,
0001
0000
1000
0000
0100
1000
0100
0000
,
0001
0100
0001
0100
,
0001
0000
0100
0000
0010
1000
0010
0000
,
1000
0100
1000
0001
,
0100
0000
0001
0000
1000
0000
0001
0010
,
0001
0010
0001
0010
,
0001
0000
1000
0000
0010
0000
1000
0010
,
1000
0010
1000
0010
,
1000
0010
0100
0001
,
0000
2010
0000
0000
0001
0000
0000
0100
,
0000
0000
3001
0000
0000
0012
0000
0000
,
1000
0000
0000
0100
0000
0000
1003
0000
,
0000
0000
0001
0000
0000
0000
0010
0001
,
0010
0001
1000
0001
,
0010
0000
0001
0000
1000
0000
0010
1000
,
0010
1000
0001
1000
,
0010
1000
0010
0000
,
0000
1000
0000
0000
0001
0000
0000
0000
,
0100
0000
0001
0000
,
1000
0000
0100
0000
,
1000
0000
0001
0000
,
0100
0001
0010
0100
,
1000
0000
0010
0000
0100
0000
0000
0001
,
0100
0000
0000
0001
0010
0000
0000
0001
,
1000
0000
0000
0010
0100
0000
0000
0000
,
0010
1000
0100
1000
,
0001
0000
0100
0000
0010
0000
0000
1000
,
0100
0000
0000
1000
0010
0000
0000
1000
,
0001
0000
0000
0100
0010
0000
0000
0000
,
1000
0001
0100
0010
,
1000
0100
0010
0001
,
0100
0010
0100
0001
,
0010
0100
1000
0000
,
1002
0103
0010
0100
,
0001
0010
0001
0000
,
2001
3100
0010
0100
,
1000
0000
0001
0000
0000
0000
0100
0010
,
0100
0001
0010
0001
,
0100
0000
0010
0000
1000
0000
0100
0010
,
0100
1000
0010
0100
,
0001
0100
0001
1000
,
0000
2100
0000
0000
0001
0000
0000
0100
,
0000
0000
3001
0000
0000
0102
0000
0000
,
1000
0000
0000
0100
0000
0000
1003
0000
,
0000
0000
0001
0000
0000
0000
0100
0001
,
0100
0001
1000
0100
,
1000
0000
0001
0000
0100
0000
1000
0010
,
1000
0001
0010
0001
,
1000
0000
0010
0000
0100
0001
0100
0000
,
0102
0000
0010
0000
,
1000
0000
0013
0000
,
2100
0000
0010
0000
,
0100
0000
3001
0000
,
0000
2010
0000
0000
0001
0000
0000
0010
,
0000
0000
3001
0000
0000
0012
0000
0000
,
1000
0000
0000
0010
0000
0000
1003
0000
,
0000
0000
0010
0000
,
0100
0000
2001
0000
,
0010
0000
0001
0000
,
3010
0000
0120
0000
,
1000
0000
0130
0000
,
0000
2010
0000
0000
0001
0000
0000
0010
,
0000
0000
3001
0000
0000
0102
0000
0000
,
1000
0000
0000
0100
0000
0000
1003
0000
,
0000
0000
0000
0001
,
0000
0100
0100
0000
0010
0000
0000
0100
,
0100
0010
0000
1000
,
0000
0100
0100
0000
0010
0000
0000
0100
,
0100
0000
0010
0000
0000
0000
0001
0100
,
0001
0100
0010
1000
,
0001
0000
0100
0000
0000
0000
0010
1000
,
0010
1000
0100
0010
,
0001
0100
0000
0000
;
