#VERSION:0.83;
#TITLE:Anywhere;
#SUBTITLE:;
#ARTIST:Ratboys;
#TITLETRANSLIT:;
#SUBTITLETRANSLIT:;
#ARTISTTRANSLIT:;
#GENRE:;
#ORIGIN:;
#CREDIT:mfsmia;
#BANNER:Anywhere-Banner.png;
#BACKGROUND:Anywhere-Background.png;
#PREVIEWVID:;
#JACKET:;
#CDIMAGE:;
#DISCIMAGE:;
#LYRICSPATH:;
#CDTITLE:Ratboys-Logo.png;
#MUSIC:Anywhere.mp3;
#OFFSET:1.130200;
#SAMPLESTART:11.969709;
#SAMPLELENGTH:14.545455;
#SELECTABLE:YES;
#GASongDataVersion:1;
#GASongData:{"SyncOffset"\:0.009,"DefaultChartType"\:"dance_single","DefaultChartIndex"\:0};
#BPMS:0.000000=165.000000;
#STOPS:;
#DELAYS:;
#WARPS:;
#TIMESIGNATURES:0.000000=4=4;
#TICKCOUNTS:0.000000=4;
#COMBOS:0.000000=1;
#SPEEDS:0.000000=1.000000=0.000000=0;
#SCROLLS:0.000000=1.000000;
#FAKES:;
#LABELS:;
#LASTSECONDHINT:123.969709;
#KEYSOUNDS:;
#ATTACKS:;

//---------------dance-single - ----------------
#NOTEDATA:;
#CHARTNAME:;
#STEPSTYPE:dance-single;
#DESCRIPTION:;
#CHARTSTYLE:;
#DIFFICULTY:Medium;
#METER:6;
#RADARVALUES:;
#CREDIT:mfsmia;
#GAChartDataVersion:1;
#GAChartData:{"MusicOffset"\:0,"ShouldUseChartMusicOffset"\:false,"ExpressedChartConfig"\:"a19d532e-b0ce-4759-ad1c-02ecbbdf2efd","Patterns"\:{}};
#OFFSET:1.130200;
#BPMS:0.000000=165.000000;
#STOPS:;
#DELAYS:;
#WARPS:;
#TIMESIGNATURES:0.000000=4=4;
#TICKCOUNTS:0.000000=4;
#COMBOS:0.000000=1;
#SPEEDS:0.000000=1.000000=0.000000=0;
#SCROLLS:0.000000=1.000000;
#FAKES:;
#LABELS:;
#ATTACKS:;
#DISPLAYBPM:;
#NOTES:
0000
0000
0000
0000
,
2002
0000
0003
3000
,
0000
0000
0000
0000
0000
0000
0000
0020
,
0000
0000
0000
0200
0000
0330
0000
0000
,
0001
0100
1000
0100
,
0001
0010
1000
0100
,
0001
0100
1000
0100
,
0001
0100
1000
0100
,
0001
0100
1000
0100
,
2000
0000
0000
3010
0000
0100
0000
0002
,
0000
0000
0003
1000
0000
0100
0000
2100
,
0000
3000
0000
0000
0012
0000
0003
0000
,
0100
0000
0020
0200
0000
0000
0330
0000
,
0001
0000
0010
0100
0000
0000
0000
1000
,
0000
0010
0000
0100
0000
0001
0000
0100
,
0000
0010
0000
0000
1000
0000
0000
0000
,
0001
0000
0000
0101
0000
1010
0000
0100
,
0000
0000
0000
0002
0000
0000
0000
0000
,
1003
0000
0200
2000
0000
3300
0000
0000
,
0010
0000
0000
0200
0000
0300
0000
0000
,
1000
0001
0100
0000
,
1000
0000
0010
0100
0000
0000
0000
0001
,
0000
0010
0000
0100
0000
1000
0000
0002
,
0000
2000
3003
0000
2000
0000
0002
3003
,
0000
0002
0000
2000
3003
0000
0000
0000
,
1000
0000
0100
0010
0000
0000
0000
0001
,
0000
0100
0000
0010
0000
0000
0000
1000
,
0000
0000
2002
3003
,
0220
0330
0000
2002
0000
3003
0000
0000
,
0220
0000
0000
0000
0330
0001
0000
0000
,
2002
0000
0000
3003
0100
0000
1000
0000
,
2200
0000
0000
3300
0000
1000
0000
0000
,
2002
0000
0000
3003
0000
0000
0001
0000
,
0202
0000
0003
0000
0300
0010
0000
0000
,
0220
0000
0330
0000
,
2020
0000
0030
0000
3000
0000
0100
1000
,
0000
0000
0000
0010
0000
1000
0000
0000
,
2020
0000
0000
0000
3030
0000
0001
1000
,
0000
0000
0000
0100
0000
0010
0000
0000
,
0220
0000
0000
0000
0330
0000
1000
0001
,
0000
0000
0000
0010
0000
0100
0000
0220
,
0000
0000
0000
0330
0000
0000
0000
1010
,
0000
1010
0000
0110
0000
2002
0000
3003
,
1000
0000
0000
0002
0000
0000
0003
0000
,
1000
0000
0200
2000
0000
3300
0000
0000
,
0010
0000
0000
2000
0000
3000
0000
0000
,
1000
0001
0100
0000
,
2000
0000
3000
0010
0000
0100
0000
0002
,
0000
0000
0003
1000
0000
0100
0000
2000
,
0000
0000
0000
3000
0020
0000
0000
0030
,
0000
0100
0001
0100
0000
0000
0000
0000
,
0000
1000
0000
0100
0000
0000
0000
0001
,
0000
0000
0000
0010
0000
0000
0000
0220
,
0000
0330
0000
2000
0002
3003
2000
0002
,
3003
2000
0000
0002
0000
3003
0000
0000
,
0220
0000
0330
0001
,
2002
0000
3003
1000
,
2200
0000
3300
1000
,
2002
0000
3003
0001
,
0202
0003
0300
0010
,
0220
0000
0330
0000
,
2020
0000
0030
0000
3000
0000
0100
1000
,
0000
0000
0000
0010
0000
1000
0000
0000
,
2020
0000
0000
0000
3030
0000
0001
1000
,
0000
0000
0000
0100
0000
0010
0000
0000
,
0220
0000
0000
0000
0330
0000
1000
0001
,
0000
0000
0000
0010
0000
0100
0000
0220
,
0000
0000
0000
0330
0000
0000
0000
1010
,
0000
1010
0000
0110
0000
1001
0000
0000
,
0220
0000
0000
0000
0330
0000
0002
2000
,
0000
0000
0000
0000
3000
0000
0100
0003
0000
0000
1000
0000
0000
0000
0000
0000
,
2200
0000
0000
0000
3300
0000
2000
0002
,
0000
0000
3003
0100
0000
0001
0000
0000
,
0202
0000
0000
0000
0303
0000
0020
0200
,
0000
0330
0000
0010
0000
1000
0000
2020
,
0000
0000
0000
0000
3030
0000
0000
0011
,
0000
0011
0000
0110
0000
1001
0000
0000
,
0220
0000
0330
2002
3003
0000
0000
0001
,
0010
0100
1000
0001
0000
0000
0000
0000
,
0220
0000
0330
2002
3003
0000
0001
0010
,
0001
0010
0100
1000
0100
1000
0001
0000
,
0220
0000
0330
2002
3003
0000
0000
0001
,
1000
0010
0100
0001
0000
0000
0000
0000
,
2200
3300
0000
0022
0033
0000
2200
3300
,
0000
0202
0303
0000
0010
0100
1000
0000
;
