#TITLE:knell;
#SUBTITLE:-第一楽章-;
#ARTIST:W;
#TITLETRANSLIT:;
#SUBTITLETRANSLIT:-First Movement-;
#ARTISTTRANSLIT:;
#GENRE:;
#CREDIT:Meseki;
#MENUCOLOR:;
#BANNER:knell -First Movement--bn.png;
#BACKGROUND:knell -First Movement--bg.png;
#LYRICSPATH:;
#CDTITLE:cdtitle.png;
#MUSIC:knell -First Movement-.mp3;
#OFFSET:-0.049;
#SAMPLESTART:77.696;
#SAMPLELENGTH:18.824;
#SELECTABLE:YES;
#LISTSORT:;
#BPMS:0.000=102.000;
#STOPS:;
#TICKCOUNT:0.000=2;
#BGCHANGES:;
#KEYSOUNDS:;
#ATTACKS:;

//---------------dance-single - ----------------
#NOTES:
     dance-single:
     :
     Medium:
     3:
     0.167,0.188,0.035,0.167,0.000: // measure 1
0000
0000
0000
0000
,  // measure 2
0000
0000
0000
0000
,  // measure 3
0000
0000
0000
0000
,  // measure 4
0000
0000
0000
0000
,  // measure 5
0000
0000
0000
0000
,  // measure 6
0002
0000
0000
0003
0100
0000
0010
0000
,  // measure 7
0200
0000
0000
0300
0010
0000
1000
0000
,  // measure 8
0200
0000
0000
0300
0010
0000
0001
0000
,  // measure 9
2000
0000
0000
3000
0100
0000
0010
0000
,  // measure 10
0001
0010
0100
1000
,  // measure 11
0020
0000
0030
1000
,  // measure 12
0001
0010
0001
0100
,  // measure 13
0020
0000
0030
1000
,  // measure 14
0100
0010
0100
1000
,  // measure 15
0100
0010
0001
0100
,  // measure 16
1000
0100
0010
1000
,  // measure 17
0001
0000
1000
0000
,  // measure 18
1002
0103
0100
0000
,  // measure 19
0120
1030
1000
0000
,  // measure 20
0001
0000
0010
0000
,  // measure 21
1000
0000
0100
0000
,  // measure 22
0010
1000
1000
0000
,  // measure 23
0001
0010
0010
0000
,  // measure 24
0200
0000
0000
0300
0020
0000
0000
0030
,  // measure 25
0002
0000
0000
0003
2000
0000
0000
3000
,  // measure 26
0100
0000
0010
0000
,  // measure 27
0001
0010
0100
0000
,  // measure 28
1000
0000
0100
0000
,  // measure 29
0010
0100
1000
0000
,  // measure 30
0000
0000
0200
0300
0020
0030
0001
0000
,  // measure 31
0100
0000
1000
0000
,  // measure 32
0200
0000
0000
0300
0010
0000
1000
0000
,  // measure 33
0001
0010
0001
0010
,  // measure 34
0100
0000
1000
0000
,  // measure 35
0010
0100
0100
0000
,  // measure 36
0001
0000
0010
0000
,  // measure 37
0100
1000
0001
0000
,  // measure 38
0001
0000
1000
0000
,  // measure 39
0010
0000
0100
0001
,  // measure 40
0001
0000
1000
0000
,  // measure 41
0100
0000
1001
0000
,  // measure 42
0001
0000
0100
0000
,  // measure 43
0010
0000
1000
0000
,  // measure 44
0200
0000
0000
0300
1000
0000
0001
0000
,  // measure 45
0200
0000
0000
0300
0010
0000
1000
0000
,  // measure 46
2002
0000
0000
0000
,  // measure 47
0000
0000
0000
0000
,  // measure 48
0000
0000
3003
0000
;

//---------------dance-single - ----------------
#NOTES:
     dance-single:
     :
     Easy:
     2:
     0.127,0.146,0.018,0.167,0.000:
0000
0000
0000
0000
,
0000
0000
0000
0000
,
0000
0000
0000
0000
,
0000
0000
0000
0000
,
0000
0000
0000
0000
,
0002
0000
0000
0003
0100
0000
0000
0000
,
0200
0000
0000
0300
0010
0000
0000
0000
,
0020
0000
0000
0030
1000
0000
0000
0000
,
2000
0000
0000
3000
0001
0000
0000
0000
,
0010
0000
0100
0000
,
2000
0000
3000
0000
,
0010
0000
0100
0000
,
0002
0000
0003
0000
,
1000
0001
0001
0000
,
0100
0001
0001
0000
,
0100
0000
0010
0000
,
1000
0000
0100
0000
,
0020
0030
0100
0000
,
2000
3000
0010
0000
,
0100
0000
0100
0000
,
0001
0000
0001
0000
,
1000
0000
0100
0000
,
0010
0000
0001
0000
,
0200
0300
0020
0030
,
2000
3000
0002
0003
,
1000
0000
0000
0000
,
0001
0000
0010
0000
,
0100
0000
0000
0000
,
0010
0000
0100
0000
,
0000
1000
1000
0000
,
0010
0000
0100
0000
,
0002
0003
0020
0030
,
0100
0000
1000
0000
,
1001
0000
0001
0000
,
0100
0000
0010
0000
,
1000
0000
0100
0000
,
0100
0000
0010
0000
,
0001
0000
0100
0000
,
0010
0000
2000
3000
,
0100
0000
0010
0000
,
0010
0000
0001
0000
,
0100
0000
0010
0000
,
1000
0000
0001
0000
,
0020
0030
0100
0000
,
0200
0300
1000
1000
,
2002
0000
0000
0000
,
0000
0000
0000
0000
,
0000
0000
3003
0000
;

//---------------dance-single - ----------------
#NOTES:
     dance-single:
     :
     Hard:
     5:
     0.268,0.354,0.026,0.316,0.000: // measure 1
0000
0000
0000
0000
,  // measure 2
0000
0000
0000
0000
,  // measure 3
0000
0000
0000
0000
,  // measure 4
0000
0000
0000
0000
,  // measure 5
0000
0000
0000
0000
,  // measure 6
0002
0000
0000
0000
0000
0000
0000
0003
0100
0000
0000
0000
0010
0000
0000
0000
,  // measure 7
2000
0000
0000
0000
0000
0000
0000
3000
0100
0000
0000
0000
0001
0000
0000
0000
,  // measure 8
0200
0000
0000
0300
1000
0000
0010
0000
,  // measure 9
0200
0000
0000
0300
1000
0000
0010
0000
,  // measure 10
0001
0100
0010
1000
,  // measure 11
0002
0000
0000
0000
0003
0000
1000
0100
,  // measure 12
0010
0100
0010
1000
,  // measure 13
0020
0000
0000
0000
0030
0000
0001
0100
,  // measure 14
0010
0001
0010
1000
,  // measure 15
0100
0010
0001
0010
,  // measure 16
0100
1000
0010
1000
,  // measure 17
0001
0000
0100
0000
,  // measure 18
1002
0000
0103
0010
1000
0000
0100
0010
,  // measure 19
0002
0000
0103
0010
0100
0000
0010
1000
,  // measure 20
0001
0000
0000
1000
0100
0000
1000
0010
,  // measure 21
0100
0000
0000
0010
1000
0000
0000
0000
,  // measure 22
0001
0000
0100
0010
0100
0000
0100
1000
,  // measure 23
0100
0000
0010
1000
0100
0000
0010
0001
,  // measure 24
2000
0000
0000
3100
0020
0000
0000
0031
,  // measure 25
0200
0000
0000
0310
2000
0000
0000
3000
,  // measure 26
0100
0000
0000
0000
0001
0000
0100
1000
,  // measure 27
0010
0100
0001
0000
,  // measure 28
1000
0000
0000
0000
0001
0000
0010
0100
,  // measure 29
0010
1000
0010
0001
,  // measure 30
1000
0000
0200
0300
0002
0003
0010
1000
,  // measure 31
0010
0100
0001
0010
,  // measure 32
0200
0000
0000
0300
0001
0000
0100
1000
,  // measure 33
0010
1000
0100
0010
,  // measure 34
0002
0000
0103
0010
0200
0000
0310
1000
,  // measure 35
0002
0000
1003
0100
2000
0000
0000
3000
,  // measure 36
0020
0000
0130
0010
2000
0000
3100
0010
,  // measure 37
0200
0000
1300
0001
0200
0000
0000
0300
,  // measure 38
0020
0000
1030
0001
0020
0000
0130
0010
,  // measure 39
0002
0000
1003
0010
0002
0003
0020
0030
,  // measure 40
2000
0000
3100
0001
0200
0000
1300
0100
,  // measure 41
2000
0000
3100
0001
0020
0000
0000
0030
,  // measure 42
1000
0100
0010
0000
0001
0100
0010
0000
,  // measure 43
1000
0100
0001
0000
0001
0010
1000
0000
,  // measure 44
0002
0000
0000
0103
0010
0100
1000
0100
,  // measure 45
0002
0000
0000
1003
0010
0000
0110
0000
,  // measure 46
2002
0000
0000
0000
,  // measure 47
0000
0000
0000
0000
,  // measure 48
0000
0000
3003
0000
;

//---------------dance-single - ----------------
#NOTES:
     dance-single:
     :
     Beginner:
     1:
     0.079,0.104,0.018,0.088,0.000:
0000
0000
0000
0000
,
0000
0000
0000
0000
,
0000
0000
0000
0000
,
0000
0000
0000
0000
,
0000
0000
0000
0000
,
0002
0003
0000
0000
,
2000
3000
0000
0000
,
0200
0300
0000
0000
,
0020
0030
0000
0000
,
0001
0000
0000
0000
,
0200
0000
0300
0000
,
0010
0000
0000
0000
,
2000
0000
3000
0000
,
0001
0000
0001
0000
,
1000
0000
1000
0000
,
0100
0000
0000
0000
,
0010
0000
0000
0000
,
0001
0000
0000
0000
,
1000
0000
0000
0000
,
0010
0000
0010
0000
,
0100
0000
0100
0000
,
0010
0000
0000
0000
,
1000
0000
0000
0000
,
0100
0000
0100
0000
,
0010
0000
0010
0000
,
0100
0000
0000
0000
,
1000
0000
0000
0000
,
0010
0000
0000
0000
,
0100
0000
0000
0000
,
0000
0000
0001
0000
,
0001
0000
1000
0000
,
1000
0000
0000
0000
,
0001
0000
0000
0000
,
1001
0000
0000
0000
,
1000
0000
0000
0000
,
0010
0000
0000
0000
,
0100
0000
0100
0000
,
0001
0000
0000
0000
,
0010
0000
0000
0000
,
0100
0000
0000
0000
,
1000
0000
0000
0000
,
0001
0000
0001
0000
,
0100
0000
0100
0000
,
0020
0030
0000
0000
,
2000
3000
0000
0000
,
2002
0000
0000
0000
,
0000
0000
0000
0000
,
0000
0000
3003
0000
;

//---------------dance-single - ----------------
#NOTES:
     dance-single:
     :
     Challenge:
     7:
     0.315,0.458,0.088,0.395,0.066: // measure 1
0000
0000
0000
0000
,  // measure 2
0000
0000
0000
0000
,  // measure 3
0000
0000
0000
0000
,  // measure 4
0000
0000
0000
0000
,  // measure 5
0000
0000
0000
0000
,  // measure 6
0020
0000
0000
0030
1000
0000
0001
0000
,  // measure 7
0020
0000
0000
0030
0100
0000
0001
0000
,  // measure 8
0200
0000
0000
0300
0010
0000
0001
0000
,  // measure 9
2000
0000
0000
3000
0100
0000
0010
0000
,  // measure 10
0011
0001
0100
0010
,  // measure 11
2000
0000
0000
0000
3000
0000
0100
0010
,  // measure 12
0001
0010
1000
0001
,  // measure 13
0200
0000
0000
0000
0300
0000
1000
0010
,  // measure 14
1000
0010
0001
0100
,  // measure 15
1000
0001
0010
1000
,  // measure 16
0001
0100
0010
0001
,  // measure 17
1001
0000
0110
0000
,  // measure 18
1020
0000
0130
0001
0020
0000
1030
0010
,  // measure 19
0002
0000
0103
0010
2000
0000
3100
0001
,  // measure 20
0100
0000
0000
0000
1000
0000
0100
0010
0100
0000
0000
0000
0010
0000
0001
0100
,  // measure 21
0001
0000
0000
0000
1000
0000
0001
0010
0200
0000
0000
0000
0000
0000
0300
0000
,  // measure 22
0020
0000
0130
1000
0002
0000
1003
0100
,  // measure 23
0020
0000
0130
0001
1000
0000
0010
0001
,  // measure 24
2000
0000
0000
0000
0000
0000
3100
0010
0002
0000
0000
0000
0000
0000
1003
0100
,  // measure 25
0020
0000
0000
0000
0000
0000
0031
1000
0200
0000
0000
0000
0000
0000
0300
0000
,  // measure 26
1000
0000
0000
0000
0010
0000
0100
0001
,  // measure 27
0020
1000
0130
0000
,  // measure 28
0010
0000
0000
0000
0001
0000
1000
0010
,  // measure 29
0200
1000
0010
0301
,  // measure 30
1000
0000
0200
0000
0302
0000
0103
1000
,  // measure 31
0001
0010
1000
0100
,  // measure 32
0002
0000
0000
0003
0020
0000
0130
1000
,  // measure 33
1010
0110
0101
1001
,  // measure 34
0002
0000
1003
0010
0200
0000
1300
0100
,  // measure 35
0002
0000
0013
0001
2000
0000
0000
3000
,  // measure 36
0020
0000
0130
0001
0020
0000
0130
0001
,  // measure 37
0200
0000
1300
0001
0020
0000
0000
0030
,  // measure 38
0002
0000
0103
0010
2000
0000
3100
0010
,  // measure 39
0002
0000
0103
0010
0002
0000
0023
0000
,  // measure 40
2030
0000
3100
0001
0200
0000
0310
0001
,  // measure 41
2000
0000
3001
0010
0200
0000
0000
0300
,  // measure 42
1000
0000
0100
0010
0001
0000
0010
0000
0100
0000
0010
0001
1000
0000
0010
0000
,  // measure 43
0100
0000
0010
1000
0001
0000
0010
0000
0001
0010
0001
0000
1000
0100
1000
0000
,  // measure 44
0002
0000
0000
0000
0000
0103
0010
0000
1000
0100
1000
0000
0001
0010
0001
0000
,  // measure 45
0020
0000
0000
0000
0000
0000
0130
1000
0010
0000
0000
0000
0110
0000
0000
0000
,  // measure 46
2002
0000
0000
0000
,  // measure 47
0000
0000
0000
0000
,  // measure 48
0000
0000
3003
0000
;
