#TITLE:碧桜 -SAKURA unreal-;
#SUBTITLE:;
#ARTIST:U-F SEQUENCER;
#TITLETRANSLIT:Hekiou -SAKURA unreal-;
#SUBTITLETRANSLIT:;
#ARTISTTRANSLIT:;
#GENRE:;
#CREDIT:Meseki;
#MENUCOLOR:;
#BANNER:Hekiou -SAKURA unreal-bn.png;
#BACKGROUND:Hekiou -SAKURA unreal-bg.png;
#LYRICSPATH:;
#CDTITLE:cdtitle.png;
#MUSIC:hekiou_-sakura_unreal-.mp3;
#OFFSET:-0.351;
#SAMPLESTART:144.868;
#SAMPLELENGTH:24.000;
#SELECTABLE:YES;
#LISTSORT:;
#BPMS:0.000=186.000;
#STOPS:;
#TICKCOUNT:0.000=2;
#BGCHANGES:;
#KEYSOUNDS:;
#ATTACKS:;

//---------------dance-single - ----------------
#NOTES:
     dance-single:
     :
     Hard:
     9:
     0.654,1.000,0.209,0.270,0.123: // measure 1
0000
0000
0000
0000
,  // measure 2
0000
0000
0000
0000
,  // measure 3
0000
0000
0000
0000
,  // measure 4
0000
0000
0000
0000
,  // measure 5
1000
1000
0001
0000
,  // measure 6
1000
1000
0001
0000
,  // measure 7
1000
1000
0001
0000
,  // measure 8
1000
0000
0010
1000
0000
0010
1000
0000
,  // measure 9
1001
1000
0100
0000
,  // measure 10
1000
1000
0100
0000
,  // measure 11
1000
1000
0100
0000
,  // measure 12
1000
0000
0001
1000
0000
0001
1000
0000
,  // measure 13
1000
1000
0010
0000
,  // measure 14
1000
1000
0010
0000
,  // measure 15
1000
1000
0010
0000
,  // measure 16
1000
0000
0100
1000
0000
0100
1000
0000
,  // measure 17
0001
0010
0001
0010
0001
0000
1000
0100
,  // measure 18
0010
0001
0010
0001
0010
0000
0100
1000
,  // measure 19
0100
0010
0100
0010
0001
0000
0010
0100
,  // measure 20
1000
0000
0010
0100
1000
0000
0100
0000
,  // measure 21
0001
0010
0001
0010
0001
0000
0100
1000
,  // measure 22
0100
0001
0100
0001
0100
0000
0010
0001
,  // measure 23
0010
1000
0010
1000
0001
0000
0010
0100
,  // measure 24
1000
0000
0010
0001
0010
0100
0001
0010
,  // measure 25
0100
1000
0100
1000
0100
0000
0010
1000
,  // measure 26
0010
0001
0010
0001
0010
0000
0100
0000
,  // measure 27
1000
0010
1000
0010
0001
0000
0010
1000
,  // measure 28
0100
0000
0010
0100
1000
0000
0010
0000
,  // measure 29
1000
0001
1000
0001
0010
0000
0001
0100
,  // measure 30
1000
0100
1000
0100
1000
0000
0100
0010
,  // measure 31
1000
0100
1000
0010
0001
0000
0010
1000
,  // measure 32
0001
0000
1000
0010
0001
0010
1000
0001
,  // measure 33
0100
1000
0000
1000
0000
1000
0000
1000
,  // measure 34
0000
1000
0000
1000
0000
1000
0000
1000
,  // measure 35
0000
0100
0000
0100
0000
0100
0000
0100
,  // measure 36
0000
0001
0000
0001
0000
0001
0000
0001
,  // measure 37
0000
0010
0000
0010
0000
0010
0000
0010
,  // measure 38
0000
0010
0000
0010
0000
0010
0000
0010
,  // measure 39
0000
1000
0000
1000
0000
1000
0000
1000
,  // measure 40
0000
0100
0000
0100
0000
0100
0000
0100
,  // measure 41
0001
0001
0001
0001
,  // measure 42
0001
0001
0001
0001
,  // measure 43
1000
1000
1000
1000
,  // measure 44
1000
1000
1000
1000
,  // measure 45
0010
0000
0010
0001
0010
0000
0010
0000
,  // measure 46
0010
0001
0010
0000
0100
0001
0010
0100
,  // measure 47
1000
0000
1000
0010
1000
0000
1000
0000
,  // measure 48
1000
0100
0001
0000
0010
0000
0100
0000
,  // measure 49
1010
0000
0010
0001
0010
0000
0010
0000
,  // measure 50
0010
0001
0010
0000
1000
0010
0100
0010
,  // measure 51
1000
0000
1000
0010
1000
0000
1000
0000
,  // measure 52
1000
0010
0100
0000
1000
0100
0010
1000
,  // measure 53
0010
0000
1000
0010
1000
0010
0001
0010
,  // measure 54
0001
0010
1000
0100
0001
0100
0010
1000
,  // measure 55
0020
0000
0000
0000
,  // measure 56
0032
0000
0000
0000
,  // measure 57
1003
0000
0100
1000
0010
1000
0100
0000
,  // measure 58
0010
0000
0100
0001
0010
0001
0100
0000
,  // measure 59
1000
0000
0100
0010
1000
0010
0000
0010
,  // measure 60
1000
0100
0010
0000
0001
0100
0010
0000
,  // measure 61
1000
0000
0001
0010
0100
1000
0010
0000
,  // measure 62
1000
0000
0001
0100
0010
1000
0100
0000
,  // measure 63
1000
0000
0100
0010
0001
0010
0000
0010
,  // measure 64
0100
0000
0000
1000
0100
0000
0000
1000
0100
0000
0001
0000
0100
0000
1000
0000
,  // measure 65
0010
0000
0001
0010
0001
0010
1000
0000
,  // measure 66
0001
0000
0010
1000
0010
1000
0100
0000
,  // measure 67
0010
0000
1000
0100
0001
0100
0000
0100
,  // measure 68
0010
0001
1000
0000
1000
0100
0010
0000
,  // measure 69
0001
0000
0010
0100
0010
0001
1000
0000
,  // measure 70
0010
0000
1000
0001
0010
0001
1000
0000
,  // measure 71
0100
0000
0010
1000
0010
0001
0000
0001
,  // measure 72
1000
0000
0000
0010
1000
0000
0000
0010
1000
0000
0001
0000
0010
0000
1000
0000
,  // measure 73
0010
0011
0010
0011
,  // measure 74
0001
0101
0001
0101
,  // measure 75
0100
0110
0100
0110
,  // measure 76
0010
1010
0010
1010
,  // measure 77
1000
1100
1000
1100
,  // measure 78
0100
0110
0100
0110
,  // measure 79
0010
0011
0010
0011
,  // measure 80
0001
1001
0001
1001
,  // measure 81
0011
0001
0001
0000
0010
0100
1000
0100
,  // measure 82
0010
0000
0001
0100
0010
0100
0001
0000
,  // measure 83
1000
1000
1000
0000
0010
1000
0100
0010
,  // measure 84
0001
0100
0010
0000
1000
0010
1000
0000
,  // measure 85
0001
0001
0001
0000
1000
0010
0100
0000
,  // measure 86
1000
1000
1000
0000
0100
0001
0010
0000
,  // measure 87
0100
0100
0100
1000
0010
1000
0100
0001
,  // measure 88
0100
0000
0010
0000
1000
0000
0010
0000
0110
0000
0000
0011
0000
0000
1001
0000
,  // measure 89
1001
0001
0001
0001
,  // measure 90
1000
1000
1000
1000
,  // measure 91
0010
0010
0010
0010
,  // measure 92
0100
0100
0100
0100
,  // measure 93
1000
0100
0010
0000
,  // measure 94
1000
0100
0010
0000
,  // measure 95
0100
0010
0001
0010
,  // measure 96
0100
0000
0001
0100
2000
0000
0000
0000
,  // measure 97
3100
0100
0001
0000
,  // measure 98
0100
0100
0001
0000
,  // measure 99
0100
0010
0001
0010
,  // measure 100
1000
0000
0001
0010
1000
0000
0000
0000
,  // measure 101
1000
1000
0010
0000
,  // measure 102
1000
1000
0010
0000
,  // measure 103
1100
0010
0001
0010
,  // measure 104
0100
1000
0100
1000
0001
0100
0001
0100
,  // measure 105
0020
0000
0000
2030
0000
0000
3002
0000
,  // measure 106
0000
0000
0000
0000
,  // measure 107
0000
0000
0000
0000
,  // measure 108
0000
0000
0000
0000
,  // measure 109
1000
0000
0000
0100
0000
0000
0010
0000
0003
0000
0010
0000
0100
0000
1000
0000
,  // measure 110
0000
0010
0000
0000
0100
0000
1000
0000
0100
0000
0000
0001
0000
0000
0010
0000
,  // measure 111
0100
0000
0000
0001
0000
0000
0100
0000
1000
0000
0000
0010
0000
0000
0001
0000
,  // measure 112
0010
1000
0000
1000
0000
1000
0001
0000
0010
0000
0100
1000
0000
1000
0000
0000
,  // measure 113
0010
0000
1000
0000
1001
0000
0000
0000
0001
0000
0000
0001
0000
0000
0001
0000
,  // measure 114
0000
1000
0001
0010
0100
1000
0001
0002
,  // measure 115
0103
0010
1000
0000
0001
1000
0010
0000
,  // measure 116
0100
0000
0001
0000
1000
0000
0001
0000
0010
0000
0001
1000
0000
0001
1000
0000
,  // measure 117
0100
0000
0000
0010
0000
0000
0001
0000
0000
0000
0001
0000
0010
0000
1000
0000
,  // measure 118
0000
0001
0000
0000
0010
0000
1000
0000
0100
0000
0000
0010
0000
0000
0001
0000
,  // measure 119
0010
0000
0000
0100
0000
0000
1000
0000
0010
0000
0000
0100
0000
0000
0001
0000
,  // measure 120
2001
0000
0000
0000
,  // measure 121
3002
0000
1000
0023
0000
0100
0230
0000
,  // measure 122
1000
0000
0010
1000
1000
0000
0010
1000
,  // measure 123
1000
0000
0010
1000
0000
1000
0010
0000
,  // measure 124
1000
0000
1000
0000
0010
0000
0000
1000
0000
0000
1000
0000
0010
0000
0000
0000
,  // measure 125
1000
0000
1000
0300
0001
0010
0200
0000
,  // measure 126
1300
0010
1000
0010
0002
0000
0023
0000
,  // measure 127
1030
0100
1000
0000
0020
0000
0230
0000
,  // measure 128
1300
0100
0002
0000
0023
0000
0230
0000
,  // measure 129
2300
0000
0010
3002
0000
0100
0203
0000
,  // measure 130
0001
0000
0010
0001
0001
0000
0010
0001
,  // measure 131
0001
0000
0010
0001
0000
0001
0010
0000
,  // measure 132
0001
0000
0001
0000
0010
0000
0000
0001
0000
0000
0001
0000
0010
0000
0000
0000
,  // measure 133
0001
0000
0010
0300
1000
0001
0010
0000
,  // measure 134
0100
0010
0001
0000
0020
0000
2030
0000
,  // measure 135
3100
0010
2000
0000
3001
0010
0200
0300
,  // measure 136
2002
0000
0000
0003
,  // measure 137
3010
0000
0100
0001
1000
0001
0100
0000
,  // measure 138
0001
0000
1000
0010
1000
0000
0100
0010
,  // measure 139
0001
0000
0010
0100
0100
0000
0010
0001
,  // measure 140
1000
0100
0100
1000
0100
0001
0100
1000
,  // measure 141
0001
0000
0010
0010
0001
0000
0010
0001
,  // measure 142
0010
0000
0001
0010
0100
0001
0100
1000
,  // measure 143
0010
0010
1000
0100
0100
1000
0100
1000
,  // measure 144
0100
0100
0010
0010
1000
0010
0001
0010
,  // measure 145
0100
0000
1000
0100
0010
0000
0001
1000
,  // measure 146
0001
0000
0010
0100
0100
0000
1000
0100
,  // measure 147
0001
0000
0001
0010
0010
0000
1000
0010
,  // measure 148
0100
0000
0100
0100
1000
0100
0010
1000
,  // measure 149
0010
0000
0010
0001
0010
0000
0010
0000
,  // measure 150
0010
0001
0010
0000
0100
0010
1000
0001
,  // measure 151
0010
0000
0010
1000
0010
0000
0010
0000
,  // measure 152
0100
0010
0001
0010
1000
0010
0100
1000
,  // measure 153
1002
1003
0010
0000
,  // measure 154
1002
0000
0000
0000
1003
0000
0000
0000
0010
0000
0002
0000
0000
0003
0000
0000
,  // measure 155
1002
0103
0010
0100
,  // measure 156
1002
0000
0000
0000
0013
0000
0000
0000
0100
0000
0020
0000
0000
0030
0000
0000
,  // measure 157
1002
1003
0010
0000
,  // measure 158
1002
0000
0000
0000
1003
0000
0000
0000
0010
0000
0002
0000
0000
0003
0000
0000
,  // measure 159
1200
0310
0001
0010
,  // measure 160
1200
0000
0000
0000
0301
0000
0000
0000
0100
0000
0020
0000
0000
0030
0000
0000
,  // measure 161
2200
0000
3000
0302
0000
0000
0023
0000
,  // measure 162
2000
0000
0000
0000
3000
0000
0000
0000
0000
0000
2000
0000
0000
3000
0000
0000
,  // measure 163
2000
3000
0000
0000
,  // measure 164
2000
0000
0000
0000
3000
0000
0000
0000
0000
0000
0002
0000
0000
0003
0000
0000
,  // measure 165
2000
0000
3000
0030
0000
0000
0000
0000
,  // measure 166
2000
0000
0000
0000
3000
0000
0000
0000
0000
0000
2000
0000
0000
3000
0000
0000
,  // measure 167
0200
0000
0000
0000
0300
0000
0000
0000
0000
0000
0200
0000
0000
0300
0000
0000
,  // measure 168
2000
0000
0001
3000
1000
0000
0001
0000
1000
0000
0001
0000
1000
0000
0001
0000
1000
0000
0001
0000
1000
0000
0001
0000
,  // measure 169
1000
0000
0000
0000
1000
0000
0000
0000
0010
0000
0002
0000
0100
0003
0000
0000
,  // measure 170
1200
0000
0000
0000
1300
0000
0000
0000
0010
0000
0200
0000
1000
0300
0000
0000
,  // measure 171
2100
0000
0000
0000
3010
0000
0000
0000
0001
0000
0200
0000
0010
0300
0000
0000
,  // measure 172
2100
0000
0000
0000
3001
0000
0010
0000
0100
0000
0002
0000
0000
0003
0000
0000
,  // measure 173
0120
0000
0000
0000
0130
0000
0000
0000
1000
0000
0020
0000
0000
0030
0000
0000
,  // measure 174
0201
0000
0000
0000
0301
0000
0000
0000
0010
0000
0200
0000
0000
0300
0000
0000
,  // measure 175
2001
0000
0000
0000
3100
0000
0000
0000
0010
0000
2000
0000
0100
3000
0000
0000
,  // measure 176
0120
0000
0031
0020
0100
0000
0100
0000
,  // measure 177
0031
0001
0020
2030
,  // measure 178
3010
0010
0002
0203
,  // measure 179
1300
1000
0200
0302
,  // measure 180
0013
0000
0000
0010
0200
0000
0000
0000
2300
0000
0000
0000
3002
0000
0000
0000
,  // measure 181
0013
0010
0010
0010
,  // measure 182
0010
0010
0010
0010
,  // measure 183
0010
0100
0010
0100
0010
0100
0010
0100
,  // measure 184
0010
0100
0010
0100
0010
0100
0010
0100
0020
0230
0320
0230
0320
0230
0320
0230
,  // measure 185
0310
0000
0100
0000
1000
0010
1000
0000
,  // measure 186
0001
0000
0010
0000
0100
1000
0100
0010
,  // measure 187
0100
0000
1000
0000
0001
0100
0010
0000
,  // measure 188
1000
0000
0100
0000
0010
0100
0010
0001
,  // measure 189
1000
0000
0010
0000
0100
0001
0100
0000
,  // measure 190
0010
0000
0001
0000
0010
1000
0010
0000
,  // measure 191
0100
0000
0001
0000
1000
0100
0010
0000
,  // measure 192
1000
0010
0001
0010
,  // measure 193
1001
0000
0000
1000
0000
0000
1000
0000
0010
0000
0000
0010
0000
0000
0010
0000
,  // measure 194
1001
0000
0000
1000
0000
0000
1000
0000
0100
0000
0000
0100
0000
0000
0100
0000
,  // measure 195
1010
0000
0000
1000
0000
0000
1000
0000
0001
0000
0000
0001
0000
0000
0001
0000
,  // measure 196
0110
0000
0000
0100
0000
0000
0100
0000
0001
0000
0000
0001
0000
0000
0001
0000
,  // measure 197
1000
0010
0100
0010
1000
0001
0100
1000
,  // measure 198
0100
0010
1000
0001
0010
0001
0100
1000
,  // measure 199
0100
0010
1000
0010
0001
0010
0100
0001
,  // measure 200
2002
0000
0000
0000
0000
0000
0000
0003
,  // measure 201
3001
0010
0100
0010
0001
0001
0010
1000
,  // measure 202
0010
0100
1000
0010
0100
0001
0001
0010
,  // measure 203
0100
1000
0010
1000
0001
0001
0010
0100
,  // measure 204
1000
0000
0010
0000
0100
0000
0001
0000
0000
0010
0000
0000
0100
0000
0000
0001
0000
0000
0100
0000
0000
1000
0000
0000
,  // measure 205
0010
0100
0001
0010
0100
0100
1000
0010
,  // measure 206
0001
0010
1000
0001
0100
0100
0010
1000
,  // measure 207
0001
0010
1000
0010
0100
0100
1000
0001
,  // measure 208
1000
0000
0000
0000
0100
0000
0000
0000
0010
0000
0000
0000
0001
0000
0000
0000
0000
0000
1000
0000
0000
0000
0000
0000
0100
0000
0000
0010
0000
0000
0001
0000
0000
0010
0000
0000
0001
0000
0000
0000
0000
0000
0100
0000
0000
0000
0000
0000
,  // measure 209
0010
1000
0100
0010
0100
0001
0100
0010
,  // measure 210
0001
1000
0010
0001
0010
0010
1000
0001
,  // measure 211
0010
1000
0010
0001
0100
0100
0010
1000
,  // measure 212
0001
0000
0010
0000
0100
0000
1000
0000
0000
0010
0000
0000
0100
0000
0000
0100
0000
0000
0001
0000
0000
0010
0000
0000
,  // measure 213
0001
0100
1000
0100
0010
1000
0010
0100
,  // measure 214
1000
0100
0001
0010
0100
0100
0010
1000
,  // measure 215
0010
0001
0100
0010
1000
1000
0010
0100
,  // measure 216
0001
0000
0000
0000
0100
0000
0000
0000
0010
0000
0000
0000
1000
0000
0000
0000
0000
0000
0100
0000
0000
0000
0000
0000
1000
0000
0000
0100
0000
0000
0010
0000
0000
0001
0000
0000
0010
0000
0000
0000
0000
0000
0100
0000
0000
0000
0000
0000
,  // measure 217
0010
0001
1000
0010
0100
1000
0100
0010
,  // measure 218
0001
0010
1000
0100
1000
1000
0010
0100
,  // measure 219
0001
0010
1000
0010
0100
0100
1000
0001
,  // measure 220
0010
0000
0100
0000
1000
0000
0001
0000
0000
0010
0000
0000
1000
0000
0000
1000
0000
0000
0010
0000
0000
0010
0000
0000
,  // measure 221
0001
0100
1000
0100
0010
1000
0001
0010
,  // measure 222
1000
0010
0100
1000
0001
0001
0100
0010
,  // measure 223
1000
0010
0100
0001
1000
1000
0001
0100
,  // measure 224
1000
0000
0000
0000
0100
0000
0000
0000
0010
0000
0000
0000
1000
0000
0000
0000
0000
0000
0100
0000
0000
0000
0000
0000
0010
0000
0000
0001
0000
0000
0010
0000
0000
0001
0000
0000
1000
0000
0000
0000
0000
0000
0001
0000
0000
0000
0000
0000
,  // measure 225
1000
1000
1000
0010
0100
0001
0100
0010
,  // measure 226
0001
0010
1000
0100
1000
1000
0001
0010
,  // measure 227
0100
0100
0100
1000
0010
0010
0001
0010
,  // measure 228
1000
0000
0010
0000
0100
0000
0001
0000
0000
0010
0000
0000
1000
0000
0000
0010
0000
0000
0001
0000
0000
1000
0000
0000
,  // measure 229
0010
0010
0010
1000
0100
0100
0010
0001
,  // measure 230
1000
0100
1000
0010
0100
0100
0001
0010
,  // measure 231
0100
1000
0100
0001
0100
0100
0010
0001
,  // measure 232
1000
1000
0010
0100
0001
0001
0010
0100
,  // measure 233
1000
0000
0000
1010
0000
0000
1000
0000
0000
0000
0010
0000
0001
0000
0000
0000
,  // measure 234
0110
0000
0000
0100
0000
0000
0101
0000
0100
0000
0000
0001
0000
0000
0001
0000
,  // measure 235
1001
0000
0000
0010
0000
0000
0101
0000
0000
0000
1000
0000
0100
0000
0000
0000
,  // measure 236
0011
0000
0001
0000
1000
0000
0000
0100
0000
1000
0001
0000
0101
0000
0100
0000
,  // measure 237
0100
0000
0000
1010
0000
0000
1000
0000
0000
0000
0001
0000
0010
0000
0000
0000
,  // measure 238
0101
0000
0000
0001
0000
0000
0011
0000
0010
0000
0000
1100
0000
0000
1000
0000
,  // measure 239
0010
0000
0000
0100
0000
0000
0110
0000
0000
0000
1000
0000
0010
0000
1000
0000
,  // measure 240
0001
0000
0001
0000
0001
0000
0001
0000
1000
0001
1000
0001
1000
0001
1000
0001
,  // measure 241
1000
1000
1100
0000
0100
0001
0100
0010
,  // measure 242
0001
0010
1000
0010
0110
0000
1100
0000
,  // measure 243
1001
0001
0001
0000
0100
0010
1000
0010
,  // measure 244
0100
0000
0101
0000
0001
0010
0001
0000
,  // measure 245
1100
0100
0100
0000
2010
0000
3002
0000
,  // measure 246
0013
1000
0010
0100
1100
0000
1010
0000
,  // measure 247
1000
0001
1000
0010
1000
0100
0001
0100
,  // measure 248
1100
0000
1000
0000
1000
0000
1000
0000
1010
0000
0000
0010
1000
0000
1000
0000
,  // measure 249
1001
1000
0010
0000
,  // measure 250
1000
1000
0010
0000
,  // measure 251
1000
0100
0010
0100
,  // measure 252
1000
0000
0001
0010
1000
0000
0010
0000
,  // measure 253
0001
0001
0010
0000
,  // measure 254
0001
0001
0010
0000
,  // measure 255
0100
0010
0001
0010
,  // measure 256
2000
0000
0000
0000
,  // measure 257
3000
0000
0100
0000
,  // measure 258
0000
0000
0100
0000
,  // measure 259
0000
0000
0100
0000
,  // measure 260
0000
0000
0001
0000
0000
0001
0000
0000
,  // measure 261
0000
0000
1000
0000
,  // measure 262
0000
0000
1000
0000
,  // measure 263
0000
0000
1000
0000
,  // measure 264
0000
0000
0001
0000
0020
0001
0000
0000
,  // measure 265
0000
0030
0000
0000
;
