#TITLE:Tension;
#SUBTITLE:;
#ARTIST:Kylie Minogue;
#TITLETRANSLIT:;
#SUBTITLETRANSLIT:;
#ARTISTTRANSLIT:;
#GENRE:Pop;
#CREDIT:Melody;
#MUSIC:Tension.ogg;
#BANNER:Tension.png;
#BACKGROUND:Tension-bg.png;
#CDTITLE:;
#SAMPLESTART:80.039;
#SAMPLELENGTH:22.281;
#SELECTABLE:YES;
#OFFSET:-0.039;
#BPMS:0.000=120.000
,143.000=240.000
,144.000=120.000
;
#STOPS:143.000=0.125
,143.500=0.125
;
#DISPLAYBPM:120.000;
#JACKET:Tension-jacket.png;
#BGCHANGES:-1.339=Tension.avi=1.000=1=0=0=StretchNoLoop==CrossFade==,
99999.000=-nosongbg-=1.000=0=0=0=StretchNoLoop====
;
#FGCHANGES:;

//--------------- dance-single - Melody Love ----------------
#NOTES:
     dance-single:
     Melody Love:
     Beginner:
     2:
     0,0,0,0,0:
0000
0000
0000
0000
,
0000
0000
0000
0000
,
0000
0000
0000
0000
,
0000
0000
0000
0000
,
0000
0000
0000
0000
,
0000
0000
0000
0000
,
0000
0000
0000
0000
,
0000
0000
0000
0000
,
1000
0000
0000
0000
,
1000
0000
0000
0000
,
0001
0000
0000
0000
,
0001
0000
0000
0000
,
1000
0000
0000
0000
,
1000
0000
0000
0000
,
0100
0000
0000
0000
,
0100
0000
0000
0000
,
0010
0000
0000
0000
,
0010
0000
0000
0000
,
0001
0000
0000
0000
,
0001
0000
0000
0000
,
0010
0000
0000
0000
,
0010
0000
0000
0000
,
0100
0000
0000
0000
,
0100
0000
0000
0000
,
1000
0000
1000
0000
,
0001
0000
0001
0000
,
1000
0000
1000
0000
,
0001
0000
0001
0000
,
0100
0000
0100
0000
,
0010
0000
0010
0000
,
0100
0000
0100
0000
,
0010
0000
0010
0000
,
1000
0000
0001
0000
,
0001
0000
1000
0000
,
1000
0000
0001
0000
,
0001
0000
1000
0010
,
0000
0100
0000
0010
,
0000
0100
0000
0010
,
0000
0100
0000
0010
,
0000
1000
0000
0001
,
0200
0000
0000
0300
,
0020
0000
0000
0030
,
2000
0000
0000
3000
,
0002
0000
0000
0003
,
2000
0000
3000
1000
,
0002
0000
0003
0001
,
0200
0000
0300
0100
,
0020
0000
0030
0010
,
0010
0000
0010
0000
,
1000
0000
0001
0000
,
0010
0000
0010
0000
,
0001
0000
1000
0000
,
1001
0000
0100
0000
,
0001
0000
1000
0000
,
0001
0000
0100
0000
,
0001
0000
1000
0000
,
0010
0000
0100
0000
,
0010
0000
0100
0000
,
0010
0000
1000
0000
,
0001
0000
1000
0000
,
0200
0000
0000
0300
,
0020
0000
0000
0030
,
0002
0000
0000
0003
;

//--------------- dance-single - Melody Love ----------------
#NOTES:
     dance-single:
     Melody Love:
     Easy:
     5:
     0,0,0,0,0:
0000
0000
0000
0000
,
0000
0000
0000
0000
,
0000
0000
0000
0000
,
0000
0000
0000
0000
,
0000
0000
0000
0000
,
0000
0000
0000
0000
,
0000
0000
0000
0000
,
0000
0000
0000
0000
,
1000
0000
1000
0000
,
0001
0000
0001
0000
,
1000
0000
1000
0000
,
0001
0000
0001
0000
,
0100
0000
0100
0000
,
0001
0000
0001
0000
,
1000
0000
1000
0000
,
0100
0000
0100
0000
,
0010
0000
0010
0010
,
0001
0000
0001
0001
,
1000
0000
1000
1000
,
0010
0000
0100
0000
,
0001
0100
0001
0000
,
1000
0100
1000
0000
,
0001
0001
1000
0000
,
1000
1000
0001
0000
,
1001
0000
0100
0000
,
0010
0100
0010
0000
,
1000
0001
1000
0000
,
0100
0000
0010
0000
,
0110
0000
0001
0000
,
1000
0001
1000
0000
,
0010
0100
0010
0000
,
2000
3002
0203
0000
,
0310
0010
0010
0010
,
1000
1000
1000
1000
,
0010
1000
0010
0010
,
1000
0010
1000
1000
,
0000
0101
1000
1000
,
0000
1100
0001
0001
,
0000
0101
1000
1000
,
0000
1100
0001
0000
,
1000
0001
0100
0100
,
0001
1000
0100
0100
,
1000
0001
0010
0010
,
0001
1000
0010
0010
,
0100
0001
0100
0100
,
0001
0100
0010
0010
,
1000
0100
0010
0010
,
0100
1000
0100
0000
,
1001
0000
1000
0001
,
1000
0000
0001
0100
,
0001
0000
1000
0010
,
1000
0000
0001
1000
,
1001
0001
0100
0100
,
0010
0010
1000
1000
,
0001
0001
0010
0010
,
0100
0100
1000
1000
,
0001
1000
0001
0100
,
0001
1000
0001
0010
,
0100
1000
0100
0010
,
0100
1000
0001
0010
,
0200
0000
0010
0310
,
0002
0000
1000
1003
,
0020
0000
0100
0100
,
0000
0030
0000
0000
0000
0000
0000
0000
0000
0000
0000
0000
0000
0000
0000
0000
0000
0000
0000
0000
0000
0000
0000
0000
0000
0000
0000
0000
0000
0000
0000
0000
0000
0000
0000
0000
0000
0000
0000
0000
0000
0000
0000
0000
0000
0000
0000
0000
;

//--------------- dance-single - Melody Love ----------------
#NOTES:
     dance-single:
     Melody Love:
     Medium:
     9:
     0,0,0,0,0:
0000
0000
0000
0000
,
0000
0000
0000
0000
,
0000
0000
0000
0000
,
0000
0000
0000
0000
,
0000
0000
0000
0000
,
0000
0000
0000
0000
,
0000
0000
0000
0000
,
0000
0000
0000
0000
,
1000
0001
0200
0000
0010
0000
0301
0000
,
0001
1000
0200
0000
0010
0000
1300
0000
,
1000
0001
0020
0000
0001
0000
0130
0000
,
1000
0001
0020
0000
0001
0000
0130
0000
,
0001
1000
0020
0000
0100
0000
1030
0000
,
1000
0001
0020
0000
0100
0000
0031
0000
,
0001
1000
0200
0000
1000
0000
0310
0000
,
0001
1000
0200
0000
1000
0000
0310
0000
,
2002
0000
0000
0000
3003
0000
0000
0100
0000
0001
0000
1000
0000
0000
0000
0000
,
1001
0000
0000
0000
0100
0000
0000
0010
0000
0001
0000
1000
0000
0000
0000
0000
,
1001
0000
0000
0000
0010
0000
0000
0100
0000
1000
0000
0001
0000
0100
0000
0020
,
0000
0100
1000
0130
,
0001
0000
1000
0100
1000
0000
0001
0000
,
0010
0000
0100
0010
0100
0000
1000
0001
,
0000
0002
0100
1003
0000
2000
0100
3001
,
0000
0002
0100
0000
1003
0000
1001
0000
,
0201
0000
0010
0000
0301
0100
0001
0000
,
1200
0000
0010
0000
1300
0100
1000
0000
,
0201
0000
0010
0000
0301
0010
0001
0000
,
1000
0001
0100
0000
0010
0000
0110
0000
,
1020
0000
0100
0000
1030
0100
0010
0000
,
0021
0000
0100
0000
0031
0100
0010
0000
,
1020
0000
0100
0000
1030
0010
0100
0000
,
0001
0001
0010
0000
0100
0000
0110
0000
,
1100
1000
1000
0000
0001
1000
0001
0000
,
0101
0001
0001
0000
1000
0001
1000
0000
,
2000
3010
0100
1001
,
0002
0000
0013
0000
0100
0000
0100
0100
,
1100
1000
0200
0000
0301
0100
1000
0000
,
0101
0001
0200
0000
1300
0100
0001
0000
,
2000
0010
3001
0000
0100
0001
1000
0000
,
0002
0010
1003
0000
0100
1000
0001
0001
,
0100
0000
0000
0000
0101
0000
0000
1000
0000
0001
1000
0000
0100
0000
0000
0000
,
1000
0000
0000
0000
1100
0000
0000
0001
0000
1000
0001
0000
0100
0000
0000
0000
,
0001
0000
0000
0000
0101
0000
0000
1000
0000
0001
1000
0000
0100
0000
0000
0000
,
0010
0100
0010
0100
2000
0000
3001
0000
,
0200
0000
0320
0000
0230
0000
0300
0001
0000
1000
0001
0000
0010
0000
0200
0000
,
0320
0000
0230
0000
0320
0000
0030
0001
0000
1000
0001
0000
0100
0000
0020
0000
,
0230
0000
0320
0000
0230
0000
0300
0001
0000
1000
0001
0000
0010
0000
0000
0000
,
0100
0010
0100
0010
0002
0000
1003
0000
,
0001
0100
0001
0000
1000
0100
1000
0000
,
0001
0100
0001
0001
1000
0100
1000
0000
,
0001
0010
0001
0000
1000
0010
1000
0000
,
0001
0010
0001
0001
1000
0000
1002
0000
,
0103
0000
0010
0000
0010
0000
0000
1000
0000
0001
0100
0000
0010
0000
0000
0000
,
1000
0000
0001
0000
0001
0000
0000
0010
0000
0100
1000
0000
0001
0000
0000
0000
,
0100
0010
0010
0000
0010
0100
0100
0000
,
0002
1000
0103
0000
0110
0000
0100
0100
,
0010
0000
0100
0000
0100
0000
0000
0001
0000
1000
0010
0000
0100
0000
0000
0000
,
0001
0000
1000
0000
1000
0000
0000
0100
0000
0010
0001
0000
1000
0000
0000
0000
,
0010
0100
0100
0000
0100
0010
0010
0000
,
2000
0010
3001
0000
0100
0010
0100
0100
,
0002
1000
0100
1003
,
2000
0100
0001
3100
,
0002
0010
1000
0023
,
0000
0030
0000
0000
0000
0000
0000
0000
0000
0000
0000
0000
0000
0000
0000
0000
0000
0000
0000
0000
0000
0000
0000
0000
0000
0000
0000
0000
0000
0000
0000
0000
0000
0000
0000
0000
0000
0000
0000
0000
0000
0000
0000
0000
0000
0000
0000
0000
;

//--------------- dance-single - Melody Love ----------------
#NOTES:
     dance-single:
     Melody Love:
     Hard:
     13:
     0,0,0,0,0:
0000
0000
0000
0000
,
0000
0000
0000
0000
,
0000
0000
0000
0000
,
0000
0000
0000
0000
,
0000
0000
0000
0000
,
0000
0000
0000
0000
,
0000
0000
0000
0000
,
0000
0000
0000
0000
,
1000
0000
0001
0000
0200
0000
0000
0010
0000
0000
0010
0000
0000
0310
0000
0000
,
1000
0000
0001
0000
0020
0000
0000
0100
0000
0000
0100
0000
0000
0130
0000
0000
,
0010
0000
0001
0000
2000
0000
0000
0010
0000
0000
0010
0000
0000
3001
0000
0000
,
0010
0000
0001
0000
2000
0000
0000
0010
0000
0000
0010
0000
0000
3001
0000
0000
,
0001
0000
1000
0000
0200
0000
0000
0010
0000
0000
0010
0000
0000
0310
0000
0000
,
0001
0000
1000
0000
0020
0000
0000
0100
0000
0000
0100
0000
0000
0130
0000
0000
,
0010
0000
1000
0000
0002
0000
0000
0010
0000
0000
0010
0000
0000
1003
0000
0000
,
0010
0000
1000
0000
0002
0000
0000
0010
0000
0000
0010
0000
0000
1003
0000
0000
,
1002
0000
0000
0000
0103
0000
0100
0010
0000
1000
0000
0001
0000
0010
0000
0210
,
0000
0000
0000
0000
1300
0000
0001
1000
0000
0010
0000
0100
0000
0001
0000
0021
,
0000
0000
0000
0000
0130
0000
1000
0010
0000
0100
0000
0001
0000
0010
0000
0200
,
0000
0000
0000
0000
1000
0000
0000
0001
0000
0000
1300
0000
0100
M100
0001
0000
,
0201
0000
0000
1300
0000
0100
0000
0001
0000
2000
0000
0000
3010
M010
0001
0000
,
0021
0000
0000
1030
0000
0010
0000
0001
0000
2000
0000
0000
3010
0000
1000
0000
,
0000
0102
0100
1003
0000
2100
0100
3001
,
0000
0102
0103
0000
0010
0000
0010
0000
,
0120
0000
0000
0000
1000
0000
0000
0100
0000
0000
0100
0000
0000
0130
0000
0000
,
0102
0000
0100
0000
1000
0000
0000
0010
0000
0000
0010
0000
0000
0013
0000
0000
,
2100
0000
0100
0000
0001
0000
0000
0010
0000
0000
0010
0000
0000
3010
0000
0000
,
0210
0001
1000
0301
,
2001
0000
0000
0000
0100
0000
0000
0001
0000
0000
0100
0000
0000
3001
0000
0000
,
0012
0000
0010
0000
0100
0000
0000
0010
0000
0000
0100
0000
0000
0013
0000
0000
,
2010
0000
0010
0000
0100
0000
0000
0010
0000
0000
0100
0000
0000
3010
0000
0000
,
0210
0000
1300
0100
0001
0100
0010
0000
,
0110
0000
0000
0000
1010
0000
0000
0101
0000
0100
010M
0000
1000
0000
0100
0000
,
0010
0000
0000
0000
0011
0000
0000
1100
0000
0100
M100
0000
0001
0000
0000
0000
,
0110
0000
0000
0000
0101
0000
0000
1010
0000
0010
M010
0000
0001
0000
0000
0000
,
1001
0000
0000
0000
1100
0000
0000
0011
0000
0001
0100
0000
0010
0000
0010
0000
,
0110
0000
1000
0000
0101
0000
0000
0011
0000
0010
001M
0000
1010
0000
0000
0000
,
0010
0000
1000
0000
0101
0000
0000
1010
0000
0010
M010
0000
0011
0000
0000
0000
,
1100
0000
0000
0000
0101
0000
0000
1100
0000
0100
M100
0000
0101
0000
0000
0000
,
2000
0000
3002
0000
0203
0000
0310
0010
,
0120
0000
1030
0000
0020
0000
0031
0010
0000
0100
0001
0000
1000
0000
0100
0000
,
0120
0000
0031
0000
0020
0000
1030
0010
0000
0100
1000
0000
0001
0000
0100
0000
,
0120
0000
1030
0000
0020
0000
0031
0010
0000
0100
0001
0000
1000
0000
0100
0000
,
0020
0000
0000
0031
0000
0000
2000
0000
0000
3100
0000
0000
0020
0000
0000
0000
0000
0000
0230
0000
0000
0000
0300
0000
,
0120
0000
0031
0000
0020
0000
1030
0010
0000
0100
01M0
0000
0001
0000
0100
0000
,
0120
0000
1030
0000
0020
0000
0031
0010
0000
0100
01M0
0000
1000
0000
0100
0000
,
0120
0000
0031
0000
0020
0000
1030
0010
0000
01M0
0100
0000
0001
0000
0100
0000
,
0020
0000
0000
1030
0000
0000
0002
0000
0000
0103
0000
0000
0020
0000
0000
0000
0000
0000
0230
0000
0000
0000
0300
0000
,
0120
0000
0000
0000
1030
0000
0000
0001
0000
0010
0100
0000
1000
0000
0001
0000
,
0101
0000
0000
0000
1000
0000
0000
0010
0000
0100
0001
0000
1000
0000
0100
0000
,
1100
0000
0000
0000
0001
0000
0000
1000
0000
0100
0010
0000
0001
0000
1000
0000
,
1010
0000
0000
0000
0001
0000
0000
0100
0000
0010
1000
0000
2002
0000
3003
0000
,
1001
0000
0100
0000
1001
0000
0000
1100
0000
0100
M100
0000
0101
0000
1000
0001
,
0100
0000
0010
0000
0110
0000
0000
1010
0000
0010
M010
0000
0011
0000
0001
1000
,
0100
0000
0010
0000
0110
0000
0000
0110
0000
00M1
0001
0000
0110
0000
1000
0100
,
0010
0000
0001
0000
0010
0000
1000
0010
0000
0001
0100
0000
0010
0000
0010
0000
,
1001
0000
0100
0000
1001
0000
0000
0101
0000
0100
010M
0000
1100
0000
1000
0001
,
0010
0000
0100
0000
0110
0000
0000
0011
0000
0010
001M
0000
1010
0000
0001
1000
,
0010
0000
0100
0000
0110
0000
0000
0110
0000
1M00
1000
0000
0110
0000
0001
0010
,
0100
0000
1000
0000
0100
0000
0001
0100
0000
1000
0010
0000
0100
0000
0100
0000
,
0200
0000
0000
0000
0010
0000
0000
0010
0000
0000
0310
0000
0010
0100
0000
0100
,
0002
0000
0000
0000
1000
0000
0000
1000
0000
0000
1003
0000
1000
0100
0000
0100
,
0020
0000
0000
0000
0100
0000
0000
0100
0000
0000
0130
0000
0100
0020
0000
0000
,
0000
0030
0000
0000
0000
0000
0000
0000
0000
0000
0000
0000
0000
0000
0000
0000
0000
0000
0000
0000
0000
0000
0000
0000
0000
0000
0000
0000
0000
0000
0000
0000
0000
0000
0000
0000
0000
0000
0000
0000
0000
0000
0000
0000
0000
0000
0000
0000
;
