#TITLE:ソリッド;
#SUBTITLE:;
#ARTIST:豚乙女;
#TITLETRANSLIT:Solid;
#SUBTITLETRANSLIT:;
#ARTISTTRANSLIT:BUTAOTOME;
#GENRE:Touhou;
#CREDIT:Melody Love;
#MUSIC:Solid.ogg;
#BANNER:Solid.png;
#BACKGROUND:Solid-bg.png;
#CDTITLE:;
#SAMPLESTART:53.660;
#SAMPLELENGTH:19.583;
#SELECTABLE:YES;
#OFFSET:0.000;
#BPMS:0.000=222.000
,327.000=111.000
,343.000=222.000
;
#STOPS:195.500=0.811
,327.000=0.270
,342.500=0.270
;
#JACKET:Solid-jacket.png;
#BGCHANGES:-0.500=Solid.avi=1.000=1=0=0=StretchNoLoop==CrossFade==,
99999=-nosongbg-=1.000=0=0=0 // don't automatically add -songbackground-
;
#FGCHANGES:;

//--------------- dance-single - Melody Love ----------------
#NOTES:
     dance-single:
     Melody Love:
     Beginner:
     3:
     0,0,0,0,0:
0000
0000
0000
0000
,
0000
0000
0000
0000
,
0000
0000
0000
0000
,
0000
0000
0000
0000
,
0000
0000
0000
0000
,
0000
0000
0000
0000
,
0000
0000
0000
0000
,
0000
0000
0000
0000
,
0000
0000
0000
0000
,
0000
0000
0000
0000
0000
0000
0000
0100
,
0000
0000
0000
0000
0000
0000
0000
0100
,
0000
0000
0000
0000
0000
0000
0000
0100
,
0000
0000
0000
0000
0000
0000
0000
0100
,
0000
0000
0000
0000
0000
0000
0000
0010
,
0000
0000
0000
0000
0000
0000
0000
0010
,
0000
0000
0000
0000
0000
0000
0000
0010
,
0000
0000
0000
0000
0000
0000
0000
0010
,
0000
0000
0000
0000
,
0100
0000
0000
0000
,
1000
0000
0000
0000
,
0100
0000
0000
0000
,
1000
0000
0000
0000
,
0001
0000
0000
0000
,
0100
0000
0000
0000
,
0001
0000
0000
0000
,
0100
0000
0000
0000
,
0010
0000
0000
0000
,
1000
0000
0000
0000
,
0010
0000
0000
0000
,
1000
0000
0000
0000
,
0001
0000
0000
0000
,
0010
0000
0000
0000
,
0001
0000
0000
0000
,
0020
0000
0000
0030
0000
0000
0000
0000
,
0200
0000
0000
0000
,
0300
0000
0000
0000
,
0020
0000
0000
0000
,
0030
0000
0000
0000
,
0001
0000
0000
0000
,
1000
0000
0000
0000
,
1001
0000
0000
0000
,
0000
0000
0000
0000
,
0200
0000
0000
0000
,
0300
0000
0000
0000
,
0020
0000
0000
0000
,
0030
0000
0000
0000
,
1000
0000
0000
0000
,
0001
0000
0000
0000
,
0200
0000
0000
0000
0000
0000
0000
0300
,
0000
0010
0000
0000
,
0000
0010
0000
0000
,
0000
0010
0000
0000
,
0000
0010
0000
0000
,
0000
1000
0000
0000
,
0000
1000
0000
0000
,
0000
1000
0000
0000
,
0000
1000
0000
0000
,
0000
0010
0000
0000
,
0000
0010
0000
0000
,
0000
0010
0000
0000
,
0000
0010
0000
0000
,
0000
0100
0000
0000
,
0000
0100
0000
0000
,
0000
0001
0000
0000
,
0000
1000
0000
0000
,
0000
2002
0000
0000
,
0000
0000
0000
0000
0000
3003
0000
0000
,
0000
0200
0000
0000
,
0000
0000
0300
0000
,
0000
0020
0000
0000
,
0000
0000
0030
0000
,
0000
0200
0000
0000
,
0000
0000
0300
0000
,
0000
0010
0000
0000
,
0000
0001
0000
0000
,
0000
0001
0000
0000
,
0000
1000
0000
0000
,
0000
1000
0000
0000
,
0000
0010
0000
0000
,
0000
0010
0000
0000
,
0000
0200
0000
0000
,
0000
0000
0000
0300
,
0000
0000
0000
0010
0000
0000
0000
0000
,
0000
0000
0000
0100
0000
0000
0000
0000
,
0000
0000
0000
0001
0000
0000
0000
0000
,
0000
0000
0000
1000
0000
0000
1000
0000
,
0000
0000
0000
1000
,
0000
0000
0000
1000
,
0000
0000
0000
0100
,
0000
0000
0000
0010
,
0000
0000
0000
0010
,
0000
0000
0000
0010
,
0000
0000
0000
0001
,
0000
0000
0000
0100
,
0000
0100
0000
0100
,
0000
0100
0000
0010
,
0000
0010
0000
0010
,
0000
0010
0000
1000
,
0000
1000
0000
1000
,
0000
1000
0000
0001
,
0000
0001
0000
0001
,
0000
0001
0000
2002
,
0000
0000
0000
0000
0000
0000
0000
3003
,
0000
0000
0000
0000
,
0000
0000
0000
0000
,
0000
0000
0000
0000
0000
0100
0000
0000
,
0000
0000
0000
0000
0000
0010
0000
0000
,
0000
0000
0000
0000
0000
0100
0000
0000
,
0000
0000
0000
0000
0000
0010
0000
0000
,
0000
0100
0000
0000
0000
0000
0020
0000
,
0000
0000
0000
0030
,
0000
2002
0000
3003
;

//--------------- dance-single - Melody Love ----------------
#NOTES:
     dance-single:
     Melody Love:
     Easy:
     6:
     0,0,0,0,0:
0000
0000
0000
0000
,
0000
0000
0000
0000
,
0000
0000
0000
0000
,
0000
0000
0000
0000
,
0000
0000
0000
0000
,
0000
0000
0000
0000
,
0000
0000
0000
0000
,
0000
0000
0000
0000
,
0000
0000
0000
0000
,
0000
0000
0000
0000
0000
0000
0000
1000
,
0000
0000
0000
0000
1000
0000
0000
0010
,
0000
0000
0000
0000
0010
0000
0000
0100
,
0000
0000
0000
0000
0100
0000
0000
0001
,
0000
0000
0000
0001
0000
0000
0000
1000
,
0000
0000
0000
0000
1000
0000
0000
0100
,
0000
0000
0000
0000
0100
0000
0000
0010
,
0000
0000
0000
0000
0010
0000
0000
0001
,
0000
0000
0000
0001
0000
0000
0000
0000
,
1000
0000
0001
0000
,
0100
0000
0100
0000
,
0001
0000
1000
0000
,
0100
0000
0100
0000
,
1000
0000
0001
0000
,
0010
0000
0010
0000
,
0001
0000
1000
0000
,
0010
0000
0010
0000
,
1000
0000
0001
0000
,
0100
0000
0100
0000
,
0001
0000
1000
0000
,
0010
0000
0010
0000
,
1000
0000
0001
0000
,
0010
0000
0010
0000
,
0001
0000
1000
0000
,
0200
0000
0000
0300
0000
0000
0000
0000
,
1000
0000
1000
0000
,
0001
0000
0100
0000
,
0001
0000
0001
0000
,
0100
0000
0010
0000
,
2000
0000
0000
0000
0000
3000
0000
0000
,
0002
0000
0000
0000
0000
0003
0000
0000
,
2002
0000
0000
0000
,
0000
3003
0000
0000
0000
0000
0000
0000
,
0001
0000
0001
0000
,
1000
0000
0010
0000
,
1000
0000
1000
0000
,
0010
0000
0100
0000
,
0002
0000
2003
0000
,
3002
0000
2003
0000
,
3001
0000
0000
0000
0000
0000
0000
1001
,
0000
1000
0000
0100
,
0000
1000
0000
0000
,
0000
0001
0000
0100
,
0000
0001
0000
0000
,
0000
0100
0000
0010
,
0000
0100
0000
0000
,
0000
0010
0000
0100
,
0000
0010
0000
0000
,
0000
1000
0000
0010
,
0000
1000
0000
0000
,
0000
0001
0000
0010
,
0000
0001
0000
0000
,
0000
0010
0000
0100
,
0000
0010
0000
0000
,
0000
0100
0000
0010
,
0000
0100
0000
0000
,
0000
1000
0000
1000
,
0000
1000
0000
0000
,
0000
0001
0000
0001
,
0000
0001
0000
0000
,
0000
0100
0000
0100
,
0000
0100
0000
0000
,
0000
0010
0000
0010
,
0000
0010
0000
0100
,
0000
0002
0000
1003
,
0000
2000
0000
3001
,
0000
0200
0000
0310
,
0000
0020
0000
0130
,
0000
2000
0000
3001
,
0000
0002
0000
1003
,
0000
0200
0000
0310
,
0000
0200
0000
0000
,
0000
0000
0000
0000
0000
0000
0300
0001
,
0000
0000
0000
1000
0000
0000
0000
0100
,
0000
0000
0000
0100
0000
0000
0000
0010
,
0000
0000
0000
0001
0000
0000
0000
1000
,
0000
0000
0000
0010
0000
0000
1000
0000
,
0000
0100
0000
1000
,
0000
0001
0000
0001
,
0000
0100
0000
0001
,
0000
1000
0000
0100
,
0000
0010
0000
0100
,
0000
1000
0000
0001
,
0000
0100
0000
0020
,
0000
0030
0000
0100
,
0010
0100
0000
0001
,
1000
0001
0000
0010
,
0100
0010
0000
0001
,
1000
0001
1000
0010
,
0100
0010
0000
0100
,
0010
0100
0000
0001
,
1000
0001
0100
0010
,
1000
0000
0100
0000
0010
0002
0000
0000
,
0000
0000
0000
0000
0000
0000
0000
0003
,
0000
0000
0000
0000
0000
0100
0000
0000
,
0000
0000
0100
0000
0000
0010
0000
0000
,
0000
0010
0000
0000
0000
1000
0000
0000
,
0000
0000
1000
0000
0000
0001
0000
0000
,
0000
0000
0001
0000
0000
0010
0000
0000
,
0000
0000
0010
0000
0000
0100
0000
0000
,
0000
0100
0000
0000
0000
0000
0200
0000
,
0000
0000
0000
0310
,
0000
2002
0000
3003
;

//--------------- dance-single - Melody Love ----------------
#NOTES:
     dance-single:
     Melody Love:
     Medium:
     11:
     0,0,0,0,0:
0000
0000
0000
0000
,
0000
0000
0000
0000
,
0000
0000
0000
0000
,
0000
0000
0000
0000
,
0000
0000
0000
0000
,
0000
0000
0000
0000
,
0000
0000
0000
0000
,
0000
0000
0000
0000
,
0000
0000
0000
0000
,
0000
0000
0000
0000
0000
0000
0000
0012
,
0000
1000
0000
0103
0000
0001
0000
0012
,
0000
1000
0000
0103
0000
0001
0000
0012
,
0000
1000
0000
0103
0000
0001
0000
1002
,
0000
0000
1003
0001
0000
0000
0000
2010
,
0000
0001
0000
3100
0000
1000
0000
2010
,
0000
0001
0000
3100
0000
1000
0000
2010
,
0000
0001
0000
3100
0000
1000
0000
0100
,
0000
0100
0000
0100
0000
0100
0000
0000
,
0010
0000
0000
0001
0000
0100
0010
0000
,
0010
0000
0000
1000
0000
0100
0010
0000
,
0010
0000
0000
0001
0000
0100
0010
0000
,
2000
0000
0002
3003
,
1001
0000
0000
0001
0000
1000
0100
0000
,
0100
0000
0000
0010
0000
0001
0100
0000
,
0100
0000
0000
0010
0000
1000
0100
0000
,
0020
0000
0200
0330
,
0110
0000
0000
0100
0000
1000
0001
0000
,
0001
0000
0000
0100
0000
0001
1000
0000
,
1000
0000
0000
0100
0000
1000
0001
0000
,
0200
0000
0020
0330
,
0110
0000
0000
0100
0000
0001
1000
0000
,
1000
0000
0000
0100
0000
1000
0001
0000
,
0001
0000
0000
0010
0000
0100
0000
2000
,
0000
0000
0000
3000
0000
0000
0000
0000
,
0001
0000
0001
0000
0001
0000
0000
1000
,
0000
0010
0100
0000
0001
0000
0000
0000
,
1000
0000
1000
0000
1000
0000
0000
0001
,
0000
0010
0100
0000
1000
0000
0000
0000
,
2200
0300
3001
0000
,
0202
0300
1003
0000
,
2020
0030
3001
0000
,
0001
0010
0100
0000
0010
0000
0000
0000
,
0100
0000
0100
0000
0100
0000
0000
0010
,
0000
0001
1000
0000
0010
0000
0000
0000
,
0100
0000
0100
0000
0100
0000
0000
0001
,
0000
1000
0100
0000
0010
0000
0000
0000
,
0100
1000
0100
0000
0010
0000
0001
0000
,
0100
0001
0100
0000
0010
0000
1000
0000
,
0100
0010
0000
0001
0000
1000
0000
1001
,
0000
0000
1000
0000
0100
0010
0000
0000
,
0001
0000
1000
0000
0010
0100
0000
0000
,
0001
0200
0320
0230
,
0302
2003
3000
0002
,
0003
0000
1001
0000
1000
0100
0000
0000
,
1000
0000
0010
0100
0000
0001
0000
0000
,
0010
0100
1000
0000
0010
0000
0100
0000
,
0002
2000
0000
0000
3003
0000
0000
0000
,
0000
0000
0001
0000
0010
0100
0000
0000
,
1000
0000
0001
0000
0100
0010
0000
0000
,
1000
0020
0230
0320
,
2030
3002
0003
2000
,
3000
0000
1001
0000
0001
0010
0000
0000
,
0001
0000
0100
0010
0000
1000
0000
0000
,
0100
0010
0001
0000
0100
0000
0010
0000
,
2000
0002
0000
0000
3003
0000
0001
1000
,
0000
0000
1002
0000
0000
0203
0000
0000
,
0320
0000
0000
2030
0000
0000
3100
0000
,
0100
0000
0210
0000
0000
0320
0000
0000
,
0032
0000
0000
2003
0000
0000
3010
0000
,
0010
0000
1020
0000
0000
2030
0000
0000
,
3200
0000
0000
0320
0000
0000
0031
0000
,
0001
0000
0012
0000
0000
0203
0000
0000
,
0320
0000
0000
2030
0000
0000
3001
0000
,
0000
0000
1000
0100
1000
0000
0001
0000
,
0000
1000
0000
0100
0010
0000
0001
0000
,
0011
0000
0001
0100
0001
0000
1000
0000
,
0000
0001
0000
0100
0010
0000
1000
0000
,
1010
0000
1000
0100
1000
0000
0010
0000
,
0000
0100
0000
0001
0010
0000
0100
0000
,
0110
0000
0010
0001
1000
0000
0020
0000
,
0130
2002
0000
0000
,
3003
0000
0000
0000
0001
0000
0000
1000
0000
0000
0001
0000
1000
0000
0200
0000
,
0000
1300
0000
0020
0000
0130
0000
0002
,
0203
0320
2030
3200
0000
0310
0000
0002
,
0000
0103
0000
2000
0000
3100
0000
0002
,
0203
0000
0320
0030
1000
0002
0000
0000
0000
0000
0003
0000
1001
0000
0000
0000
,
0010
0100
0000
0000
1000
0000
0001
0000
,
0100
0010
0000
0000
1000
0000
0020
0000
,
0230
0302
2003
3200
,
0300
0020
0030
0110
,
0010
0001
0000
0000
1000
0000
0100
0010
,
0000
0001
0000
0000
0100
0010
1000
0000
,
0100
0000
0010
0000
0002
2000
0000
0000
,
3003
0000
0000
0000
0000
0000
1000
0100
,
1000
0100
1000
0100
1000
0100
0010
0001
,
0010
0001
0010
0001
0010
0001
1000
0010
,
0100
0010
1000
0010
0100
0001
0010
0100
,
1000
0100
0010
0001
0100
0010
1000
0001
,
0010
0100
1000
0001
1000
0001
1000
0010
,
0100
0001
0010
0100
0010
0100
0010
0001
,
0010
0100
1000
0001
1000
0010
0100
0001
,
0010
0100
1000
0001
0100
0020
0000
1000
,
0000
0130
0000
0001
0000
0012
0000
1000
,
0000
0103
0000
0010
0000
0120
0000
1000
,
0000
0130
0000
0001
0000
1002
0000
0000
,
1003
0001
0000
0000
0000
0120
0000
0001
,
0000
0130
0000
1000
0000
2010
0000
0001
,
0000
3100
0000
0010
0000
0120
0000
0001
,
0000
0130
0000
1000
0000
0001
0000
0001
,
0000
1000
0000
1000
0000
0010
0200
0000
,
0000
0000
0300
0000
0000
0000
0000
0000
0000
0000
0000
0000
0010
0000
0000
1000
,
0000
0001
2002
0000
0000
0000
3003
0000
;

//--------------- dance-single - Melody Love ----------------
#NOTES:
     dance-single:
     Melody Love:
     Hard:
     14:
     0,0,0,0,0:
0000
0000
0000
0000
,
0000
0000
0000
0000
,
0000
0000
0000
0000
,
0000
0000
0000
0000
,
0000
0000
0000
0000
,
0000
0000
0000
0000
,
0000
0000
0000
0000
,
0000
0000
0000
0000
,
0000
0000
0000
0000
,
0000
0000
0000
0000
0000
0000
0000
0200
,
0000
1300
0001
0010
0000
0100
0000
0200
,
0000
1300
0001
0010
0000
0100
0000
0200
,
0000
1300
0001
0010
0000
0100
0000
0100
,
0000
1000
0001
0100
0000
0001
1000
0020
,
0000
1030
0001
0100
0000
0010
0000
0020
,
0000
1030
0001
0100
0000
0010
0000
0020
,
0000
1030
0001
0100
0000
0010
0000
1000
,
0000
1001
0000
0001
0000
1001
0000
0000
,
1000
0000
0000
0100
0000
1000
0001
0100
,
0001
0000
0000
0100
0000
0001
1000
0100
,
1000
0000
0000
0100
0000
1000
0001
0000
,
0200
0000
0020
0330
,
0110
0000
0000
0010
0000
1000
0001
0010
,
0001
0000
0000
0010
0000
0001
1000
0010
,
1000
0000
0000
0010
0000
1000
0001
0000
,
0020
0000
0200
0330
,
0110
0000
0000
0100
0000
1000
0100
1000
,
0010
0000
0000
0100
0000
0001
0100
0001
,
0010
0000
0000
0100
0000
1000
0100
0000
,
0020
0000
0200
0330
,
0110
0000
0000
0010
0000
0001
0010
0001
,
0100
0000
0000
0010
0000
1000
0010
1000
,
0100
0000
0100
0010
0000
0002
0000
2000
,
0000
0000
0000
3003
0000
0000
0000
0000
,
2000
0000
0001
0000
3100
0000
0000
0100
,
0000
0100
0010
0001
0000
1000
0000
0000
,
0002
0000
0010
0000
1003
0000
0000
1000
,
0000
1000
0010
0100
0000
0001
0000
0000
,
0102
0000
0013
0100
0000
1000
0000
2100
,
0000
3010
0000
0100
0000
0001
0000
0102
,
0000
0000
0010
0000
1003
0000
0001
0100
,
0010
0100
0001
0100
0010
1000
0100
0010
,
0002
0000
0100
0000
1003
0000
0000
1000
,
0000
0001
0100
0010
0000
0100
0010
0000
,
2000
0000
0100
0000
3001
0000
0000
0001
,
0000
1000
0100
0010
0000
0100
0010
0000
,
0100
1000
0100
1000
0001
0100
0001
0100
,
0010
1000
0010
1000
0001
0010
0001
0010
,
0100
1000
0000
0010
0000
0100
0000
1001
,
0000
0000
1001
0000
1000
0100
0000
0010
,
0100
1000
0001
0000
0001
0100
0000
0010
,
0100
0001
2000
0000
0100
0000
0001
0000
,
3010
1100
0010
0011
,
1000
0000
1001
0000
0001
1000
0000
0100
,
0010
0100
1000
0001
0000
1000
0000
0010
,
0100
0010
0200
0000
2300
0000
3200
0000
,
0302
2000
0000
0000
3003
0000
0000
0000
,
0000
0000
1001
0000
0001
0100
0000
0010
,
0100
0001
1000
0000
1000
0100
0000
0010
,
0100
1000
0002
0000
0010
0000
1000
0000
,
0103
0101
0010
1010
,
0001
0000
1001
0000
1000
0001
0000
0100
,
0010
0100
0001
1000
0000
0001
0000
0010
,
0100
0010
0200
0000
0302
0000
0203
0000
,
2300
0002
0000
0000
3003
0000
0001
1000
,
0000
0000
2100
0000
3002
0100
0000
2003
,
0010
0000
3002
0010
0000
2003
0100
3000
,
1001
0000
0012
0000
2003
0010
0000
3002
,
0100
0000
2003
0100
0000
3002
0010
0003
,
1001
0000
2010
0000
3200
0010
0000
2300
,
0010
0000
3200
0010
0000
2300
0010
3000
,
1001
0000
0102
0000
0203
0010
0000
0302
,
0010
0000
0203
0010
0000
0302
0013
0000
,
0000
0000
0100
1000
0100
1000
0001
0000
,
0001
1000
0000
1000
0001
0000
1002
0000
,
0103
0000
0100
0001
0100
0001
1000
0000
,
1000
0001
0000
0001
1000
0000
2001
0000
,
3100
0000
0010
0001
0010
0001
1000
0000
,
1000
0010
0000
0010
0100
0000
0120
0000
,
1030
0000
0000
0000
0010
0000
1000
0000
0010
0000
1000
0000
0002
0000
0000
0023
,
0000
0230
1300
0001
1000
0100
1000
0001
,
0100
0000
0001
0000
1000
0000
0000
0001
0000
0000
0100
0000
0102
0000
0023
0000
,
0000
0100
0000
0000
0130
0000
0020
0000
0000
0001
0000
0000
0031
0000
0020
0000
,
0230
0000
2300
0000
3020
0000
0230
0000
0000
0001
0000
0000
0301
0000
0200
0000
,
0000
1000
0000
0000
1300
0000
0200
0000
0000
0010
0000
0000
0310
0000
0200
0000
,
0302
0000
2003
3000
0100
0020
0000
0000
0000
0000
0030
0000
0110
0000
0000
0000
,
1000
0100
0000
0010
0001
0100
0010
0000
,
0010
0100
0000
0001
0100
0010
2000
0000
,
0100
0001
3010
1010
,
0100
0101
1000
1001
,
0001
1000
0000
0010
0100
0010
1000
0001
,
0000
0010
0000
0100
0010
0100
0020
0000
,
2030
0000
3020
0000
0032
2000
0000
0000
,
3003
0000
0000
0000
0000
0000
1020
0130
,
0001
0010
1000
0010
0001
0100
0201
0310
,
1000
0010
0001
0010
1000
0100
0020
0001
,
0130
1000
0020
1000
0130
0001
0020
0001
,
0130
1000
0020
1000
0130
0001
0102
0013
,
0100
1000
0010
0100
0001
0010
1200
0310
,
0001
0100
0010
1000
0100
0010
0021
0130
,
1000
0010
0100
0001
0010
0100
1200
0310
,
0001
0000
0100
0000
0010
0000
1000
0001
1000
0000
1100
0000
0000
0000
1000
0000
,
0100
0010
0000
0001
0000
1100
0000
1000
,
0100
0010
0000
0001
0000
1100
0000
1000
,
0100
0010
0000
0001
0000
0100
0000
1000
,
0100
0001
0000
1000
0001
0011
0000
0001
,
0010
0100
0000
1000
0000
0011
0000
0001
,
0010
0100
0000
1000
0000
0011
0000
0001
,
0010
0100
0000
1000
0000
0021
0000
1000
,
0000
0001
0000
1030
0000
0010
0200
0000
,
0000
0000
0300
0000
0000
0000
0000
0000
0000
0000
0000
0000
1100
0000
0000
0101
,
0000
0110
2002
0000
0000
0000
3003
0000
;

//--------------- dance-single - Unused Spike ----------------
#NOTES:
     dance-single:
     Unused Spike:
     Edit:
     14:
     0,0,0,0,0:
0000
0000
0000
0000
,
0000
0000
0000
0000
,
0000
0000
0000
0000
,
0000
0000
0000
0000
,
0000
0000
0000
0000
,
0000
0000
0000
0000
,
0000
0000
0000
0000
,
0000
0000
0000
0000
,
0000
0000
0000
0000
,
0000
0000
0000
0000
0000
0000
0000
0200
,
0000
1300
0001
0010
0000
0100
0000
0200
,
0000
1300
0001
0010
0000
0100
0000
0200
,
0000
1300
0001
0010
0000
0100
0000
0100
,
0000
1000
0001
0100
0000
0001
1000
0020
,
0000
1030
0001
0100
0000
0010
0000
0020
,
0000
1030
0001
0100
0000
0010
0000
0020
,
0000
1030
0001
0100
0000
0010
0000
1000
,
0000
1001
0000
0001
0000
1001
0000
0000
,
1000
0000
0000
0100
0000
1000
0001
0100
,
0001
0000
0000
0100
0000
0001
1000
0100
,
1000
0000
0000
0100
0000
1000
0001
0000
,
0200
0000
0020
0330
,
0110
0000
0000
0010
0000
1000
0001
0010
,
0001
0000
0000
0010
0000
0001
1000
0010
,
1000
0000
0000
0010
0000
1000
0001
0000
,
0020
0000
0200
0330
,
0110
0000
0000
0100
0000
1000
0100
1000
,
0010
0000
0000
0100
0000
0001
0100
0001
,
0010
0000
0000
0100
0000
1000
0100
0000
,
0020
0000
0200
0330
,
0110
0000
0000
0010
0000
0001
0010
0001
,
0100
0000
0000
0010
0000
1000
0010
1000
,
0100
0000
0100
0010
0000
0002
0000
2000
,
0000
0000
0000
3003
0000
0000
0000
0000
,
2000
0000
0001
0000
3100
0000
0000
0100
,
0000
0100
0010
0001
0000
1000
0000
0000
,
0002
0000
0010
0000
1003
0000
0000
1000
,
0000
1000
0010
0100
0000
0001
0000
0000
,
0102
0000
0013
0100
0000
1000
0000
2100
,
0000
3010
0000
0100
0000
0001
0000
0102
,
0000
0000
0010
0000
1003
0000
0001
0100
,
0010
0100
0001
0100
0010
1000
0100
0010
,
0002
0000
0100
0000
1003
0000
0000
1000
,
0000
0001
0100
0010
0000
0100
0010
0000
,
2000
0000
0100
0000
3001
0000
0000
0001
,
0000
1000
0100
0010
0000
0100
0010
0000
,
0100
1000
0100
1000
0001
0100
0001
0100
,
0010
1000
0010
1000
0001
0010
0001
0010
,
0100
1000
0000
0010
0000
0100
0000
1001
,
0000
0000
1001
0000
1000
0100
0000
0010
,
0100
1000
0001
0000
0001
0100
0000
0010
,
0100
0001
2000
0000
0100
0000
0001
0000
,
3010
1100
0010
0011
,
1000
0000
1001
0000
0001
1000
0000
0100
,
0010
0100
1000
0001
0000
1000
0000
0010
,
0100
0010
0200
0000
2300
0000
3200
0000
,
0302
2000
0000
0000
3003
0000
0000
0000
,
0000
0000
1001
0000
0001
0100
0000
0010
,
0100
0001
1000
0000
1000
0100
0000
0010
,
0100
1000
0002
0000
0010
0000
1000
0000
,
0103
0101
0010
1010
,
0001
0000
1001
0000
1000
0001
0000
0100
,
0010
0100
0001
1000
0000
0001
0000
0010
,
0100
0010
0200
0000
0302
0000
0203
0000
,
2300
0002
0000
0000
3003
0000
0001
1000
,
0000
0000
2100
0000
3002
0100
0000
2003
,
0010
0000
3002
0010
0000
2003
0100
3000
,
1001
0000
0012
0000
2003
0010
0000
3002
,
0100
0000
2003
0100
0000
3002
0010
0003
,
1001
0000
2010
0000
3200
0010
0000
2300
,
0010
0000
3200
0010
0000
2300
0010
3000
,
1001
0000
0102
0000
0203
0010
0000
0302
,
0010
0000
0203
0010
0000
0302
0013
0000
,
0000
0000
0100
1000
0100
1000
0001
0000
,
0001
1000
0000
1000
0001
0000
1002
0000
,
0103
0000
0100
0001
0100
0001
1000
0000
,
1000
0001
0000
0001
1000
0000
2001
0000
,
3100
0000
0010
0001
0010
0001
1000
0000
,
1000
0010
0000
0010
0100
0000
0120
0000
,
1030
0000
0000
0000
0010
0000
1000
0000
0010
0000
1000
0000
0002
0000
0000
0023
,
0000
0230
1300
0001
1000
0100
1000
0001
,
0100
0000
0001
0000
1000
0000
0000
0001
0000
0000
0100
0000
0102
0000
0023
0000
,
0000
0100
0000
0000
0130
0000
0020
0000
0000
0001
0000
0000
0031
0000
0020
0000
,
0230
0000
2300
0000
3020
0000
0230
0000
0000
0001
0000
0000
0301
0000
0200
0000
,
0000
1000
0000
0000
1300
0000
0200
0000
0000
0010
0000
0000
0310
0000
0200
0000
,
0302
0000
2003
3000
0100
0020
0000
0000
0000
0000
0030
0000
0110
0000
0000
0000
,
1000
0100
0000
0010
0001
0100
0010
0000
,
0010
0100
0000
0001
0100
0010
2000
0000
,
0100
0001
3010
1010
,
0100
0101
1000
1001
,
0001
1000
0000
0010
0100
0010
1000
0001
,
0000
0010
0000
0100
0010
0100
0020
0000
,
2030
0000
3020
0000
0032
2000
0000
0000
,
3003
0000
0000
0000
0000
0000
1020
0130
,
0001
0010
1000
0010
0001
0100
0102
0013
,
1000
0010
0001
1000
0010
0001
0021
1030
,
1200
0301
0201
1300
1020
0031
0021
1030
,
0100
0010
0001
0100
0010
1000
0102
0013
,
0100
1000
0010
0100
0001
0010
1200
0310
,
0001
0100
0010
1000
0100
0010
0021
0130
,
1000
0000
0010
0000
0100
0000
0001
0000
0010
0000
0100
0000
1000
0100
0010
0000
,
0001
0100
0010
0000
0100
0000
0001
0010
0100
0000
1100
0000
0000
0000
1000
0000
,
0100
0010
0000
0001
0000
1100
0000
1000
,
0100
0010
0000
0001
0000
1100
0000
1000
,
0100
0010
0000
0001
0000
0100
0000
1000
,
0100
0001
0000
1000
0001
0011
0000
0001
,
0010
0100
0000
1000
0000
0011
0000
0001
,
0010
0100
0000
1000
0000
0011
0000
0001
,
0010
0100
0000
1000
0000
0021
0000
1000
,
0000
0001
0000
1030
0000
0010
0200
0000
,
0000
0000
0300
0000
0000
0000
0000
0000
0000
0000
0000
0000
1100
0000
0000
0101
,
0000
0011
2020
0000
0000
0000
3030
0000
;
