#TITLE:Reiwa Memorial Kyoto Fireworks Expo 2019 Summer;
#SUBTITLE:;
#ARTIST:SLAVE.V-V-R feat. Julian Cabaret Opera Company;
#TITLETRANSLIT:Reiwa Memorial Kyoto Fireworks Expo 2019 Summer;
#SUBTITLETRANSLIT:;
#ARTISTTRANSLIT:SLAVE.V-V-R feat. Julian Cabaret Opera Company;
#GENRE:Vocaloid;
#CREDIT:Melody Love;
#MUSIC:Reiwa Memorial Kyoto Fireworks Expo 2019 Summer.ogg;
#BANNER:Reiwa Memorial Kyoto Fireworks Expo 2019 Summer.png;
#BACKGROUND:Reiwa Memorial Kyoto Fireworks Expo 2019 Summer-bg.png;
#CDTITLE:;
#SAMPLESTART:108.442;
#SAMPLELENGTH:30.000;
#SELECTABLE:YES;
#OFFSET:-0.212;
#BPMS:0.000=74.750
,8.000=149.500
,20.000=74.750
,24.000=149.500
,88.000=74.750
,90.000=149.500
,94.000=74.750
,96.000=149.500
,108.000=74.750
,109.000=149.500
,141.000=74.750
,143.000=149.500
,148.000=74.750
,149.500=149.500
,150.500=74.750
,152.000=149.500
,158.000=74.750
,159.000=149.500
,195.000=74.750
,207.000=149.500
,217.000=74.750
,221.000=149.500
,288.000=74.750
,291.000=149.500
,323.000=74.750
,326.000=149.500
;
#STOPS:100.000=0.610
,102.500=0.610
,105.000=1.190
,207.000=0.610
,209.500=0.610
,212.000=1.190
,285.000=1.200
,328.000=0.390
,331.000=0.390
;
#BGCHANGES:-0.216=Reiwa Memorial Kyoto Fireworks Expo 2019 Summer.avi=1.000=1=0=0=StretchNoLoop==CrossFade==,
99999.000=-nosongbg-=1.000=0=0=0=StretchNoLoop====
;
#FGCHANGES:;

//--------------- dance-single - Melody Love ----------------
#NOTES:
     dance-single:
     Melody Love:
     Beginner:
     5:
     0,0,0,0,0:
0000
0000
0000
0000
,
0000
0000
0000
0000
,
2000
0000
3000
0000
,
0200
0000
0300
0000
,
2000
0000
3000
0000
,
0020
0000
0000
0030
,
0100
0000
0100
0000
,
0010
0000
0010
0000
,
1000
0000
1000
0000
,
2002
0000
0000
3003
,
0100
0000
0100
0000
,
0010
0000
0010
0000
,
1000
0000
1000
0000
,
0001
0001
0001
0000
,
0100
0000
0000
0000
0200
0300
0000
0000
,
0010
0000
0010
0000
0020
0030
0000
0000
,
1000
0000
0000
0000
2000
3000
0000
0000
,
0001
0000
0001
0000
0002
0003
0000
0000
,
0100
0000
0000
0000
0200
0300
0000
0000
,
0001
0000
0001
0000
0002
0003
0000
0000
,
0010
0000
0010
0000
,
1000
0000
1000
0000
2000
3000
0000
0000
,
0020
0000
0030
0000
,
0000
0000
0200
0000
,
0300
0000
0000
0000
,
0002
0003
0000
0000
0000
0000
0000
0000
0000
0000
2000
3000
0000
0000
0000
0000
,
0000
0000
0000
0000
2002
3003
0000
0000
0000
0000
0000
0000
0000
0000
0000
0000
,
0200
0301
0000
0001
,
0000
0010
0000
0010
,
0000
0100
0000
0100
,
0000
1000
1000
1000
,
0000
0001
0000
0001
,
0000
0100
0000
0100
,
0000
0010
0000
0010
,
0000
1000
1000
1000
,
0000
0002
0003
1000
,
0000
0000
2002
3003
0000
0000
1000
0000
,
0002
0000
0003
0001
0000
2000
0000
3000
,
0100
0100
0010
0010
,
1000
0000
0000
0000
2000
3000
0001
0000
,
0000
0200
0300
0100
,
0000
0020
0030
1000
,
0000
0000
0200
0000
0300
0000
2000
3000
,
0000
0000
2000
3000
0000
0000
0010
0000
,
0000
0100
0000
0010
,
0000
0200
0300
0010
,
0100
0000
0020
0030
0000
0000
1000
0000
,
0000
0001
0000
1000
,
0001
1000
0000
0020
,
0030
0200
0300
0002
,
0003
0000
2000
0000
3000
0000
0020
0030
,
0200
0000
0300
0000
0020
0000
0030
0000
2000
0000
3000
0000
0002
0003
0000
0000
,
0000
0000
0000
0000
0000
0000
2000
3000
0000
0000
0000
0000
0000
0000
0000
0000
,
2002
3003
0000
0000
0000
0000
0000
0000
0000
0000
0000
0000
0000
0000
0000
0000
,
0000
0200
0000
0000
,
0300
0100
0100
0000
,
0100
0001
0001
0000
,
0001
0100
0000
0100
,
0000
0200
0000
0000
,
0300
0010
0010
0100
,
0000
0001
0001
1000
,
0000
2000
0000
3002
,
0000
2003
0000
0000
,
3000
1000
1000
1000
,
1000
0010
0010
0010
,
0010
0100
0100
0100
,
0100
0200
0000
0000
,
0300
0001
0001
0001
,
0001
1000
1000
1000
,
1000
0100
0100
0100
,
0100
0200
0000
0000
,
0300
0000
0000
0000
2000
3000
0000
0000
0100
0000
0000
0000
0000
0000
0000
0000
,
0200
0000
0000
0000
0000
0000
0000
0300
0000
0010
0000
0000
,
0010
0010
0000
0100
,
0100
0100
0000
1000
,
1000
1000
0000
0001
,
0001
0000
1001
0000
,
1000
1000
0100
0000
,
0001
0001
1000
0000
,
0010
0010
0000
0110
,
0000
0110
0000
2000
,
0002
3003
0001
0001
,
2002
3003
0000
0000
1000
0000
0000
0000
1000
0000
0000
0000
2002
0000
3003
0000
;

//--------------- dance-single - Melody Love ----------------
#NOTES:
     dance-single:
     Melody Love:
     Easy:
     7:
     0,0,0,0,0:
0000
0000
0000
0000
,
0000
0000
0000
0000
,
1000
0000
2000
3000
1000
0000
0010
0000
,
0100
0000
0200
0300
0100
0000
0001
0000
,
0010
0000
0020
0030
0010
0000
0100
0000
,
0200
0000
0000
0300
,
0000
0100
0000
0100
0000
0100
0000
1000
,
0000
0010
0000
0010
0000
0010
0001
0000
,
0000
1000
0000
1000
0000
1000
0000
0100
,
0010
0110
0100
0110
,
0000
0100
0000
0100
0000
0100
0000
1000
,
0000
0001
0000
0001
0000
0001
0100
0000
,
0000
0100
0000
0100
0000
0100
0000
0001
,
1000
0001
1001
0000
,
0100
0000
0010
0000
0200
0300
1000
0000
,
1000
0000
0200
0300
0100
0000
1000
0100
,
1000
0001
0001
0100
,
0100
0000
0000
0000
0010
0000
0000
0000
0020
0030
0000
0000
0000
0000
0000
0000
,
0200
0300
0010
0000
0020
0030
1000
0000
,
1000
0000
0100
0000
0100
0000
0001
0100
,
0001
0010
0010
0100
,
0100
0000
0000
0000
1000
0000
0000
0000
2000
3000
0000
0000
0000
0000
0000
0000
,
0020
0000
0030
0000
0200
0000
0000
0300
1000
0000
0000
0000
0001
0000
0000
0000
,
1000
0000
0000
0000
0001
0000
0000
0000
0200
0000
0300
0000
0020
0000
0000
0030
,
0100
0010
0100
0010
,
2002
3003
0000
0000
0000
0000
0000
0000
0000
0000
2002
3003
0000
0000
0000
0000
,
0000
0000
0000
0000
2002
3003
0000
0000
0000
0000
0000
0000
0100
0000
0000
0000
,
0200
0301
0001
1000
,
1000
0010
0010
0001
,
0001
0000
0020
0030
0000
0000
0010
0000
,
0100
1000
0100
1100
,
1000
0001
0001
0010
,
0010
0100
0100
1000
,
1000
0100
0010
0010
,
0100
1000
0001
0110
,
0100
0002
1003
0010
,
0100
0000
0220
0330
0000
0000
1000
0000
,
2002
0000
3003
0001
0000
2002
0000
3003
,
0100
0010
0100
0110
,
0010
0000
1000
0000
2020
3030
1000
0000
,
1000
0000
0200
0300
0000
0000
0100
0000
,
0100
0020
0000
0031
,
0100
0000
0020
0030
0200
0300
0002
0003
,
0002
0003
0002
0003
0200
0300
0010
0000
,
0010
0100
0100
1000
,
0001
0000
0200
0000
0000
0300
0100
0010
,
0100
0000
0020
0030
0000
0000
1000
0000
,
0010
0100
0001
1000
,
0001
0000
1001
0000
0000
0000
0020
0030
,
0002
0003
0002
0000
0003
0000
0200
0300
,
2000
3000
2000
0000
3100
0000
0020
0030
,
0200
0000
0300
0000
2000
0000
3000
0000
0002
0000
0003
0000
2002
3003
0000
0000
,
0000
0000
0000
0000
0000
0000
2002
3003
0000
0000
0000
0000
0000
0000
0000
0000
,
2002
3003
0000
0000
0020
0000
0000
0000
0000
0000
0000
0000
0000
0000
0000
0000
,
0030
0200
0000
0000
,
0000
0300
0100
0000
0100
0000
0010
0000
,
0100
0001
1000
0001
,
0001
0000
0200
0300
0000
0010
0100
0000
,
0020
0030
1000
0000
1001
0000
0001
0000
,
1001
1000
1000
0100
,
0010
0001
1000
0100
,
0100
2000
3020
0230
,
0302
1003
1001
0001
,
1001
0100
0010
1000
,
0001
0010
0100
1000
,
0001
0100
0001
0010
,
0100
0100
0110
0010
,
0110
0100
1000
0010
,
1000
0010
0100
0001
,
0100
0010
1000
0100
,
0010
0001
0011
0001
,
2000
0000
0000
0000
0002
3003
0000
0000
0100
0000
0000
0000
0100
0000
0000
0000
,
0200
0000
0000
0000
0000
0000
0000
0300
0000
0001
0000
0000
,
0100
0010
1000
1000
,
0100
0010
0001
0100
,
0010
1000
0001
0001
,
1000
0001
1001
1000
,
0010
0100
0110
0010
,
1000
0001
1001
0001
,
0100
0010
0110
0100
,
0001
1000
1001
2000
,
0002
3003
0100
1000
,
2200
3300
0000
0000
0010
0000
0000
0000
0001
0000
0000
0000
0022
0000
0033
0000
;

//--------------- dance-single - Melody Love ----------------
#NOTES:
     dance-single:
     Melody Love:
     Medium:
     10:
     0,0,0,0,0:
0000
0000
0000
0000
,
0000
0000
2000
3000
,
1000
0010
0000
0000
2000
0000
3000
0000
1000
0000
0000
0000
0010
0000
0000
0000
,
0100
0001
0000
0000
0200
0000
0300
0000
0100
0000
0010
0000
0010
0000
0000
0000
,
1000
0010
0000
0000
2000
0000
3000
0000
1000
0000
0000
0000
0001
0000
0000
0000
,
2002
0000
0000
3003
,
0000
0100
1000
0100
0000
0100
1000
0100
,
0000
1000
1000
0100
1000
0100
0100
0000
,
0000
1000
0100
1000
0000
1000
0100
1000
,
1100
1000
0100
0101
,
0000
0100
0001
0100
0000
0100
0001
0100
,
0000
0001
0001
0100
0001
0100
0100
0000
,
0000
0001
0100
0001
0000
0001
0100
0001
,
1000
0001
1000
0000
1001
0000
0000
0000
,
0100
0000
0010
0100
2000
3000
1000
0100
,
0010
0000
0200
0300
0100
0000
1000
0100
,
1000
0000
0001
0100
0001
0000
1000
0100
,
1000
0000
0000
0000
0001
0000
0100
0000
0002
0003
0000
0000
0000
0000
0000
0000
,
0200
0300
0010
0100
0002
0003
0001
0100
,
0010
0000
0020
0030
0010
0000
1000
0010
,
1000
0000
0001
0010
0001
0000
1000
0010
,
1000
0000
0000
0000
0001
0000
0010
0000
0002
0003
0000
0000
0100
0000
0000
0000
,
0020
0000
1030
0000
0002
0000
0000
0003
1000
0100
0000
0000
0001
0010
0000
0000
,
1000
0100
0000
0000
0001
0100
0000
0000
0200
0000
0301
0000
2000
0000
0000
3000
,
0001
0100
0000
0000
1000
0010
0000
0000
0001
0100
0000
0000
1000
0010
0000
0000
,
2002
3003
0000
0000
0200
0000
0300
0000
0000
0000
2002
3003
0000
0000
0020
0000
,
0030
0000
0000
0000
2002
3003
0000
0000
0100
0000
0000
0000
0100
0000
0000
0000
,
0020
0230
0301
0000
0001
0000
1000
0010
,
1000
0000
1000
0000
1000
0000
0001
0100
,
0001
0000
0020
0030
0000
0100
0010
0000
,
0100
1100
1100
1100
,
0001
1000
0001
0000
0001
0000
0010
0001
,
0010
0000
0100
0000
0100
0000
1000
0100
,
1000
0000
1000
0100
0100
0000
0010
0100
,
0100
0110
0110
0110
,
1000
0000
0000
0000
0002
0000
0000
0000
1003
0000
0001
0000
0010
0000
0000
0100
,
0010
0000
0200
0300
1000
0000
1000
0001
,
2002
0000
3003
0001
1000
2002
0000
3003
,
1000
0001
1001
0000
0100
0010
0110
0000
,
0001
1000
1001
0000
0220
0330
1000
0100
,
1000
0010
0200
0300
0000
0010
0100
0010
,
0100
0000
0001
2000
0000
0000
3000
0001
,
0100
0001
0020
0030
0200
0300
1000
0200
,
0000
0320
0000
0000
0032
0000
0000
0203
0000
0000
0310
0000
0000
0000
1000
0000
,
0001
0001
1000
0000
0100
0100
1000
0000
,
0001
0001
0200
0000
0000
0300
0100
0010
,
0100
0000
0010
0000
2000
0000
3000
0001
0000
0000
0000
0000
1100
0000
0000
0000
,
0011
0000
1100
0000
0011
0000
1000
0001
,
1000
0001
1001
0000
0000
0000
0010
0100
,
0002
0003
0002
0000
0003
0000
0010
0100
,
1000
0000
0100
0000
0010
0100
0020
0030
0200
0000
0300
0000
0010
0000
0100
0000
,
1000
0000
0000
0000
0010
0000
1000
0000
0100
0000
0100
0000
2200
3300
0000
0000
,
2000
0000
3000
0000
0000
0000
0202
0303
0000
0000
0002
0000
0003
0000
0000
0000
,
2002
3003
0000
0000
0200
0000
0000
0000
0000
0000
0000
0000
0010
0000
0000
0000
,
0310
0010
0200
0000
0000
0000
0000
0000
,
0000
0300
0100
0000
0100
0000
1000
0100
,
1000
0000
0010
0000
0010
0000
0001
0010
,
0001
0000
0000
0000
0200
0000
0300
0000
0000
0000
0100
0010
0100
0000
0000
0000
,
0020
0030
1000
0000
0101
0000
0001
0000
,
1100
0000
1000
0000
1000
0000
0100
1000
,
0100
0000
0001
0000
0001
0000
0100
0001
,
0100
0000
0100
0001
0001
0000
0010
0100
,
0100
1000
1100
0001
,
0101
0000
0100
0100
0010
0000
1000
1000
,
0001
0000
0010
0010
0100
0000
1000
1000
,
0001
0000
0010
0010
0001
0000
0100
0100
,
0010
0100
0110
0001
,
1001
0000
0100
1000
0001
0000
0010
0001
,
1000
0000
0010
1000
0100
0000
0010
0001
,
0100
0000
0010
1000
0001
0000
0010
0001
,
1000
1000
1001
0010
,
0110
0000
0000
0000
0220
0330
0000
0000
0100
0000
0000
0000
1000
0000
0001
0000
,
0200
0000
0000
0000
0000
0000
0000
0000
0000
0000
0000
0000
0000
0000
0300
0000
0000
0000
0001
0000
0000
0100
0000
0000
,
0010
1000
1000
0100
0010
0000
0001
0010
,
0100
1000
1000
0100
0010
0000
0100
0010
,
0001
1000
1000
0010
0100
0000
0001
0000
,
1001
1001
1001
1010
,
0110
0101
0011
0110
,
1100
1010
0110
0101
,
0011
0110
1100
1001
,
1001
0000
1001
0000
1001
0000
2000
0001
,
0002
0000
3003
0000
0010
0100
1000
0010
,
0200
0300
0000
0000
0010
0000
0100
0000
0001
0000
0010
0000
0200
0000
0300
0000
;

//--------------- dance-single - Melody Love ----------------
#NOTES:
     dance-single:
     Melody Love:
     Hard:
     14:
     0.431,0.674,0.081,0.022,0.067:
0000
0000
0000
0000
,
0000
0000
2000
3000
,
1000
0010
0000
0010
1000
0000
0010
0000
1000
0000
0000
0000
0110
0000
0000
0000
,
0100
0001
0000
0001
0100
0000
0001
0000
0100
0000
0010
0000
0010
0000
0010
0000
,
1000
0010
0000
0010
1000
0000
0010
0000
1000
0000
0000
0000
0001
0000
0000
0000
,
2002
0000
0000
0000
0000
0000
0000
0000
0000
0000
0000
0000
3003
1000
0001
1000
,
0000
1100
1000
0100
0000
1100
1000
0100
,
0000
1100
1000
0100
1000
0100
1100
0000
,
0000
1100
0100
1000
0000
1100
0100
1000
,
1100
0110
0011
0101
,
0000
0101
0001
0100
0000
0101
0001
0100
,
0000
0101
0001
0100
0001
0100
0101
0000
,
0000
0101
0100
0001
0000
0101
0100
0001
,
1000
1000
1000
1000
1001
0000
0000
0000
,
0100
0000
0000
0100
0010
0000
0100
0000
2000
0000
3000
0000
1000
0000
0100
0000
,
0010
0000
0000
0100
0020
0000
0030
0000
0100
0000
0000
0000
1000
0000
0100
0000
,
1000
0000
0000
0001
0100
0000
0001
0000
0100
0000
0000
0100
1000
0000
0100
0000
,
1000
0000
0000
0001
0100
0000
0001
0000
0200
0300
0000
0000
0000
0000
0000
0000
,
0200
0000
0300
0000
0010
0000
0100
0000
0002
0000
0003
0100
0001
0000
0100
0000
,
0010
0000
0000
0100
0010
0000
0100
0000
0010
0000
0000
0000
1000
0000
0010
0000
,
1000
0000
0000
0001
0010
0000
0001
0000
0010
0000
0000
1000
0010
0000
1000
0000
,
0010
0000
0000
0001
0010
0000
0001
0000
0020
0030
0000
0000
0100
0000
0000
0000
,
2000
0000
3100
0010
0002
0000
0000
0003
1000
0100
1000
0000
0001
0010
0001
0000
,
1000
0100
1000
0000
0001
0100
0001
0000
0002
0000
0103
0010
2000
0000
0000
3000
,
0001
0100
0001
0000
1000
0010
1000
0000
0001
0100
0001
0000
1000
0010
1000
0000
,
2002
3003
0000
0000
0002
0000
0003
0000
0001
0000
2002
3003
0000
0000
2000
0000
,
3000
0000
1000
0000
2002
3003
0000
0000
0100
0000
0000
0000
0100
0000
0000
0000
,
0020
0000
0230
0000
1300
0000
0100
0000
1000
0000
0000
0001
0010
0000
0000
0001
,
0010
0000
0000
0000
1000
0000
0100
0000
1000
0000
0000
0001
0100
0000
0000
0001
,
0100
0000
0000
0000
0020
0000
0030
0000
0000
0000
0100
0010
1000
0000
0000
0000
,
0100
1100
1100
1100
,
0001
0000
1000
0000
0001
0000
1000
0000
0001
0000
0000
1000
0010
0000
0000
1000
,
0010
0000
0000
0000
0001
0000
1000
0000
0001
0000
0000
1000
0100
0000
0000
1000
,
0100
0000
0000
0000
1000
0000
0000
0100
1000
0000
0000
1000
0010
0000
0000
0010
,
0100
0101
0101
0101
,
1000
0000
0000
0000
0001
0000
0000
0000
0002
0000
0000
0000
1000
0000
0000
0000
1003
0000
0000
1000
0001
0000
0000
0000
0010
0000
0000
0000
0000
0000
0100
0000
,
0010
0001
2000
3000
1000
0000
1001
1001
,
1001
0010
0010
1001
1001
1001
0100
0100
,
1001
1001
1001
0000
0110
0110
0110
0000
,
1001
0000
0110
0000
1001
0000
0000
0000
0220
0000
0330
0010
1000
0000
0100
0000
,
1000
0010
0100
0001
0001
0100
0010
0100
,
0001
0010
0100
2000
0000
0000
3000
0001
,
0100
0000
0001
0000
0010
0000
0100
0000
0010
0000
0100
0000
1000
0000
0100
1000
,
0000
0100
0010
0000
0001
0010
0000
0100
1000
0000
0010
0000
0100
0000
0001
1000
,
0001
1000
0100
0010
0100
0010
0001
0001
,
1000
0000
1000
0000
0200
0000
0000
0000
0000
0000
0300
0000
1000
0100
0010
0000
,
0100
0000
0010
0000
0002
0000
0003
1000
0000
0000
0100
0000
1100
0000
0000
0000
,
0011
0000
1100
0000
0011
0000
1001
1001
,
1001
1001
1001
0000
0000
0000
0010
0100
,
0001
0100
0002
0000
0003
0000
0010
0100
,
1000
0000
0100
0000
0010
0100
0010
0100
2000
0000
3000
0000
0010
0000
0100
0000
,
0001
0000
0100
0000
0010
0000
1000
0000
0100
0000
0100
0000
2200
3300
0000
0000
,
1000
0000
0000
0000
0001
0000
0202
0303
0000
0000
0001
0000
0000
0000
1000
0000
,
2002
3003
0000
0000
0020
0000
0000
0000
0030
0000
0100
0001
0100
0000
0010
1000
,
0010
0000
0100
0001
2000
0000
0000
0000
0000
0000
0000
0000
0000
0000
0000
0000
,
0200
0000
3300
0000
0100
0000
0010
0000
0100
0000
0000
1000
0100
0000
0000
1000
,
0100
0000
0000
0000
0100
0000
0010
0000
0100
0000
0000
0001
0100
0000
0000
0001
,
0100
0000
0000
0010
0100
0000
0000
0100
1000
0000
0000
1000
0010
0000
0000
0010
,
0100
0000
0000
0100
0001
0000
0000
0000
0101
0000
0000
0000
0100
0000
0000
0000
,
0101
0000
0000
0000
0100
0000
0010
0000
0100
0000
0000
0001
0100
0000
0000
0001
,
0100
0000
0000
0000
0100
0000
0010
0000
0100
0000
0000
1000
0100
0000
0000
1000
,
0100
0000
0000
0010
0100
0000
0000
0100
0001
0000
0000
0001
0010
0000
0000
0010
,
0100
0000
0000
0100
1000
0000
0000
0000
1100
0000
0000
0000
0100
0000
0000
0000
,
1100
0000
0000
0000
0100
0000
0000
0100
0010
0000
0000
0010
0001
0000
0000
0001
,
0100
0000
0000
0100
0010
0000
0000
0010
1000
0000
0000
1000
0001
0000
0000
0001
,
0100
0000
0000
0100
0010
0000
0000
0010
1000
0000
0000
1000
0100
0000
0000
0100
,
0010
0000
0000
0010
0100
0000
0000
0000
0110
0000
0000
0000
1001
0000
0000
0000
,
0110
0000
0000
0000
0100
0000
0000
0100
0001
0000
0000
0001
0010
0000
0000
0010
,
0001
0000
0000
0001
1000
0000
0000
1000
0100
0000
0000
0100
1000
0000
0000
1000
,
0010
0000
0000
0010
0100
0000
0000
0100
0001
0000
0000
0001
0010
0000
0000
0010
,
0100
0000
0000
0100
1000
0000
0000
0000
1001
0000
0000
0000
0110
0000
0000
0000
,
1001
0000
0000
0000
0220
0330
0000
0000
0100
0000
0000
0001
1000
0000
0010
0000
,
0200
0000
0000
0000
0000
0000
0000
0000
0000
0000
0000
0000
0000
0000
0300
0000
0000
0000
0101
0000
0000
0100
0000
0000
,
0010
1000
1100
0100
0010
0001
0011
0010
,
0100
1000
1010
0100
0100
0000
0110
0100
,
0001
1000
1001
0010
0100
1000
1001
0000
,
1001
0000
1001
0000
1001
0000
1010
0010
,
0110
0000
0101
0001
0011
0000
0110
0100
,
1100
0000
1010
0010
0110
0000
0101
0001
,
0011
0000
0110
0100
1100
0000
1001
0000
,
1001
0000
1001
0000
1001
0000
2000
0100
,
3002
0200
0303
0000
1100
0010
0001
0010
,
2200
3300
0000
0000
0101
0000
0010
0000
1000
0000
0010
0000
0202
0000
0303
0000
;
