#TITLE:Junky Night Town Orchestra;
#SUBTITLE:;
#ARTIST:Surii feat. Len;
#TITLETRANSLIT:;
#SUBTITLETRANSLIT:;
#ARTISTTRANSLIT:;
#GENRE:Vocaloid;
#CREDIT:Melody Love;
#MUSIC:Junky Night Town Orchestra.ogg;
#BANNER:Junky Night Town Orchestra.png;
#BACKGROUND:Junky Night Town Orchestra-bg.png;
#CDTITLE:;
#SAMPLESTART:54.800;
#SAMPLELENGTH:20.500;
#SELECTABLE:YES;
#OFFSET:-0.278;
#BPMS:0.000=145.000
,250.000=72.500
,266.000=145.000
;
#STOPS:;
#BGCHANGES:-0.050=black-bg.png=1.000=1=0=0=StretchNoLoop==CrossFade==,
0.138=Junky Night Town Orchestra.avi=1.000=1=0=0=StretchNoLoop==CrossFade==,
99999.000=-nosongbg-=1.000=0=0=0=StretchNoLoop====
;
#FGCHANGES:;

//--------------- dance-single - Melody Love ----------------
#NOTES:
     dance-single:
     Melody Love:
     Beginner:
     5:
     0,0,0,0,0:
0000
0000
0000
0000
,
0000
0000
0001
0000
,
0100
0000
0020
0030
,
1000
1000
0001
0000
,
0100
0000
0020
0030
,
0100
0100
0001
0000
,
0010
0000
0200
0300
,
1000
1000
0010
0000
,
0100
0000
0002
0003
,
0020
0000
0130
0100
,
0100
0000
0010
0010
,
0010
0000
1000
1000
,
1000
0000
0001
0001
,
0001
1000
0100
0100
,
0100
0000
0010
0010
,
0010
0000
0001
0001
,
0001
0000
1000
1000
,
1000
0010
2000
3000
,
0020
0030
0200
0300
,
0002
0003
0100
0100
,
0010
0000
0001
0001
,
1000
0000
0002
0003
,
0200
0300
0020
0030
,
2000
3000
0100
0100
,
0010
0000
0010
0010
,
0100
0000
0220
0000
,
0330
0000
0020
0000
,
0000
0030
0100
0000
,
0100
0000
0100
0000
0002
0000
0000
0003
,
1000
0000
0001
0000
0200
0300
0000
0000
,
0020
0030
0000
0000
0200
0300
0000
0000
,
0002
0003
0000
0000
1000
0000
0000
0000
,
0100
0000
2000
0000
0000
3000
0000
0000
,
0010
0000
0000
0000
0000
0000
0000
0000
2002
0000
0000
0000
0000
3003
0000
0000
,
0020
0030
0200
0300
,
0020
0030
0100
0100
,
1000
0100
0010
0000
,
0010
0000
0000
0000
0000
0000
0000
0000
2002
0000
0000
0000
0000
3003
0000
0000
,
0200
0300
0020
0030
,
0200
0300
0002
0003
,
1000
0100
0010
0000
,
0100
0100
0200
0300
,
1000
0100
0010
0000
,
0010
0010
0001
0001
,
1000
1000
0020
0030
,
0010
0000
0100
0100
,
0001
0001
1000
1000
,
0010
0010
0100
0100
,
0100
0000
0010
0010
,
0010
0000
0002
0000
,
0000
0003
0100
0100
,
0100
0000
0020
0030
,
1000
0000
0001
0000
,
2002
3003
1000
0000
,
2000
3000
0001
0000
,
0002
0003
1001
0000
,
0020
0030
0100
0100
,
0100
0000
0100
0000
,
0200
0300
0010
0000
,
0020
0030
2002
3003
,
0010
0000
0000
0000
0000
0000
0000
0000
2002
0000
0000
0000
0000
0000
0000
3003
,
0000
0000
0000
0000
0000
0000
0000
0000
0200
0000
0000
0000
0000
0000
0000
0300
,
0000
0000
0100
0010
,
1000
0010
0100
0001
,
2000
3000
1000
0000
0100
0000
0010
0000
,
0001
1000
0010
0100
,
0200
0000
0300
0000
0000
0000
0000
0000
2002
0000
0000
0000
0000
3003
0000
0000
,
0020
0030
0200
0300
,
0020
0000
0030
0000
0020
0030
0100
0000
,
1000
0100
0010
0000
,
0001
0000
1000
1001
,
0200
0300
0020
0030
,
0200
0000
0300
0000
0200
0300
0001
0000
,
1000
0100
0010
0010
,
0100
0000
0100
0000
0200
0300
0001
0000
,
1000
0100
0010
0010
,
0100
0100
0001
0010
,
0001
0010
0100
1000
,
0100
1000
0001
1000
,
0001
0100
0020
0030
,
0220
0330
0000
0000
;

//--------------- dance-single - Melody Love ----------------
#NOTES:
     dance-single:
     Melody Love:
     Easy:
     8:
     0,0,0,0,0:
0000
0000
0000
0000
,
0000
0000
0001
1000
,
0100
0000
0000
0020
0000
0030
0001
0000
,
1000
1000
0001
1000
,
0100
0000
0000
0020
0000
0030
1000
0000
,
0100
0010
0100
0000
0100
0000
0010
0000
,
0100
0000
0000
2000
0000
3000
0010
0000
,
0100
0100
0010
0100
,
0010
0000
0000
0002
0000
0003
1000
0000
,
0020
0000
0130
0100
,
0100
0000
0100
0010
1000
0000
1000
0000
,
1000
0000
1000
0010
0100
0000
0100
0000
,
0200
0300
0001
1000
,
0100
0010
0100
0100
,
0100
0000
0100
0010
0001
0000
0001
0000
,
0001
0000
0001
1000
0100
0000
0100
0000
,
0200
0300
1000
0010
,
1000
0000
0020
0030
2000
0000
3200
0000
,
0320
0000
0000
0000
0032
0000
0000
0003
0020
0000
0000
0000
0230
0000
0000
0000
,
2300
0000
3000
0100
0010
0000
0010
0000
,
0100
0100
0001
0001
,
1000
1001
0002
0023
,
0230
2300
3200
0320
,
0032
0000
0003
0010
0100
0000
0100
0000
,
0010
0001
1000
1000
,
0010
0010
0220
0000
,
0330
0000
0020
0000
0230
0000
0000
0020
,
0000
0330
0000
0000
0100
0000
1000
0000
,
0010
0000
1000
0000
0002
0000
0000
0003
,
1000
0001
1000
0000
0200
0300
0000
0000
,
0010
0010
0000
0000
0100
0100
0000
0000
,
0001
0001
0000
0000
1000
0000
0000
0000
,
0100
0000
1000
2000
0000
3000
0000
0000
,
1000
0000
0000
0000
0001
0000
0000
0000
2002
0000
0000
0000
0000
3003
0000
0000
,
0020
0030
0000
0200
0000
0300
0010
0000
,
0020
0000
0030
0000
0200
0300
0001
0000
,
2000
3200
0320
0030
,
0001
0000
0000
0000
1000
0000
0000
0000
2002
0000
0000
0000
0000
3003
0000
0000
,
0200
0300
0000
0020
0000
0030
1000
0000
,
0002
0000
0003
0000
0020
0030
0010
0000
,
2000
3200
0310
0100
,
0100
0100
0100
0000
0200
0300
0010
0000
,
2000
3200
0310
0100
,
0010
0010
0010
0000
0001
0000
1000
0000
,
2000
3200
0320
0030
,
0010
0001
0100
0001
,
1000
0001
1000
0000
1000
0000
0010
0000
,
0010
0100
0010
0000
0100
0000
0010
0000
,
0100
0010
1000
0001
,
1000
0010
0020
0030
,
2000
3000
0100
0100
,
0010
0000
0010
0000
0200
0000
0000
0300
,
0001
0010
0001
0010
,
0200
0000
0300
1000
1000
0000
1000
0000
,
2000
0000
3000
0001
0001
0000
0001
0000
,
0002
0003
0110
0000
,
0020
0000
0030
0100
0100
0000
0001
0000
,
1000
0000
0001
0000
0100
0100
0100
0000
,
0200
0000
0310
0000
1000
1000
1000
0000
,
2000
0000
3001
0000
1001
0000
0000
0001
,
1000
0000
0000
0000
1000
0000
0000
0000
2002
0000
0000
0000
0000
0000
0000
3003
,
0000
0000
0000
0000
0000
0000
0000
0000
0200
0000
0000
0000
0000
0000
0000
0300
,
0000
0000
0000
0000
0000
0000
0000
0000
0100
0000
0100
0000
0010
0000
0000
1000
,
0000
0000
0010
0000
0010
0000
0000
0000
0100
0000
0100
0000
1000
0000
0000
2000
,
0000
0000
3000
0000
1000
0000
0100
0000
0010
0000
0100
0000
0010
0000
0000
1000
,
0000
0000
1000
0000
0010
0000
0000
0000
0010
0000
0010
0000
0001
0000
0000
0002
,
0000
0000
0003
0000
0010
0000
0100
0000
2002
0000
0000
0000
0000
3003
0000
0000
,
0020
0030
0000
0200
0000
0300
0001
0000
,
0020
0000
0030
0100
0020
0030
0100
0000
,
2000
3200
0320
0030
,
0001
0100
0010
0110
,
0200
0300
0000
0020
0000
0030
0001
0000
,
0200
0000
0300
0001
0200
0300
0100
0000
,
2000
0000
3200
0000
0310
0100
0010
0000
,
0100
0010
0100
0000
0200
0300
0010
0000
,
2000
0000
3200
0000
0310
0001
0010
0000
,
0100
1000
0100
0000
0010
0100
0010
0000
,
0100
0000
0010
0000
0001
1000
0001
0000
,
1000
0000
0001
0000
0100
0010
0100
0000
,
2000
3200
0320
0030
,
0220
0330
0000
0000
;

//--------------- dance-single - Melody Love ----------------
#NOTES:
     dance-single:
     Melody Love:
     Medium:
     13:
     0,0,0,0,0:
0000
0000
0000
0000
,
0000
0000
0000
0000
0000
0001
1000
0000
,
0100
0000
0000
0200
0000
0300
0020
0000
0030
0000
0001
0000
1000
0000
0000
0000
,
1000
0001
0000
0001
0000
1000
0001
0000
,
0100
0000
0000
0200
0000
0300
0020
0000
0030
0000
1000
0000
0001
0000
0000
0000
,
0100
0010
0100
0010
0000
0100
0010
0000
,
0010
0000
0000
2000
0000
3000
0002
0000
0003
0000
0100
0000
0010
0000
0000
0000
,
0010
0100
0000
0100
0000
0010
0100
0000
,
0100
0000
0000
0002
0000
0003
2000
0000
3000
0000
0001
0000
1000
0000
0000
0000
,
0020
0000
0130
0100
,
0100
0010
1000
0010
1000
0000
1000
0000
,
1000
0001
0100
0001
0000
0100
0100
0010
,
0200
0000
0300
0001
1000
0000
0100
0000
,
0010
0001
0010
0010
,
0010
0001
1000
0001
0100
0000
0100
0000
,
0100
0001
1000
0001
0000
1000
0000
0020
,
0230
0000
0300
0001
0000
0000
1000
0000
1000
0000
0010
0000
0010
0000
0100
0000
,
0010
0000
2000
3000
2000
0000
3200
0000
,
0320
0000
0000
0000
0032
0000
0000
0003
0000
0000
0020
0000
0000
0030
0200
0300
,
2000
0000
3000
0100
0010
0100
0010
0000
,
0100
0000
0100
0100
0000
0010
0010
0000
,
0001
1001
0002
0023
,
0230
0000
0000
0000
2300
0000
0000
3000
0000
0000
0200
0000
0000
0300
0020
0030
,
0002
0000
0003
0010
0100
0010
0100
0000
,
0010
0000
0001
0001
0000
0100
0100
0000
,
0010
0010
0220
0000
,
0330
0000
0020
0000
0230
0000
0000
0020
,
0000
0000
0330
0000
0000
0000
0010
0000
0100
0000
0010
0000
1000
0000
0000
0020
,
0000
0030
1000
0000
0002
0000
0000
0003
,
1000
0001
1000
0001
0200
0300
0000
0010
,
0010
0000
0000
0010
0000
0000
0100
0000
0100
0000
0000
0100
0000
0000
0001
0000
,
0001
0000
0000
0001
0000
0000
1000
0000
0000
0000
0000
0000
0000
0000
0100
0000
,
0100
0000
1000
2000
0000
3010
0000
0000
,
1000
0000
0100
0000
1000
0000
0000
0000
2002
0000
0000
0000
0000
3003
0000
0000
,
0020
0000
0030
0000
0000
0000
0200
0000
0000
0000
0310
0000
0100
0000
0000
0100
,
0000
0000
0002
0003
0000
0000
0001
0000
0200
0000
0300
0000
0100
0000
0000
0000
,
2000
0000
0000
3200
0000
0000
0320
0000
0000
0000
0000
0000
0030
0000
0000
0000
,
0001
0000
0010
0000
0001
0000
0000
0000
2002
0000
0000
0000
0000
3003
0000
0000
,
0200
0000
0300
0020
0000
0030
0200
0000
0000
0000
0310
0000
1000
0000
0000
0001
,
0000
0000
0002
0003
0000
0000
1000
0000
0020
0000
0030
0000
0010
0000
0000
0000
,
2000
0000
0000
3200
0000
0000
0320
0000
0031
0000
0000
0000
0010
0000
0100
0000
,
0010
0000
0000
0001
0000
0000
0010
0000
0200
0000
0300
0000
0100
0000
0000
0000
,
2000
0000
0000
3200
0000
0000
0320
0000
0130
0000
0000
0000
0010
0000
0100
0000
,
0010
0000
0000
0001
0000
0000
0000
0000
1000
0000
0010
0000
1000
0000
0000
0000
,
2000
0000
0000
3200
0000
0000
0320
0000
0030
0000
0000
0000
0100
0000
0100
0000
,
0010
0000
0001
0000
0100
0001
0010
0001
,
1000
0001
0100
0010
1000
0001
1000
0100
,
0010
0100
1000
0001
0000
0010
0010
0010
,
0100
0010
0001
1000
0001
0100
0010
1000
,
0010
0100
0010
0010
0020
0000
0030
2000
,
0000
0000
3000
0100
1000
0100
1000
0100
,
0010
0100
0010
0100
2000
0000
0000
3010
,
0010
0100
0010
0100
0001
1000
0100
0010
,
0001
2000
3000
1000
0010
1000
1000
0000
,
2000
0000
3001
0001
0010
0001
0001
0000
,
0200
0000
0310
0000
0110
0000
0000
0100
,
0020
0000
0030
0100
0100
0000
0001
0000
,
1000
0000
0001
1000
0100
0100
0100
0000
,
0200
0000
0310
0001
0001
0001
0001
0000
,
2000
0000
3001
0000
1001
0000
0000
1000
,
0010
0000
0000
0000
1000
0000
0000
0000
2002
0000
0000
0000
0000
0000
0000
3003
,
0000
0000
0000
0000
0000
0000
0000
0000
1000
0000
0000
0001
0000
0010
0000
0100
,
0000
0000
0000
0000
0000
0000
0000
0000
0100
0000
0100
0000
0010
0000
0000
1000
,
0000
0000
0100
0000
1000
0000
0000
0010
0000
0000
0000
0000
0000
0000
0001
0000
0100
0000
0000
0000
0100
0000
0000
0000
1000
0000
0000
1000
0000
0000
2000
0000
,
0000
0000
3000
0000
1000
0000
0100
0000
0010
0000
0100
0000
0010
0000
0000
1000
,
0000
0000
0100
0000
1000
0000
0000
0010
0000
0000
0000
0000
0000
0000
1000
0000
0010
0000
0000
0000
0010
0000
0000
0000
0001
0000
0000
0001
0000
0000
0002
0000
,
0000
0000
0003
0000
0010
0100
0010
0000
2002
0000
0000
0000
0000
3003
0000
0000
,
0020
0000
0030
0000
0000
0000
0200
0000
0000
0000
0310
0000
1000
0000
0000
0100
,
0000
0000
0020
0030
0000
0000
0100
0000
0020
0000
0030
0000
0100
0000
0000
0000
,
2000
0000
0000
3200
0000
0000
0320
0000
0000
0000
0000
0000
0030
0000
0000
0000
,
0001
0010
0100
0000
0110
0000
0110
0000
,
0200
0000
0300
0000
0000
0000
0020
0000
0000
0000
0130
0000
1000
0000
0000
0100
,
0000
0000
0020
0030
0000
0000
0001
0000
0200
0000
0300
0000
0100
0000
0000
0000
,
2000
0000
0000
3200
0000
0000
0320
0000
0031
0000
0100
0000
0010
0000
0100
0000
,
0001
0100
0001
0000
0200
0300
0010
0000
,
2000
0000
0000
3200
0000
0000
0320
0000
0130
0000
1000
0000
0100
0000
1000
0000
,
0100
1000
0100
0000
0010
0100
0010
0100
,
0010
0100
0010
0000
0001
1000
0001
1000
,
0001
1000
0001
0000
0100
0010
0100
0010
,
2000
0000
0000
3200
0000
0000
0320
0000
0030
0000
0000
0000
0100
0000
0000
0000
,
0220
0330
0000
0000
;

//--------------- dance-single - Melody Love ----------------
#NOTES:
     dance-single:
     Melody Love:
     Hard:
     15:
     0,0,0,0,0:
0000
0000
0000
0000
,
0000
0000
0000
0000
0000
0001
1000
0001
,
1000
0000
0000
0200
0000
0300
0020
0000
0030
0000
0001
0000
1000
0000
0010
0000
,
1000
0001
0100
0001
0000
1000
0001
1000
,
0001
0000
0000
0200
0000
0300
0020
0000
0030
0000
1000
0000
0001
0000
0010
0000
,
0100
1000
0001
0000
1000
0000
0001
0000
0000
0000
0100
0000
0010
0000
0100
0000
,
0010
0000
0000
2000
0000
3000
0002
0000
0003
0000
0100
0000
0010
0000
1000
0000
,
0010
0100
0001
0100
0000
0010
0100
0010
,
0100
0000
0000
0002
0000
0003
2000
0000
3000
0000
0100
0000
1000
0000
0001
0000
,
0020
0000
0000
0000
0000
0000
0000
0000
0130
0000
1000
0100
1000
0000
0100
0000
,
1000
0000
0010
0000
0010
0000
0010
0000
0000
0000
0100
0001
0100
0000
0100
0000
,
0100
0000
0010
1000
0010
0000
0010
0000
0000
0000
0100
0000
0100
0000
0010
0000
,
0200
0000
0300
0020
0000
0030
1000
0001
1000
0000
0100
0000
1000
0000
0100
0000
,
0010
0000
0100
0000
1000
0000
0000
0000
0000
0000
0010
0000
1000
0100
1000
0100
,
1000
0000
0001
1000
0001
0000
2000
3000
0000
0001
0100
0001
0100
0000
0010
0100
,
0020
0030
1000
0000
1000
0000
0002
0003
0000
0000
1000
1000
0000
0000
0020
0000
,
0230
0000
0300
0001
0000
0000
1000
0100
1000
0000
0010
0100
0010
0000
0100
0000
,
0010
2000
3001
0000
2000
0000
3200
0000
,
0320
0000
0000
0000
0031
0000
0002
0003
0000
0000
0020
0000
0000
0030
0200
0300
,
2000
3000
0000
2000
3000
0000
0100
0000
0010
0000
0100
0000
1100
0000
0100
0000
,
0100
1000
0100
0000
0010
0000
0011
0000
0000
0000
0010
0000
0010
0100
0000
0100
,
0000
0010
0001
1000
0002
0000
0023
0000
,
0230
0000
0000
0000
1300
0000
2000
3000
0000
0000
0200
0000
0000
0300
0020
0030
,
0002
0003
0000
0002
0003
0000
0010
0000
0100
0000
0010
0000
0011
0000
0010
0000
,
0010
0001
0010
0000
0100
0000
1100
0000
0000
0000
0100
0000
0100
0010
0000
0001
,
0000
0010
0100
1000
2002
0000
0000
0000
,
3003
0000
0000
0000
0020
0000
0000
0000
0230
0000
0000
0010
0000
0000
0020
0000
,
0000
0000
0330
0000
0000
0000
0010
0100
0001
0000
0010
0100
1000
0000
0000
0020
,
0000
0130
0001
1000
0002
0000
0000
0003
,
1000
0100
1000
0001
0202
0303
0000
1000
,
0010
0000
0100
0010
0000
0000
1000
0000
0100
0000
0010
0100
0000
0000
1000
0000
,
0010
0000
0100
0010
0000
0000
1000
0000
0000
0000
0000
0000
0000
0000
0100
0000
,
0100
1000
0001
2000
0000
3010
0000
1010
,
1000
0000
0100
0000
0010
0000
0001
0000
2002
3000
0000
0000
2000
0003
0000
0000
,
3200
0000
0300
0020
0000
0030
0200
0000
0000
0000
0310
0000
0001
0000
0000
0100
,
0000
0001
0200
0300
0000
0000
0001
0000
0200
0000
0300
0000
0100
0000
0010
0000
,
2000
0000
0000
3200
0000
0000
0320
0000
0000
0000
0000
0000
0030
0000
0000
0000
,
0001
0000
0010
0000
0100
0000
1000
0000
2002
0003
0000
0000
0002
3000
0000
0000
,
0203
0000
0300
0020
0000
0030
0200
0000
0000
0000
0310
0000
1000
0000
0000
0100
,
0000
1000
0200
0300
0000
0000
1000
0000
0020
0000
0030
0000
0010
0000
1000
0000
,
2000
0000
0000
3200
0000
0000
0320
0000
0031
0000
0100
0000
0010
0100
0010
0000
,
0100
0000
0100
0001
0000
0000
0010
0000
0200
0000
0300
0000
0100
0000
1000
0000
,
2000
0000
0000
3200
0000
0000
0320
0000
0130
0000
1000
0000
0010
0100
0010
0000
,
1000
0000
1000
0100
0000
0000
1000
0000
1000
0100
0010
0000
0001
0100
0010
0000
,
2000
0000
0000
3200
0000
0000
0320
0000
0030
0000
0100
0000
0100
0000
0100
0000
,
0010
0000
0000
0000
0001
0000
0000
0000
0100
0000
0001
0010
0001
0100
0001
1000
,
0001
0000
1000
0100
1000
0010
1000
0001
1000
0000
0001
1000
0010
1000
0001
0100
,
0001
0000
1000
0001
0100
0001
1000
0010
0000
0000
0010
0100
0010
0100
0010
0100
,
0010
1000
0010
1000
0001
0000
1000
0000
0001
0100
0001
0100
0010
0000
1000
0000
,
0010
0000
0010
0000
0100
0010
0100
0010
0200
0000
0000
0000
0300
0000
0002
0000
,
0000
0000
0000
0000
0003
0000
1000
0000
0100
1000
0100
0010
0100
0000
0100
1000
,
0100
0010
0100
0000
0100
1000
0100
0010
0002
0000
0000
0000
0000
0000
0013
0000
,
0010
0100
1000
0100
0010
0000
0010
0100
1000
0000
1000
0100
0010
0001
1000
0000
,
0001
0000
2002
0000
3003
0000
1000
0000
0001
0000
1000
0100
1000
0100
1000
0000
,
2000
3000
0200
0300
0020
0030
0001
0010
0001
0000
0010
0001
0010
0001
0010
0000
,
0020
0030
0200
0300
2000
3000
0100
0000
1000
0000
1100
0000
0000
0000
0100
0000
,
1000
0000
0100
1000
0000
0000
0010
0000
0100
0000
0010
0000
1000
0000
0001
0000
,
1000
0000
0000
0000
0001
0000
1000
0000
0100
0000
0100
1000
0100
0000
0100
1000
,
0200
0300
2000
3000
0020
0030
0100
0001
0100
0000
0100
0001
0100
0000
0100
0001
,
2000
3000
0200
0300
0020
0030
0001
0000
0010
0000
0011
0000
0000
0000
1000
0100
,
1000
0000
0010
0000
0100
0000
0100
0000
0202
0000
0000
0000
0000
0000
0000
0303
,
0000
0000
0010
0000
0010
0000
0000
0000
1010
1000
0000
0001
0000
1000
0000
0001
,
0101
0000
0000
0000
0010
0000
0000
0000
1000
0000
0000
0000
0001
0000
0000
0000
0100
0000
0000
0000
0100
0000
0000
0000
0010
0000
0000
0010
0000
0000
1000
0000
,
0000
0000
0100
0000
1000
0000
0000
0010
0000
0100
0001
0000
0000
0000
0001
0000
0100
0000
0000
0000
0100
0000
0001
0000
1000
0000
0000
1000
0000
0000
2000
0000
,
0000
0000
0000
0000
3000
0000
0000
0000
1000
0000
1000
0000
0100
0000
0100
0000
0010
0000
0000
0000
0100
0000
0000
0000
0010
0000
0000
0001
0000
0000
1000
0000
,
0000
0000
0100
0000
1000
0000
0000
0010
0000
0100
0001
0000
0000
0000
1000
0000
0010
0000
0000
0000
0010
0000
1000
0000
0001
0000
0000
0001
0000
0000
0002
0000
,
0000
0000
0003
0000
0010
0100
1000
0001
2002
3000
0000
0000
0200
0003
0000
0000
,
0320
0000
0030
2000
0000
3000
0200
0000
0000
0000
0310
0000
0001
0000
0000
0100
,
0000
0001
0020
0030
0000
0000
0100
0000
0020
0000
0030
0000
0100
0000
1000
0000
,
2000
0000
0000
3200
0000
0000
0320
0000
0000
0000
0000
0000
0030
0000
0000
0000
,
0001
0010
0100
1000
M00M
0000
2002
3000
,
0203
0000
0300
0002
0000
0003
0020
0000
0000
0000
0130
0000
1000
0000
0000
0100
,
0000
1000
0020
0030
0000
0000
0010
0000
0200
0000
0300
0000
0100
0000
0010
0000
,
2000
0000
0000
3200
0000
0000
0320
0000
0031
0000
0100
0000
0010
0100
0010
0000
,
0100
0000
0100
0001
0000
0000
0001
0000
0200
0000
0300
0000
0100
0000
0001
0000
,
2000
0000
0000
3200
0000
0000
0320
0000
0130
0000
1000
0000
0100
0010
0100
0000
,
1000
0000
1000
0100
0000
0000
1000
0100
0010
0100
1000
0100
0010
0000
0100
1000
,
0100
0010
0100
1000
0000
0000
0010
0100
0001
0100
0010
0100
0001
0000
0100
0010
,
0100
0001
0000
0010
0000
0000
1000
0100
1000
0100
0010
0001
1000
0100
1000
0100
,
2000
0000
0000
3200
0000
0000
0320
0000
0030
0000
0100
0000
0010
0000
0100
0000
,
0220
0330
0000
0000
;

//--------------- dance-single - Melody Love ----------------
#NOTES:
     dance-single:
     Melody Love:
     Challenge:
     17:
     0.636,0.994,0.052,0.043,0.62:
0000
0000
0000
0000
,
0000
0000
0000
0000
0000
0001
1000
0010
,
1000
0000
1000
0200
0000
0300
0020
0000
0030
0000
0100
0000
1000
0000
0100
0000
,
0001
0100
1000
0100
0000
1000
0001
0010
,
0001
0000
0001
0200
0000
0300
0020
0000
0030
0000
1000
0000
0001
0000
0010
0000
,
0100
1000
0001
0010
0100
1000
0001
0010
0000
0000
0100
0000
1000
0000
0100
0000
,
0010
0000
0010
0002
0000
0003
2000
0000
3000
0000
0001
0000
0010
0000
0001
0000
,
0100
0001
0010
0001
0000
0010
0001
0010
,
0100
0000
0100
2000
0000
3000
0002
0000
0003
0000
0010
0000
0001
0000
0001
0000
,
0020
0000
0000
0000
0000
0000
0000
0000
0130
0000
1000
0100
1000
0000
0100
1000
,
0100
0000
0010
0000
0010
0000
0010
0000
0000
0000
0010
0001
0010
0001
1000
0100
,
1000
0000
0100
1000
0100
0000
0100
0000
0000
0000
0100
0000
0100
0000
0010
0000
,
0200
0000
0300
0020
0000
0030
0001
0010
0001
0000
0100
0000
1000
0000
0100
0000
,
0001
0000
1000
0000
0100
0000
0000
0000
0000
0000
0100
0000
1000
0100
1000
0001
,
1000
0100
1000
0001
1000
0100
2000
3000
0000
0001
0100
0010
0100
0001
0100
0010
,
0200
0300
0001
0100
0001
0000
0001
0000
0000
0000
1000
1000
0000
0000
0020
0000
,
0230
0000
0300
0001
0000
0000
0100
1000
0100
0000
0010
0100
0010
0100
0010
0000
,
0100
0001
1001
0000
2000
0000
3200
0000
,
0320
0000
0000
0000
0031
0000
0002
0003
0000
0000
0020
0000
0000
0030
0200
0300
,
2000
3000
0001
2000
3000
0000
0100
0000
1010
0000
0100
0000
1010
0000
0100
0000
,
0100
0010
0100
1000
0010
0000
1010
0000
0000
0000
0010
0000
0010
0010
0000
1000
,
0000
0100
0010
0001
0002
0000
0023
0000
,
0230
0000
0000
0000
1300
0000
2000
3000
0000
0000
0200
0000
0000
0300
0020
0030
,
0002
0003
1000
0002
0003
0000
0010
0000
0101
0000
0010
0000
0101
0000
0010
0001
,
0010
0100
0010
0001
0100
0000
0101
0000
0000
0000
0100
0000
0100
0100
0000
0001
,
0000
0010
0100
1000
2002
0000
0000
0000
,
3003
0000
0000
0000
0020
0000
0000
0000
0230
0000
0000
0010
0000
0000
0020
0000
,
0000
0000
0330
0000
0000
0000
0010
0100
1000
0000
0100
0010
0001
0010
0000
0020
,
0000
0130
1000
0001
2000
0000
0100
3000
,
0100
0001
0100
1000
0202
0303
0000
1000
,
0100
0000
0010
0001
0000
0000
0001
0000
0100
0000
0010
1000
0000
0000
1000
0000
,
0100
0000
0010
0001
0000
0000
1001
0000
0000
0000
0000
0000
0000
0000
0100
1000
,
0100
1000
0001
2000
0000
3010
0000
0110
,
1000
0000
0100
0000
0010
0000
0001
0000
2002
3000
0000
0000
2000
0003
0000
0000
,
3200
0300
0100
0020
0000
0030
0200
0000
0000
0000
0310
0000
0001
0100
1000
0100
,
0000
0001
0200
0300
0000
0000
0001
0000
0200
0000
0300
0000
0010
0000
1000
0000
,
2000
0000
0000
3200
0000
0000
0320
0000
0000
0000
0000
0000
0030
0000
0000
0000
,
0001
0000
0010
0000
0100
0000
1000
0000
2002
0003
0000
0000
0002
3000
0000
0000
,
0203
0300
0100
0020
0000
0030
0200
0000
0000
0000
0310
0000
1000
0100
0001
0100
,
0000
1000
0200
0300
0000
0000
1000
0000
0020
0000
0030
0000
0010
0000
1000
0000
,
2000
0000
0000
3200
0000
0000
0320
0000
0031
0100
0001
0000
0010
0100
0010
0000
,
0100
1000
0100
1000
0000
0000
0010
0000
0200
0000
0300
0000
0100
0000
0010
0000
,
2000
0000
0000
3200
0000
0000
0320
0000
0130
1000
0100
0000
0010
0100
0010
0000
,
0001
0100
0001
0100
0001
0000
1000
0000
1000
0100
0001
0100
1000
0100
0001
0100
,
2000
0000
0000
3200
0000
0000
0320
0000
0030
0000
0100
0000
0100
0000
0100
0000
,
0010
0000
0000
0000
0001
0000
0000
0000
0100
0000
0001
0010
0001
0100
0001
1000
,
0010
0100
0001
1000
0010
0100
0001
1000
0010
0100
0001
1000
0010
1000
0001
0100
,
0010
0000
0000
1000
0000
0000
0001
0000
0000
0100
0000
0000
0010
0000
0000
1000
0000
0000
0001
0000
0000
0100
0000
0000
0000
0000
0000
0000
0000
0000
0001
0000
0100
0000
0001
0000
0100
0000
0010
0000
1000
0000
0010
0000
1000
0000
0001
0000
,
0010
1000
0010
0100
0001
0100
1000
0100
0001
0100
0001
0100
1000
0100
1000
0100
,
0010
0000
0000
0000
0010
0000
0000
0000
0010
0000
0000
0000
0100
0000
0000
0010
0000
0000
0100
0000
0000
0010
0000
0000
0200
0000
0000
0000
0000
0000
0000
0000
0000
0000
0000
0000
0300
0000
0000
0000
0000
0000
2000
0000
0000
0000
0000
0000
,
0001
0000
0001
0000
3001
0000
1000
0000
0100
1000
0100
0010
0100
1000
0100
0010
,
0100
1000
0100
0010
0100
1000
0100
0010
0002
0000
0000
0000
0000
0000
0013
0000
,
0010
0100
1000
0100
0010
0100
1000
0100
0010
0000
0010
0100
1000
0001
1000
0000
,
1001
0000
2002
0000
3003
0000
1000
0000
0001
0000
1000
0100
1000
0001
1000
0010
,
2000
3000
0200
0300
0020
0030
0001
0010
0001
0000
0010
0001
0010
0100
0010
1000
,
0020
0030
0200
0300
2000
3000
0100
0000
1100
0000
1100
0000
0000
0000
0100
0000
,
1000
0000
0100
1000
0000
0000
0001
0000
0010
0000
0001
0000
1000
0000
0010
0000
,
1000
0000
0000
0000
0001
0000
1000
0000
0100
0000
0100
1000
0010
0000
0100
1000
,
0020
0030
2000
3000
0020
0030
0100
0001
0010
0000
0100
0001
0010
0001
0100
0010
,
2000
3000
0200
0300
0020
0030
0001
0000
0011
0000
0011
0000
0000
0000
1000
0100
,
1000
0000
0010
0100
0010
0000
0100
0000
0102
0000
0000
0100
0000
0100
0000
0103
,
0000
0000
0010
0000
0010
0000
0000
0000
1010
1010
0000
1000
0000
1000
0000
0101
,
0101
0000
0000
0000
0010
0000
0000
0000
1000
0000
0000
0000
0001
0000
0000
0000
0200
0000
0300
0000
0200
0000
0300
0000
0020
0030
0000
0020
0030
0000
2000
0000
,
3000
0000
0200
0300
2000
3200
0300
0020
0000
0230
2300
0000
3000
0000
0002
0000
0203
0000
0300
0000
0200
0000
0302
0000
2003
3000
0000
2000
3000
0000
2000
0000
,
0000
0000
0000
0000
3000
0000
0000
0000
2000
3000
2000
3000
0200
0300
0200
0300
0020
0000
0000
0000
0200
0000
0330
0000
0020
0000
0000
0002
0033
0000
2000
0000
,
3000
0000
0200
0300
2000
3200
0300
0020
0000
0230
2300
0000
3000
0000
2000
0000
3020
0000
0030
0000
0020
0000
2030
0000
3002
0000
0000
2000
3000
0000
2000
0000
,
0000
0000
3003
0000
1100
0011
1100
0011
2002
3000
0000
0000
0200
0003
0000
0000
,
0320
0030
0010
2000
0000
3000
0200
0000
0000
0000
0310
0000
0001
0100
1000
0100
,
0000
0001
0020
0030
0000
0000
0100
0000
0020
0000
0030
0000
0010
0000
0100
0000
,
2000
0000
0000
3200
0000
0000
0320
0000
0000
0000
0000
0000
0030
0000
0000
0000
,
0001
0010
0100
1000
M10M
0000
2002
3000
,
0203
0300
0100
0002
0000
0003
0020
0000
0000
0000
0130
0000
1000
0100
0001
0100
,
0000
1000
0020
0030
0000
0000
0010
0000
0200
0000
0300
0000
0100
0000
0010
0000
,
2000
0000
0000
3200
0000
0000
0320
0000
0031
0100
0001
0000
0010
0100
0010
0000
,
0100
0010
0100
1000
0000
0000
0001
0000
0200
0000
0300
0000
0100
0000
0001
0000
,
2000
0000
0000
3200
0000
0000
0320
0000
0130
1000
0100
0000
0010
0100
0010
0000
,
0001
1000
0001
0100
0001
0000
1000
0100
0001
0100
1000
0100
0001
0100
1000
0100
,
0001
0100
1000
0010
0000
0000
1000
0010
0001
0010
1000
0010
0001
0010
1000
0010
,
0001
0010
0000
1000
0000
0000
0001
0100
1000
0100
0001
0100
1000
0100
0001
0100
,
2000
0000
0000
3200
0000
0000
0320
0000
0030
0000
0100
0000
0010
0100
0010
0000
,
0220
0330
0000
0000
;
