#TITLE:Poolside Bar;
#SUBTITLE:Huniepop 2;
#ARTIST:World of Wandag;
#TITLETRANSLIT:;
#SUBTITLETRANSLIT:;
#ARTISTTRANSLIT:;
#GENRE:;
#CREDIT:Melody Love;
#MUSIC:Huniepop - Poolside Bar.ogg;
#BANNER:Huniepop - Poolside Bar.png;
#BACKGROUND:Huniepop - Poolside Bar-bg.png;
#CDTITLE:;
#SAMPLESTART:9.697;
#SAMPLELENGTH:19.394;
#SELECTABLE:YES;
#OFFSET:-0.002;
#BPMS:0.000=198.000;
#STOPS:;
#BGCHANGES:;
#FGCHANGES:;

//--------------- dance-single - Melody Love ----------------
#NOTES:
     dance-single:
     Melody Love:
     Beginner:
     3:
     0,0,0,0,0:
0000
0000
0000
0000
,
0000
0000
0000
0000
,
0000
0000
0000
0000
,
0000
0000
0000
0000
,
0000
0000
0000
0000
,
0000
0000
0000
0000
,
0000
0000
0000
0000
,
1000
0001
1000
0000
,
0001
0000
0001
0000
,
2000
0000
0000
3000
,
1000
0000
1000
0000
,
0002
0000
0000
0003
,
0100
0000
0100
0000
,
0020
0000
0000
0030
,
0100
0000
0100
0000
,
0010
0000
0010
0000
,
1000
0000
1000
0000
,
0002
0000
0000
0003
,
0001
0000
0001
0000
,
2000
0000
0000
3000
,
0100
0000
0100
0000
,
0020
0000
0000
0030
,
0100
0000
0100
0000
,
0020
0000
0030
0000
,
0110
0000
0000
0000
,
0000
0000
0000
0000
,
0100
0000
0100
0000
,
1000
0000
0001
0000
,
0100
0000
0010
0000
,
0100
0000
0000
0220
,
0000
0000
0000
0000
0000
0300
0000
0000
,
0130
0000
0000
0010
,
0010
0000
1000
0000
,
1000
0000
0002
0003
,
0000
0000
0001
0000
,
0001
0000
2000
3000
,
0001
0000
1000
0000
,
0001
1000
0000
0200
,
0000
0000
0300
0000
,
0020
0000
0030
0100
,
0100
0000
1000
0000
,
0001
0000
1000
0000
,
0010
0000
0100
0000
,
0001
0000
1000
0000
,
1000
0000
0000
0000
1000
0000
0000
2000
,
0000
0000
3000
0000
,
0001
0000
0000
0000
0001
0000
0000
0002
,
0000
0000
0003
0000
,
0100
0000
0000
0000
0100
0000
0000
0200
,
0000
0000
0300
0000
,
0200
0300
0000
0010
,
0100
0000
0002
0003
,
0010
0000
0100
0000
,
0010
0000
0000
0220
,
0000
0000
0000
0000
0000
0030
0000
0000
,
0310
0000
0000
0100
,
0100
0000
0001
0000
,
0001
0000
2000
3000
,
0000
0000
1000
0000
,
1000
0000
0002
0003
,
1000
0000
0001
0000
,
1000
0001
0000
0020
,
0000
0000
0030
0000
,
0200
0000
0300
0010
,
0010
0000
0001
0000
,
1000
0000
0001
0000
,
0100
0000
0010
0000
,
1000
0001
1000
0000
,
0220
0000
0000
0030
,
0310
0000
0000
0000
,
2002
0000
0000
3000
,
1003
0000
0000
0000
,
0220
0000
0000
0030
,
0310
0000
0000
0000
0000
0000
0000
1000
,
0000
0000
0000
0001
0000
0000
0000
1000
,
0000
0000
0000
0001
0000
0000
0000
0000
,
1000
1000
1000
0000
,
0002
0000
0000
0003
,
0001
0001
0001
0000
,
2000
0000
0000
3000
,
0100
0100
0100
0000
,
0020
0000
0000
0030
,
0100
0000
0010
0000
,
0200
0000
0300
0000
,
0110
0000
0000
0000
,
0000
0000
0000
0000
,
0100
0000
0100
0000
,
1000
0000
0001
0001
,
0001
0000
0010
0000
,
0010
0000
1000
0000
,
0001
0000
1000
1000
,
1000
0000
0000
0000
,
0001
0000
0001
0001
,
0000
0000
1000
1000
,
0000
0000
0100
0100
,
0000
0000
0010
0010
,
0020
0000
0000
0000
,
0000
0000
0030
0000
;

//--------------- dance-single - Melody Love ----------------
#NOTES:
     dance-single:
     Melody Love:
     Easy:
     7:
     0,0,0,0,0:
0000
0000
0000
0000
,
0000
0000
0000
0000
,
0000
0000
0000
0000
,
0000
0000
0000
0000
,
1000
0000
1000
1000
,
0001
0000
0001
0001
,
0100
0000
0010
0010
,
1000
0001
1000
0001
,
1000
0000
1000
0000
0000
2000
0000
3200
,
0000
0320
0000
0032
0000
0000
0003
0000
,
0001
0000
0001
0000
0000
0002
0000
0023
,
0000
0230
0000
2300
0000
0000
3000
0000
,
1000
0000
1000
0000
0000
2000
0000
3200
,
0000
0320
0000
0032
0000
0000
0003
0100
,
0000
0100
0000
0010
0000
0010
0000
1000
,
0000
1000
0000
0200
0000
0000
0300
0000
,
0001
0000
0001
0000
0000
0002
0000
0023
,
0000
0230
0000
2300
0000
0000
3000
0000
,
1000
0000
1000
0000
0000
2000
0000
3200
,
0000
0320
0000
0032
0000
0000
0003
0000
,
0001
0000
0001
0000
0000
0002
0000
0023
,
0000
0230
0000
2300
0000
0000
3000
0010
,
0000
0010
0000
0100
0000
0100
0000
0002
,
0000
0000
0000
0003
0100
0020
0000
0000
,
0130
0000
0001
0001
,
1000
0000
0100
0100
,
0010
0000
0100
0100
,
1000
0000
0001
0001
,
0200
0000
0320
0000
,
2030
3002
0003
0200
,
0000
0000
0000
0000
0300
0000
0000
0200
,
0000
0300
0001
0000
0001
0000
0010
0000
,
0010
1000
0100
0010
,
0001
0000
0000
0002
0000
0003
0200
0000
,
0300
0001
0010
0100
,
1000
0000
0000
2000
0000
3000
0200
0000
,
0300
0001
0001
0010
,
0001
0002
0003
2000
,
0000
0000
0000
0000
3001
0000
1000
0002
,
0000
0000
0000
0103
,
0100
0010
0100
0010
,
0100
0020
0000
0230
,
0000
0000
0000
0000
0300
0000
0001
1000
,
0000
0000
1001
0000
,
1000
0000
0000
1000
0000
0020
0000
2030
,
0000
0010
3010
0000
,
0001
0000
0000
0001
0000
0200
0000
0302
,
0000
1000
1003
0000
,
0100
0000
0000
0100
0000
0010
0000
0200
,
0000
0000
0010
0000
0310
0000
0000
0200
,
0000
0000
0000
0300
0000
0000
0010
0100
,
0000
1000
0000
0002
0000
0003
0000
0000
,
2000
0000
3002
0000
,
0023
0230
0300
0020
,
0000
0000
0000
0000
0030
0000
0000
0020
,
0000
0030
1000
0000
1000
0000
0100
0000
,
0100
0001
0010
0100
,
1000
0000
0000
2000
0000
3000
0020
0000
,
0030
1000
0100
0010
,
0001
0000
0000
0002
0000
0003
0020
0000
,
0030
1000
1000
0100
,
1000
2000
3000
0002
,
0000
0000
0000
0000
1003
0000
0001
2000
,
0000
0000
0000
3010
,
0010
0100
0010
0100
,
0010
0200
0000
0320
,
0000
0000
0000
0000
0030
0000
1000
0001
,
1000
0001
1000
0001
,
1000
0000
0000
0110
0000
0000
0000
0020
,
0000
0000
0030
0200
0000
0300
0000
0000
,
0100
0000
0000
1001
0000
0000
0000
0002
,
0000
0000
0003
2000
0000
3000
0000
0000
,
0001
0000
0000
0110
0000
0000
0000
0200
,
0000
0000
0300
0020
0000
0030
0000
1001
,
0000
0000
0000
1001
0000
0000
0000
1001
,
0000
0000
0000
2002
0000
3003
0000
0000
,
1000
0000
1000
0000
0000
2000
0000
3020
,
0000
0230
0000
0302
0000
0000
0003
0000
,
0001
0000
0001
0000
0000
0002
0000
0203
,
0000
0320
0000
2030
0000
0000
3000
0000
,
1000
0000
1000
0000
0000
2000
0000
3020
,
0000
0230
0000
0302
0000
0000
0003
0010
,
0000
0010
0000
0100
0000
0100
0000
2000
,
0000
0000
0000
3000
0100
0020
0000
0000
,
0130
0100
0010
0010
,
1000
1000
0001
0001
,
0010
0010
0100
0100
,
1000
1000
0001
0001
,
0100
0100
0010
0010
,
1000
1000
0001
0001
,
0020
0032
0023
0230
,
2300
3000
0000
0000
,
0001
0000
0001
0001
,
1000
0000
1000
1000
,
0010
0000
0100
0100
,
0001
1000
0001
0000
,
2002
0000
0000
0000
,
0000
0000
3003
0000
;

//--------------- dance-single - Melody Love ----------------
#NOTES:
     dance-single:
     Melody Love:
     Medium:
     11:
     0,0,0,0,0:
0000
0000
0000
0000
,
0000
0000
0000
0000
,
0000
0000
0000
0000
,
0000
0000
0000
0000
,
1000
0001
0000
1000
0000
0100
0000
0010
,
0000
0001
0000
0001
0000
1000
0000
1000
,
0000
0100
0000
0010
0100
0010
0000
0001
,
2000
3020
2030
3020
,
1030
0000
1000
0100
0000
2000
0000
3200
,
0000
0320
0000
0032
0000
0000
0003
0000
,
0001
0000
0001
0010
0000
0002
0000
0023
,
0000
0230
0000
2300
0000
0000
3100
0000
,
1000
0000
1000
0100
0000
2000
0000
3200
,
0000
0320
0000
0032
0000
0000
0013
0200
,
0300
1000
0001
0020
0000
0030
0100
0020
,
0030
0001
1000
0200
0000
0300
1000
0000
,
0001
0000
0001
0100
0000
0002
0000
0023
,
0000
0230
0000
2300
0000
0000
3000
0000
,
1000
0000
1000
0010
0000
2000
0000
3200
,
0000
0320
0000
0032
0000
0000
0013
0000
,
0001
0000
0001
0100
0000
0002
0000
0023
,
0000
0230
0000
2300
0000
0000
3100
0020
,
0030
0001
1000
0020
0030
0100
0000
0020
,
0000
0000
0000
0030
0100
0020
0000
0000
,
0130
0100
0001
0001
,
1000
1000
0100
1100
,
1000
1000
0100
0100
,
0010
0010
0001
0011
,
0001
0200
0000
0300
0010
2000
0000
3000
,
0001
0100
0002
0000
1003
0000
0200
0000
,
0000
0000
0010
0000
0310
0000
0000
0200
,
0000
0300
2000
3000
0200
0300
0020
0030
,
0002
0003
1000
0001
1000
0100
1000
0001
,
1000
0000
1000
0002
0000
0003
0200
0300
,
0000
0000
0001
1000
0001
0100
0001
1000
,
0001
0000
0001
2000
0000
3000
0200
0300
,
0000
0000
0001
0010
0000
0100
0010
0000
,
0001
0000
0001
0010
0000
0100
1000
0000
,
0010
0000
0010
0100
0000
0001
1000
0000
,
0100
0000
0100
0010
0000
0100
1000
0000
,
0100
0020
0032
0023
,
0230
2300
0000
3020
,
0030
0000
1000
0100
0000
0010
0001
0010
,
0000
0100
1000
0100
0000
0010
0001
0000
,
1000
0000
1000
0010
0000
0020
0000
2030
,
0000
3010
0000
0020
0030
0100
0000
0200
,
0301
0000
0001
0100
0000
0200
0000
0302
,
0000
1003
0000
2000
3000
0001
0000
0002
,
1003
0000
1000
0100
0000
0200
0000
2300
,
0000
3100
0000
0200
0300
0010
0000
0020
,
0000
0000
0000
0030
0000
0000
0010
0100
,
0000
0100
1000
0002
0000
0003
0000
0000
,
1000
0020
0000
0030
0100
0002
0000
0003
,
1000
0010
2000
0000
3001
0000
0020
0000
,
0000
0000
0100
0000
0130
0000
0000
0020
,
0000
0030
0002
0003
0020
0030
0200
0300
,
2000
3000
0001
1000
0001
0010
0001
1000
,
0001
0000
0001
2000
0000
3000
0020
0030
,
0000
0000
1000
0001
1000
0010
1000
0001
,
1000
0000
1000
0002
0000
0003
0020
0030
,
0000
0000
1000
0100
0000
0010
0100
0000
,
1000
0000
1000
0100
0000
0010
0001
0000
,
0100
0000
0100
0010
0000
1000
0001
0000
,
0010
0000
0010
0100
0000
0010
0001
0000
,
0010
0200
2300
3200
,
0320
0032
0000
0203
,
0300
0000
0001
0010
0000
0100
1000
0000
,
2000
3200
2300
3020
,
2030
0000
3000
0200
0000
0010
0000
0020
,
0000
0000
0030
0010
0000
0000
0300
0000
,
0200
0000
0300
0020
0000
0100
0000
0200
,
0000
0000
0300
0100
0030
0000
0010
0000
,
0002
0000
0003
2000
0000
0001
0000
0002
,
0000
0000
0003
0001
3000
0000
0000
0202
,
0303
0000
0000
2020
3030
0000
0000
0022
,
0033
0000
0000
2200
0000
3300
0000
0000
,
1000
0000
1000
0010
0000
2000
0000
3200
,
0000
0320
0000
0230
0000
0000
0300
0000
,
0001
0000
0001
0100
0000
0002
0000
0023
,
0000
0230
0000
0320
0000
0000
0130
0000
,
1000
0000
1000
0010
0000
2000
0000
3200
,
0000
0320
0000
0230
0000
0000
0310
0200
,
0300
1000
0001
0200
0300
0010
0000
0200
,
0000
0000
0000
0300
0010
0200
0000
0000
,
0310
0010
1000
1000
,
0001
0001
0010
0011
,
0001
0001
0010
0010
,
0100
0100
1000
1100
,
0010
0010
0100
0100
,
0001
0001
1000
1001
,
0020
0032
0203
0320
,
2030
0000
3000
0000
0000
0010
0100
0000
,
0100
0000
0000
0010
0000
0100
0000
0001
,
0000
1000
0000
1000
0000
0001
0000
0001
,
0000
0100
0000
0010
0100
0010
0000
1000
,
0001
0010
0100
2000
,
0002
0000
0000
0000
,
0000
0000
3003
0000
;

//--------------- dance-single - Melody Love ----------------
#NOTES:
     dance-single:
     Melody Love:
     Hard:
     13:
     0,0,0,0,0:
0000
0000
0000
0000
,
0000
0000
0000
0000
,
0000
0000
0000
0000
,
0000
0000
0000
0000
,
1000
0001
0000
1000
0000
0100
0000
0010
,
0000
0001
0010
0001
0000
1000
0100
1000
,
0000
0100
0000
0010
0100
0010
0000
0001
,
1000
0010
1000
0010
0100
0001
0100
0001
,
1000
0100
1000
0100
0000
1100
0000
0011
,
0000
1010
0000
0202
0000
0000
0303
0000
,
0001
0010
0001
0010
0000
0011
0000
1100
,
0000
0101
0000
2020
3030
0010
0100
0010
,
1000
0100
1000
0100
0000
1100
0000
0101
,
0000
1010
0000
0022
0033
0001
0010
0200
,
0300
1000
0010
0200
0300
0001
0010
0200
,
0300
1000
0010
0200
0000
0310
0100
0000
,
0001
0100
0001
0100
0000
0101
0000
0011
,
0000
1100
0000
2020
0000
0000
3030
0000
,
1000
0010
1000
0010
0000
1010
0000
0101
,
0000
0011
0000
2200
3300
0100
0010
0100
,
0010
0001
0010
0001
0000
0011
0000
1100
,
0000
1010
0000
0202
0303
1000
0100
0020
,
0030
0001
0100
0020
0030
1000
0100
0020
,
0000
0000
0000
0030
0100
0020
0000
0000
,
0130
1100
1000
0101
,
0001
1010
1000
0011
,
0001
1100
0100
0011
,
0010
0000
0110
0000
0100
0010
0100
0010
,
0001
0100
0001
0000
1000
0010
1000
0000
,
0001
0100
0001
0000
1000
0000
0200
0000
,
0000
0000
0010
0000
0310
0000
0001
0200
,
0000
0300
0200
0301
0200
0310
0200
0301
,
1000
0000
0000
0000
1000
0000
0000
0001
0010
0000
0000
0100
1000
0000
0000
0001
,
0010
0000
1000
0001
0000
0001
0200
0300
,
0000
0000
0000
0000
0001
0000
0000
1000
0010
0000
0000
0100
0001
0000
0000
1000
,
0010
0000
0001
1000
0000
1000
0200
0300
,
0000
0000
0001
0010
0000
0100
0010
0100
,
1000
0000
0001
0010
0000
0100
1000
0010
,
1000
0000
0001
0010
0000
0100
1000
0100
,
0010
0000
0001
0010
0000
0100
0010
0001
,
0100
0000
0000
0000
0001
0000
0000
0001
0100
0000
0000
0100
0010
0000
0000
0010
,
1000
0000
0000
1000
0001
0000
0000
0000
0010
0000
0000
0000
0010
0000
0100
0000
,
0000
1000
0100
0010
0000
0001
0010
0100
,
0000
1000
0100
0010
0000
0001
0010
0100
,
1000
0010
1000
0010
0000
1010
0000
1010
,
0000
0010
0100
0020
0030
0100
0010
0200
,
0301
0010
0001
0010
0000
0011
0000
0011
,
0000
0001
1000
0002
0003
1000
0001
2000
,
3100
1000
0100
1000
0000
1100
0000
1100
,
0000
0100
0010
0200
0300
0010
0100
0020
,
0000
0100
0000
0130
0000
0000
0010
0100
,
0000
0100
1000
0001
0000
0010
0100
1000
,
0001
1000
0001
0000
1000
0100
0010
0000
,
0001
0010
0100
0000
1000
0000
0020
0000
,
0000
0000
0100
0000
0130
0000
1000
0020
,
0000
0030
0020
1030
0020
0130
0020
1030
,
0001
0000
0000
0000
0001
0000
0000
1000
0100
0000
0000
0010
0001
0000
0000
1000
,
0100
0000
0001
1000
0000
1000
0020
0030
,
0000
0000
0000
0000
1000
0000
0000
0001
0100
0000
0000
0010
1000
0000
0000
0001
,
0100
0000
1000
0001
0000
0001
0020
0030
,
0000
0000
1000
0100
0000
0010
0100
0010
,
0001
0000
1000
0100
0000
0010
0001
0100
,
0001
0000
1000
0100
0000
0010
0001
0010
,
0100
0000
1000
0100
0000
0010
0100
1000
,
0010
0000
0000
0000
1000
0000
0000
1000
0010
0000
0000
0010
0100
0000
0000
0100
,
0001
0000
0000
0001
1000
0000
0000
0000
0100
0000
0000
0000
0100
0000
0010
0000
,
0000
0001
0010
0100
0000
1000
0100
0010
,
0001
1000
0001
1000
0010
0100
0010
0100
,
0010
1000
0001
0200
0000
0001
0000
0010
,
0000
0010
0000
0020
0000
0000
0330
0000
,
0010
1000
0100
0020
0000
0100
0000
0001
,
0000
0001
0000
0002
0033
0010
0100
0010
,
0100
1000
0001
2000
0000
0010
0000
0001
,
0000
0001
0000
0002
3003
0001
0000
0202
,
0303
1000
0000
2020
3030
0001
0000
0022
,
0033
1000
0000
2100
0000
3010
0100
0000
,
0001
0010
0001
0010
0000
1010
0000
1100
,
0000
0011
0000
0202
0000
0000
0303
0000
,
0010
1000
0010
1000
0000
0101
0000
1010
,
0000
1100
0000
0022
0033
0010
0100
0010
,
0100
1000
0100
1000
0000
1100
0000
0011
,
0000
0101
0000
2020
3030
1000
0001
0020
,
0030
0001
1000
0200
0300
1000
0001
0020
,
0000
0000
0000
0030
0010
0200
0000
0000
,
0310
1100
1000
0101
,
0001
1010
1000
0011
,
0010
1100
0100
0011
,
0001
0110
0100
0011
,
0001
1010
1000
0101
,
0001
1100
0100
0011
,
0010
1100
0100
1001
,
0010
0000
0010
0000
0000
0010
0100
0010
,
0100
0001
0000
0010
0000
0100
0000
1000
,
0000
0001
1000
0001
0000
1000
0001
1000
,
0000
0100
0000
0010
0100
0010
0000
0100
,
0000
0100
0010
0001
0000
0010
0100
2000
,
0002
0000
0000
0000
,
0000
0000
3003
0000
;
