#TITLE:Golf Course;
#SUBTITLE:Huniepop 2;
#ARTIST:World of Wandag;
#TITLETRANSLIT:;
#SUBTITLETRANSLIT:;
#ARTISTTRANSLIT:;
#GENRE:;
#CREDIT:;
#MUSIC:Huniepop - Golf Course.ogg;
#BANNER:Huniepop - Golf Course.png;
#BACKGROUND:Huniepop - Golf Course-bg.png;
#CDTITLE:;
#SAMPLESTART:123.627;
#SAMPLELENGTH:25.000;
#SELECTABLE:YES;
#OFFSET:-0.002;
#BPMS:0.000=124.000
,80.000=62.000
,82.000=124.000
,253.000=62.000
,255.000=124.000
;
#STOPS:85.500=0.240
,101.000=0.240
,258.500=0.240
,274.000=0.240
;
#BGCHANGES:;
#FGCHANGES:;

//--------------- dance-single - Melody Love ----------------
#NOTES:
     dance-single:
     Melody Love:
     Beginner:
     3:
     0,0,0,0,0:
0000
0000
0000
0000
,
0000
0000
0000
0000
,
0000
0000
0000
0000
,
0000
0000
0000
0000
,
0001
0000
0000
1000
,
1000
0000
0000
0010
,
0010
0000
0000
0100
,
0100
0000
0000
0001
,
0001
0000
0000
0100
,
0100
0000
0000
0010
,
0010
0000
0000
1000
,
1000
0000
0000
0001
,
0002
0000
0000
0003
,
2000
0000
0000
3000
,
0200
0000
0000
0300
,
0020
0000
0000
0030
,
0002
0000
0000
0003
,
2000
0000
0000
3000
,
0001
0000
1000
0000
,
1001
0000
0000
0000
,
0200
0000
0000
0000
0000
0000
0000
0300
0010
0000
0000
0000
0000
0000
0000
0000
,
0010
0000
0000
0000
0000
0100
0000
0000
,
0000
0100
0000
0010
0000
0000
0000
0010
,
0000
0000
0000
0200
0000
0000
0000
0300
,
0000
0000
0000
0001
0000
0000
0000
0001
,
0000
0000
1000
0000
,
1000
0001
0000
0001
,
0000
2000
0000
3000
,
0000
1000
0000
1000
,
0000
0001
0000
0001
,
0000
0010
0000
0010
,
0000
0100
0000
0100
,
0000
0200
0000
0000
,
0300
2000
0000
0000
,
3000
0020
0000
0000
,
0030
0200
0000
0000
,
0300
0010
0000
0010
,
0000
0100
0000
0100
,
0000
0001
0000
0001
,
0000
1000
0000
1000
,
0000
0002
0000
0000
,
1003
2000
0000
0000
,
3010
0020
0000
0000
,
0130
0200
0000
0000
,
0300
0002
0000
0000
,
0013
0020
0000
0000
,
0130
0200
0300
0020
,
0030
0220
0000
0000
,
0330
0001
0000
0001
,
0000
1000
0000
1000
,
0000
0100
0000
0100
,
0000
0010
0000
0010
,
0000
0200
0000
0000
,
0300
0020
0000
0000
,
0030
0001
0000
0001
,
0000
1000
0000
1000
,
0000
0010
0000
0010
,
0000
0010
0000
0010
,
0000
0100
0000
0100
,
0000
0100
0000
0100
,
0000
0001
0000
0001
,
0000
1000
0000
1000
,
0001
0001
1000
1000
,
0000
0000
0200
0000
0000
0300
0100
0000
,
0000
0000
0100
0000
0000
0000
0000
0010
,
0000
0000
0000
0010
0000
0100
0000
0000
,
0000
0100
0000
0000
0000
0020
0000
0000
,
0000
0030
0000
0000
0000
1000
0000
0000
,
0000
1000
0000
0000
0000
0000
0001
0000
,
0000
0001
1000
0000
,
1000
0000
0002
0000
,
0003
0000
0001
0001
,
0002
0000
0003
1000
,
0000
1000
0100
0100
,
0200
0000
0320
0000
,
0030
0000
0100
0100
,
0200
0000
0300
1000
,
0000
1000
0001
0001
,
0002
0000
2003
0000
,
3000
0000
0010
0000
,
0010
0000
0100
0000
,
0100
0000
0001
0000
,
0001
0000
1000
0000
,
1000
0000
2002
3003
0000
0000
0000
0000
;

//--------------- dance-single - Melody Love ----------------
#NOTES:
     dance-single:
     Melody Love:
     Easy:
     7:
     0,0,0,0,0:
0000
0000
0000
0000
,
0000
0000
0000
0000
,
0000
0000
0000
0000
,
0000
0000
0000
0000
,
0001
0001
1000
1000
,
0100
0100
0010
0110
,
1000
1000
0010
0010
,
0100
0100
0001
1001
,
0010
0010
0001
0001
,
1000
1000
0100
0110
,
0001
0001
0010
0010
,
0100
0100
1000
1001
,
2000
0001
0002
3003
,
0002
1000
2000
3003
,
0200
0010
0020
0330
,
0020
0100
0200
0330
,
0002
0100
0200
0303
,
2000
0010
0020
3030
,
0001
0001
1000
1000
,
2002
0000
0000
3003
,
0200
0000
0000
0000
0000
0000
0000
0300
0010
0000
0000
0000
0010
0000
0000
0000
,
0001
0001
0001
0000
0000
1000
0000
0010
,
0010
0010
0000
1000
0000
0001
0000
0100
,
0100
0100
0000
0220
0000
0000
0000
0330
,
0000
0000
0000
1000
0000
1000
0000
0010
,
0010
0010
0000
0000
0001
0000
0100
0100
,
0100
0000
0001
0000
1000
0000
0001
0001
,
0001
2002
0000
3003
,
0000
1000
0001
1000
,
0001
0100
0010
0100
,
0010
1000
0001
1000
,
0001
0010
0100
0010
,
0100
0200
0000
0320
,
0000
0032
0000
2003
,
0000
3020
0000
0230
,
0000
0302
0000
2003
,
0000
3010
1000
0010
,
1000
0001
0100
0001
,
0100
0010
0100
0010
,
0100
0001
1000
0001
,
1001
0002
0100
0200
,
0303
2000
0100
0200
,
3300
0020
0100
0200
,
0330
0200
0010
0020
,
0330
2000
0010
0020
,
3030
0002
0100
0200
,
0303
0010
0010
0100
,
0100
0220
0000
0000
,
0330
0001
0001
0010
,
0000
1000
1000
0100
,
0000
0100
0100
0010
,
0000
0010
0010
0100
,
0110
0200
0300
2000
,
3000
0002
0003
0020
,
0032
0023
0230
2300
,
3000
0020
0230
0302
,
0003
0010
0010
0100
,
0200
0010
0001
0010
,
0301
0001
0001
1000
,
2000
0001
0100
0001
,
3100
1000
1000
0010
,
0010
0200
0010
0001
,
0310
0100
0200
0310
,
0020
0000
0000
0000
0230
0000
0000
0000
0000
0000
0000
0300
0100
0000
0000
0000
,
0100
0000
0010
0010
0010
0010
0000
0101
,
0000
0100
0100
0100
0000
0001
0000
1000
,
0000
0010
0010
0010
0010
0200
0000
0000
,
0000
0300
0000
0000
0000
0001
0000
0001
,
0000
0100
0100
0100
0100
0000
1010
0000
,
1000
1000
1000
0000
1000
0000
0001
0000
,
1000
1000
1000
1000
0002
0000
0000
0000
,
0003
1001
0001
0010
,
0001
0010
0002
0000
0003
0000
1000
0000
,
1000
0010
2000
0000
3100
0000
0100
0000
,
0010
0010
0220
0000
,
0330
0000
0100
0100
,
0010
0010
0020
0000
0030
0000
0001
0000
,
1000
1000
2000
0000
3100
0000
0010
0000
,
0010
0100
2002
0000
,
3003
0000
0200
0010
,
0310
0000
0020
0100
,
0130
0000
2000
0001
,
3001
0001
0002
1000
,
1003
0000
2002
3003
0000
0000
0000
0000
;

//--------------- dance-single - Melody Love ----------------
#NOTES:
     dance-single:
     Melody Love:
     Medium:
     12:
     0,0,0,0,0:
0000
0000
0000
0000
,
0000
0000
0000
0000
,
0000
0000
0000
0000
,
0000
0000
0000
0000
,
0001
1000
0001
0000
1000
0000
1001
0000
,
0100
0010
0100
0000
0010
0000
0110
0000
,
1000
0010
1000
0000
0010
0000
1010
0000
,
0100
0001
0100
0000
0001
0000
0101
0000
,
0001
0100
0001
1000
0100
0000
1100
0000
,
1000
0010
1000
0001
0010
0000
0011
0000
,
0100
1000
0010
0100
0001
0000
0101
0000
,
0100
0010
1000
0000
0100
0010
0001
0000
,
2000
0000
0000
0001
0001
0000
3001
0000
,
0000
1000
1000
0000
0020
0000
0230
0000
,
0300
0010
0100
0001
2000
3000
0100
1000
,
0002
0003
1000
0100
0010
0000
0002
0003
,
0200
0000
0000
0010
0010
0000
0310
0000
,
0000
0100
0100
0000
0002
0000
2003
0000
,
3000
0100
0010
0001
2000
0000
3100
0010
,
0001
0001
1000
1000
0010
0010
0020
0000
,
0230
0000
0000
0000
0000
0000
0000
0300
0010
0000
0000
0000
0110
0000
0000
0000
,
1000
1000
1100
0000
1000
0001
0000
0010
,
0010
0011
0000
1001
0000
1001
0000
0100
,
0001
0000
1000
0000
0000
0000
1001
0000
0000
1001
0000
0000
1001
0000
0000
0000
,
1000
0001
0000
0100
0000
0110
0000
0010
,
0010
1010
0000
1000
0001
0000
0100
0100
,
0101
0000
1001
0000
1001
0000
1000
0001
,
0010
0000
0000
0000
0110
0000
0000
0110
0000
0000
0110
0000
0000
0000
0001
0000
,
1000
0000
1000
0001
0001
0000
1000
0000
,
1001
0000
0100
0010
0010
0000
0100
0000
,
0110
0000
0001
1000
1000
0000
0001
0000
,
1001
0000
0010
0100
0100
0000
0010
0000
,
0110
0002
0100
2003
,
0100
3002
0100
2003
,
0100
3002
0010
2003
,
0010
0000
3002
0000
0010
0000
2003
0010
,
3010
0000
1000
0010
1000
0001
0010
0000
,
0011
0000
0001
0100
0001
1000
0100
0000
,
1100
0000
0010
0001
0100
0010
1000
0000
,
1010
0000
0010
0100
0001
0000
0010
0100
,
1000
0000
0002
0000
0000
1000
1000
0000
,
2003
0000
3000
0001
0002
0000
0203
0000
,
0320
0000
0030
0100
0010
1000
0002
0003
,
0010
0001
2000
3000
0001
0010
0200
0300
,
2000
3000
0020
0000
0000
0100
0100
0000
,
0230
0000
0300
0010
0020
0000
2030
0000
,
3002
0000
0003
0010
0100
1000
0002
0000
,
0013
0100
1000
1000
0001
0001
0100
0100
,
0200
0301
1000
0001
,
0011
1000
0001
1000
,
1100
0100
0010
0100
,
0011
0000
0100
0000
0010
0000
0100
1100
,
1100
0000
0200
0000
0300
2000
0000
0000
,
3000
0000
0000
0002
0000
0000
0023
0000
,
0032
0000
0000
0000
0023
0000
0030
0100
0000
0000
2000
0000
0000
0000
0000
0000
,
3000
0000
0000
0000
0020
0000
0030
0100
0000
0000
0002
0000
0000
0000
0010
0000
,
0013
0000
0020
0000
0030
0200
0000
2300
,
0000
3020
0000
0230
0000
0302
0000
1003
,
1001
0000
0002
0000
0003
2000
0000
3020
,
0000
0230
0000
0000
0302
2003
0000
3001
,
1001
0000
1000
0100
0100
1000
0001
0000
,
0100
0000
0001
0100
0100
0001
1000
0000
,
0100
0200
0300
0010
0100
0200
0300
0020
,
0030
0000
0000
0000
0020
0000
0000
0230
0000
0000
0000
0300
1000
0000
0000
0000
,
1001
0000
0100
0100
0101
0001
1000
0001
,
0000
0010
0010
0110
0000
1001
0000
1001
,
0000
0000
0100
0000
0100
0000
0100
0000
0000
0000
0110
0000
0000
1001
0000
0000
,
1001
0000
1000
0001
0000
1000
0000
1001
,
0000
0100
0100
1100
1000
0001
1000
0000
,
0100
0100
0110
0000
1001
0000
1001
0000
,
0010
0000
0010
0000
0010
0000
0000
0000
1001
0000
0000
0110
0000
0000
0110
0000
,
0000
0001
1000
0000
0001
1000
0010
1000
,
0100
0010
0001
2000
3000
0001
0100
0010
,
1000
0001
2000
3000
0100
0010
0001
1000
,
0010
0000
0100
0000
0001
0000
1000
0000
1001
0000
0000
0110
0000
0000
2002
0000
,
3003
0010
0100
0000
0010
0100
0001
0010
,
0100
0010
0001
2000
3000
0010
0100
0001
,
1000
0100
0020
0030
0100
0010
0001
0010
,
0001
0000
1000
0000
0010
0000
0100
0000
0110
0000
0000
1001
0000
0000
0220
0000
,
0330
0010
0010
0010
0200
0000
0310
0010
,
0010
0000
1001
0000
0020
0000
0130
0100
,
0100
0000
1001
0000
0200
0000
0310
0010
,
0010
0000
1001
0000
0020
0000
0130
0100
,
0100
0010
0100
0110
0000
0000
0000
0000
;

//--------------- dance-single - Melody Love ----------------
#NOTES:
     dance-single:
     Melody Love:
     Hard:
     14:
     0,0,0,0,0:
0000
0000
0000
0000
,
0000
0000
0000
0000
,
0000
0000
0000
0000
,
0000
0000
0000
0000
,
1001
0000
0001
1000
0001
0000
1000
0000
0001
0000
0001
0100
0000
0010
1000
0000
,
0000
0000
1000
0001
1000
0000
0001
0000
1000
0000
0001
0000
0100
0000
0000
0000
,
0110
0000
0010
0100
0010
0000
0100
0000
0010
0000
0100
0001
0000
1000
0100
0000
,
0000
0000
0100
0010
0100
0000
0010
0000
0100
0000
0010
0000
0001
0000
0000
0000
,
0101
0000
0100
0001
0100
0000
0001
0000
0100
0000
0001
0100
0000
0010
1000
0000
,
0000
0000
0010
1000
0010
0000
0100
0000
0001
0000
0100
0000
0010
0000
0000
0000
,
1010
0000
0010
1000
0010
0000
1000
0000
0010
0000
1000
0010
0000
0100
0001
0000
,
1001
0000
1000
0001
0000
0001
1000
0000
0100
0000
0010
0000
0001
0000
0000
0000
,
2100
0000
0000
0100
0100
0001
3001
0000
,
0000
1000
0010
1000
0020
0000
1030
2000
,
0000
0000
3100
0010
0100
0000
0010
0000
0002
0000
0003
0010
0100
0000
1000
0000
,
0020
0000
0030
0100
0000
0000
0100
0000
0000
0100
0002
0000
0003
0000
0000
0000
,
0102
0000
0000
0100
0100
1000
1003
0000
,
0000
0001
0010
0001
0020
0000
0031
0002
,
0000
0000
0103
0010
0100
0000
1000
0000
0100
0000
0010
0000
1000
0000
0001
0000
,
1000
0100
0001
0000
0001
0000
0100
1000
0000
0001
1000
0000
0020
0000
0000
0000
,
0230
0000
0000
0000
0000
0000
0000
0300
0110
0000
0000
0000
0110
0000
0000
0000
,
1100
1100
1100
0000
1001
1001
0000
1010
,
1010
1010
0000
1001
0000
1001
0000
0101
,
0101
0000
1010
0000
1010
0000
1001
0000
0000
0110
0000
0000
1001
0000
0000
0000
,
1000
0001
0000
0110
0000
0110
0000
0011
,
0011
0011
0000
1001
1001
0000
0101
0101
,
0101
0000
0110
0000
0110
0000
1010
1010
,
0101
0000
0101
0000
1001
0000
0000
0110
0000
0000
1001
0000
0000
0000
0001
0000
,
1000
0000
0000
0000
1000
0001
0000
1000
0001
0000
0100
0000
0010
0000
0000
0000
,
0110
0000
0000
0000
0100
0010
0000
0100
0010
0000
1000
0000
0001
0000
1000
0000
,
1001
0000
0000
0000
0001
1000
0000
0001
1000
0000
0010
0000
0100
0000
0000
0000
,
0110
0000
0000
0000
0010
0100
0000
0010
0100
0000
0001
0000
1000
0000
1000
0001
,
0000
0001
1000
0000
2000
0000
0000
0000
0001
0000
0000
0000
3002
0000
0000
0000
,
0010
0000
0023
0000
0100
0000
0230
1000
,
1300
2000
0010
3020
,
0100
0000
0000
0000
0230
0000
0000
0000
0001
0000
0000
0000
0301
1000
0001
1000
,
0001
1000
0001
0000
1001
0000
1000
0001
1000
0000
0001
0000
1000
0000
1000
0010
,
0000
0100
0001
0000
0000
0000
0001
1000
0001
0000
1000
0000
0001
0000
1000
0000
,
0010
0000
0000
0000
0110
0000
0100
0010
0100
0000
0010
0000
0100
0000
0010
1000
,
0000
0001
0010
0000
0110
0000
0100
0010
0000
0100
0010
0000
0100
0000
1000
0000
,
0001
0000
0012
0000
0000
0010
0010
1000
,
2003
0000
3000
0002
0203
2300
3200
0000
,
0001
0000
0302
0000
0000
0000
0013
0100
0010
0000
0100
0000
2000
0000
3000
0100
,
0010
0000
0001
0000
0200
0000
0300
0020
0000
0030
0002
0000
0003
0010
2000
0000
,
3000
0000
2010
0000
0000
0010
0010
0001
,
3002
0000
0003
1000
0100
1000
0200
0000
,
1000
0000
2300
0000
0000
0000
3010
0100
0010
0000
1000
0000
0010
0000
0100
0000
,
0001
0000
1000
0000
0001
0010
1000
0000
1000
0000
0010
0001
0000
1000
0001
0000
,
0200
0310
0110
0001
,
0110
0000
1000
0000
0110
0000
0001
0110
,
0110
0100
1001
0010
,
1001
0000
0100
0000
1001
0000
0010
1001
,
1001
1001
0200
0000
1300
0002
0000
0000
,
1003
0000
0000
0100
0200
0310
0020
0000
,
0031
0000
1000
0000
0020
0000
0030
0100
0010
0000
2000
0000
0000
0000
0000
0000
,
3001
0000
0020
0000
0230
0000
0300
1000
0001
0000
0200
0000
0000
0000
0010
0000
,
0010
0310
0020
0000
0130
0002
0000
2003
,
0000
3200
0000
0310
0001
1000
0000
1001
,
1001
0000
0002
0000
2003
3020
0000
0230
,
0000
0302
0000
0013
0001
1000
0000
1001
,
1001
0000
0000
0000
1000
0000
0000
1000
0100
0000
1000
0000
0001
0000
0000
0001
,
0100
0000
0001
0000
0010
0000
0000
0010
0100
0000
0010
0000
0100
0000
1000
0000
,
0001
0200
0300
0001
1000
0200
0300
2000
,
3000
0000
0000
0000
0001
0000
0000
0000
0200
0000
0300
0020
0000
0030
0200
0000
0000
0000
0000
0000
0000
0000
0300
0000
0110
0000
0000
0000
0000
0000
0000
0000
,
0110
0000
1100
1100
0011
0001
1001
1001
,
0000
1010
0101
1010
0000
1001
0000
1001
,
0000
0000
0101
0000
0101
0000
1010
0000
1010
0000
1001
0000
0000
0110
0000
0000
,
1001
0000
1000
0001
0000
0110
0000
0110
,
0000
0011
0011
1100
1000
1001
1001
0000
,
0101
1010
0101
0000
1001
0000
1001
0000
,
0011
0000
0011
0000
1100
0000
1100
0000
1001
0000
0000
0110
0000
0000
1001
0000
,
0000
0000
1000
0000
0001
0000
0000
0000
1001
0000
1000
0100
0010
0000
0100
0000
,
0110
0000
0110
0000
1001
0000
2000
0000
3000
0000
0001
0010
0100
0000
1000
0000
,
0001
0000
1001
0000
2002
0000
3003
0000
1001
0000
0001
0010
0100
0000
1000
0000
,
0001
0000
1001
0000
1000
0000
1001
0000
1001
0000
0000
0110
0000
0000
2002
0000
,
3003
0000
0010
0000
0100
0000
0000
0000
0110
0000
0100
0001
1000
0000
0001
0000
,
1001
0000
1001
0000
0110
0000
0020
0000
0030
0000
0010
1000
0001
0000
0010
0000
,
0100
0000
0110
0000
0220
0000
0330
0000
0110
0000
0010
0001
1000
0000
0010
0000
,
0100
0000
0110
0000
0010
0000
0110
0000
0110
0000
0000
1001
0000
0000
0220
0000
,
0330
0000
0010
0000
1000
0000
0001
0000
0010
0100
0000
1000
0100
0000
0010
0000
,
0001
0000
0000
0000
1001
0000
0000
0000
0010
0100
0000
0001
0100
0000
0010
0000
,
1000
0000
0000
0000
1001
0000
0000
0000
0010
0100
0000
0100
0010
0000
1000
0000
,
0001
0000
0000
0000
1001
0000
0000
0000
0100
0010
0000
0010
0100
0000
0010
0000
,
0100
0110
0110
0110
0000
0000
0000
0000
;
