#TITLE:Hadi Bakalim;
#SUBTITLE:(Tarkan version);
#ARTIST:Ozan Colakoglu feat. Tarkan;
#TITLETRANSLIT:;
#SUBTITLETRANSLIT:;
#ARTISTTRANSLIT:;
#GENRE:;
#CREDIT:Melody Love;
#MUSIC:Hadi Bakalim.ogg;
#BANNER:Hadi Bakalim.png;
#BACKGROUND:Hadi Bakalim-bg.png;
#CDTITLE:;
#SAMPLESTART:37.000;
#SAMPLELENGTH:30.000;
#SELECTABLE:YES;
#OFFSET:-0.078;
#BPMS:0.000=128.000
,146.000=128.550
,147.000=128.000
,216.000=64.000
,216.105=63.150
,218.000=128.000
;
#STOPS:;
#DISPLAYBPM:64.000:128.000;
#BGCHANGES:;
#FGCHANGES:;

//--------------- dance-single - Melody Love ----------------
#NOTES:
     dance-single:
     Melody Love:
     Beginner:
     4:
     0,0,0,0,0:
0000
0000
0000
0000
,
0000
0000
0000
0000
,
0000
0000
0000
0000
,
0000
0000
0000
0000
,
0010
0000
0100
0000
,
0001
0000
1000
0000
,
0010
0000
0100
0000
,
0010
0000
1001
0000
,
0010
0000
0100
0000
,
1000
0000
0001
0000
,
0010
0000
0100
0000
,
0010
0000
1001
0000
,
0010
0000
0010
0000
,
0100
0000
0100
0000
,
0220
0330
0000
0000
,
0100
0000
0100
0010
,
1000
0000
1000
0000
,
0001
0000
0001
0000
,
2002
0000
3003
0000
,
0010
0010
0010
0000
,
1001
0000
0010
0000
,
1000
0001
1000
0000
,
0010
0000
0100
0000
,
0001
1000
0001
0000
,
1001
0000
0100
0000
,
1000
0001
1000
0000
,
0100
0000
0010
0000
,
0001
1000
0001
0000
,
0200
0000
0320
0000
,
0230
0000
0320
0000
,
1030
1000
1000
0000
,
0001
0001
0001
0000
,
0020
0000
0230
0000
,
0320
0000
0230
0000
,
0301
0001
0001
0000
,
2000
0000
3000
0000
,
0002
0000
0003
0000
,
0100
0000
0010
0000
,
1000
0000
0001
0000
,
0100
0000
0010
0000
,
1000
0000
0001
0000
,
1001
0000
0200
0300
,
0010
0000
0200
0300
,
0001
0000
0020
0030
,
1000
0000
0200
0300
,
1001
0000
0020
0030
,
0100
0000
0020
0030
,
0001
0000
0200
0300
,
1000
0000
0020
0030
,
0000
2002
0000
0000
,
0000
0000
3003
0000
,
0010
0010
1000
0000
,
0100
0100
0010
0000
,
0001
0001
1000
1000
,
0200
0000
0000
0000
0000
0300
0000
0000
1001
0000
0000
0000
0000
0000
0000
0000
,
0100
0000
0001
1000
,
0001
0000
0100
0000
,
0010
0000
1000
0001
,
1000
0000
1001
0000
,
0010
0000
0001
1000
,
0001
0000
0010
0000
,
0100
0000
1000
0001
,
1000
0000
0010
0000
,
0100
0000
0001
0001
,
0001
0000
0010
0000
,
0100
0000
0010
0000
,
1001
0000
0010
0000
,
0100
0000
1000
1000
,
1000
0000
0010
0000
,
0100
0000
0010
0000
,
1001
0000
0001
0000
,
0010
0000
1000
1000
,
1000
0000
0100
0000
,
0001
0000
0100
0100
,
0100
0000
0000
0000
;

//--------------- dance-single - Melody Love ----------------
#NOTES:
     dance-single:
     Melody Love:
     Easy:
     7:
     0,0,0,0,0:
0000
0000
0000
0000
,
0000
0000
0000
0000
,
0000
0000
0000
0000
,
0000
0000
0000
0010
,
0010
0100
0100
0001
,
1000
1000
0001
0010
,
0010
0000
0100
0000
0100
0000
0000
1001
,
0000
0001
1000
0100
,
0100
0010
0010
0001
,
1000
1000
0001
0100
,
0100
0000
0010
0000
0010
0000
0000
1001
,
0000
1000
0001
0000
,
0010
0010
0200
0300
,
1000
0000
1000
0000
0020
0030
0000
2000
,
0002
3003
0001
0001
,
0100
0000
1000
1000
,
0010
0010
0100
0000
,
0001
0001
0100
0001
,
0200
0000
0000
0000
0000
0300
0000
0000
,
0010
0010
0010
0000
,
1010
1000
1000
0001
,
0001
1000
0001
0100
,
0010
1000
0001
0000
,
1001
0001
1000
0000
,
0011
0001
0001
1000
,
1000
0001
1000
0010
,
0100
0001
1000
0000
,
1001
1000
0001
0100
,
0200
0310
0020
0130
,
0200
0320
0230
0310
,
1000
1000
0001
0001
,
0010
0100
1000
0010
,
0020
0130
0200
0310
,
0020
0230
0320
0130
,
0001
0001
1000
1000
,
0020
0000
0000
0030
,
0200
0000
0000
0300
0000
0000
0100
0000
,
0100
0010
0010
1000
,
0001
1000
0001
0100
,
0100
0000
0010
0000
0010
0000
0000
0110
,
0000
0001
1000
0000
,
1100
2000
0200
3300
,
0010
0002
2000
3003
,
0010
0200
0020
0330
,
1000
0100
0010
0001
,
0011
0002
0020
0033
,
0100
2000
0002
3003
,
0100
0020
0200
0330
,
0001
0010
0100
1000
,
0000
0220
0000
0000
,
0000
0000
0330
0000
,
0010
0010
0100
0100
,
0001
0001
1000
1000
,
0001
0010
0100
1000
,
0200
0000
0000
0000
0000
0300
0000
0000
0110
0000
0000
0000
0001
0000
0000
0000
,
0001
1000
1000
0001
,
1000
0100
0010
0001
,
1000
0000
1001
1000
,
0001
0000
0110
1000
,
1000
0001
0001
1000
,
0001
0010
0100
1000
,
0001
0000
1001
0001
,
1000
0100
0100
0010
,
0010
0001
1000
0001
,
1001
0100
0100
0010
,
0010
0000
0000
1010
0000
0000
1000
0000
,
0001
0010
0010
0100
,
0100
1000
0001
1000
,
1001
0010
0010
0100
,
0100
0000
0000
0101
0000
0000
0001
0000
,
1000
1000
0001
0010
,
0010
0100
1000
0001
,
0001
0100
0010
1000
,
1000
0000
0000
1001
0000
0000
0100
0000
,
1001
0000
0000
0000
;

//--------------- dance-single - Melody Love ----------------
#NOTES:
     dance-single:
     Melody Love:
     Medium:
     10:
     0,0,0,0,0:
0000
0000
0000
0000
,
0000
0000
0000
0000
,
0000
0000
0000
0000
,
0000
0000
0000
0010
,
0010
0000
0010
0100
0001
0000
1000
0001
,
1000
0001
0100
0010
,
0010
0000
1000
0100
0010
0000
0000
1001
,
0000
0001
1000
0000
0100
0000
1000
0000
,
1000
0000
0010
1000
0001
0000
1000
0001
,
1000
0100
0010
0001
,
0001
0000
0100
0001
1000
0000
0000
1001
,
0000
0001
1000
0000
0010
0000
0000
0000
,
0010
0010
0000
0100
0100
0000
0100
0001
,
0010
0010
0000
0100
0100
0000
0000
2000
,
3200
0300
0010
0000
0001
0000
0011
0000
,
0001
1000
0010
1010
,
1000
1000
0001
0000
0010
0000
0001
0000
,
0100
0100
0010
0000
0100
0000
0001
0000
,
2000
0002
0000
0000
0000
3003
0000
0000
,
0001
0100
0010
1000
0000
0000
0010
0100
,
0010
0000
1000
0010
1000
0000
0001
0100
,
0001
0000
1001
0000
1001
0000
0100
0010
,
0100
0000
0001
1000
0001
0000
0000
1000
,
0100
0000
0010
0000
0110
0000
0100
0010
,
0100
0000
1000
0100
1000
0000
0001
0010
,
0001
0000
1001
0000
1001
0000
0010
0100
,
0010
0000
1000
0001
1000
0000
0000
0001
,
1000
0000
0000
0000
0001
0000
0000
0000
1001
0000
0000
0000
0200
0300
0000
0000
,
0020
0000
0130
0010
0200
0000
0310
0100
,
0020
1030
1010
0010
,
0010
0010
1000
0000
0001
0001
1000
0000
,
0001
0000
0010
0000
0001
0000
0000
0000
0100
0000
0000
0000
0020
0030
0000
0000
,
0200
0000
0310
0100
0020
0000
0130
0010
,
0200
0301
0101
0100
,
0100
0100
0001
0000
1000
1000
0001
0100
,
0020
0000
0000
0000
0000
0000
0030
0100
,
0001
2000
0000
3000
0000
0000
0100
0000
,
0100
0000
0100
0010
0001
0000
1000
0001
,
1000
1000
0010
0100
,
0100
0000
0001
0100
0010
0000
0000
1000
,
0000
1000
0001
0000
0010
0000
0000
0000
,
2002
3003
0000
0000
2000
0000
0000
0000
3200
0000
0000
0000
0320
0000
0030
0000
,
0001
0002
0003
1000
2000
3000
0020
0030
,
0100
0010
0100
0000
0020
0030
0010
1000
,
0100
0000
0000
0000
0010
0000
0001
0000
0200
0300
0000
0000
0100
0000
0000
0000
,
2002
3003
0000
0000
0002
0000
0000
0000
0023
0000
0000
0000
0230
0000
0300
0000
,
1000
0001
2000
0000
3200
0000
0320
0030
,
0100
0010
0200
0300
0010
0000
0010
0001
,
0100
0000
0000
0000
0010
0000
1000
0000
0200
0300
0000
0000
0100
0000
0000
0000
,
0000
0200
0020
0000
0000
0000
0000
0000
,
0000
0000
0330
0000
,
0010
0010
0100
0100
,
1000
1000
0001
0001
,
1000
0100
1000
0100
0010
0001
0010
0001
,
0200
0000
0000
0000
0000
0300
0000
0000
0100
0000
0000
0000
0001
0000
0010
0000
,
0001
0000
1000
0100
1000
0000
1001
0000
,
1001
0000
0100
0010
0100
0000
1000
0001
,
1000
0000
0000
0001
0100
0000
0010
0000
,
0110
0000
0100
0010
0100
0000
0001
0100
,
0001
0000
1000
0010
1000
0000
1001
0000
,
1001
0000
0010
0100
0010
0000
0001
1000
,
0001
0000
0000
1000
0001
0000
1000
0000
,
1001
0000
0001
0100
0010
0000
1000
0100
,
0010
0000
0001
1000
0001
0000
1001
0000
,
1001
0000
0010
0100
0010
0000
0100
0010
,
0100
0000
0000
0110
0000
1000
0001
0000
,
0100
0000
0010
1000
0001
0000
0010
0001
,
1000
0000
0001
1000
0001
0000
1001
0000
,
1001
0000
1000
0001
1000
0000
0100
0010
,
0100
0000
0000
0110
0000
1000
0001
0000
,
0010
0000
1000
0001
1000
0000
0001
1000
,
0001
0000
1000
0001
1000
0001
1000
0000
,
1001
0000
0100
0010
0100
0000
0010
0100
,
0010
0000
0000
0110
0000
0010
0100
0000
,
1001
0000
0000
0000
;

//--------------- dance-single - Melody Love ----------------
#NOTES:
     dance-single:
     Melody Love:
     Hard:
     14:
     0,0,0,0,0:
0000
0000
0000
0000
,
0000
0000
0000
0000
,
0000
0000
0000
0000
,
0000
0000
0000
0000
0000
0000
0000
0000
0000
0000
0000
0000
0010
0100
0010
0100
,
0010
0000
0000
1000
0010
0000
0100
0000
0001
0000
0000
1000
0001
0000
1000
0000
,
0001
0000
1000
0000
0001
0000
1000
0000
0100
0000
0000
0000
0010
0100
0010
0100
,
0010
0000
0000
0001
0010
0000
0100
0000
1000
0000
0000
0000
0000
0000
1001
0000
,
0000
0000
0001
0000
1000
0000
0001
0000
0100
0000
0000
0000
0001
1000
0001
1000
,
0001
0000
0000
0100
0010
0000
1000
0000
0001
0000
0000
1000
0001
0000
1000
0000
,
0001
0000
1000
0000
0001
0000
1000
0000
0010
0000
0000
0000
1000
0001
1000
0001
,
1000
0000
0000
0010
0100
0000
0001
0000
1000
0000
0000
0000
0000
0000
1001
0000
,
0000
0001
1000
0001
0010
0000
0000
0000
,
0010
0001
0010
0000
0000
0000
0100
0000
1000
0000
0100
1000
0000
0000
0001
0000
,
0010
0001
0010
0000
0000
0000
0100
0000
1000
0000
0000
0000
0000
0000
0002
0000
,
0203
0300
0001
0100
0001
0000
1001
0000
,
1000
0000
1000
0100
1000
0000
1001
0000
,
1000
0100
1000
0000
0001
0000
0010
0000
0001
0000
0000
0001
0010
0000
0100
0000
,
1000
0100
1000
0000
0000
0000
0001
0000
0010
0000
0100
0000
1000
0000
0001
0000
,
1000
0000
0004
4000
0000
0000
0000
0000
0000
0000
3003
0000
0000
0000
0000
0000
,
0101
0000
0110
0000
1010
0000
0110
0000
0000
0000
0000
0000
0010
0100
0010
0100
,
0010
0000
0000
0010
1000
0000
0010
0000
1000
0000
0000
0000
0010
0000
1000
0000
,
0010
0000
0100
0000
0010
0000
0001
0000
0010
0000
0000
0000
0100
0010
0100
0010
,
0100
0000
0000
0010
1000
0000
0001
0100
0000
0000
0000
0000
0001
0000
0010
0000
,
0001
0000
1000
0000
0001
0000
0000
0100
0001
0000
0000
0000
0100
0010
0100
0010
,
0100
0000
0000
0100
0001
0000
0100
0000
0001
0000
0000
0000
0100
0000
0001
0000
,
0100
0000
0010
0000
0100
0000
1000
0000
0100
0000
0000
0000
0010
0100
0010
0100
,
0010
0000
0000
0100
0001
0000
1000
0010
0000
0000
0000
0000
1000
0000
0100
0000
,
1000
0000
0001
0000
1000
0000
0000
0010
1000
0000
0000
0000
0200
0300
0000
0010
,
0001
0020
0000
0030
0200
0300
0000
1000
0020
0000
0030
0000
0200
0300
0000
0010
,
0001
0000
0020
0000
0030
0000
1000
0010
2000
0000
3000
0000
0010
0000
0100
0000
,
0010
1000
0010
0000
0100
0000
0001
0000
0010
0000
0000
0000
0100
0000
0010
0000
,
0001
0010
0001
0010
0001
0000
0000
0001
0100
0000
0000
0000
0200
0300
0000
0010
,
1000
0020
0000
0030
0200
0300
0000
0001
0020
0000
0030
0000
0200
0300
0000
0010
,
1000
0000
0020
0000
0030
0000
0001
0010
0002
0000
0003
0000
0010
0000
0100
0000
,
0010
0001
0010
0000
0100
0000
1000
0000
0010
0000
0000
0000
0000
0000
0010
0000
,
1000
0010
2000
0000
0000
0000
0000
0000
0000
0000
0000
0000
3000
0010
0100
0010
,
0100
0010
2000
0000
0010
0000
3010
0000
0000
0000
0000
0000
0000
0000
0000
0000
,
1000
0000
0000
1000
0001
0000
1000
0000
0001
0000
0000
0001
1000
0000
0001
0000
,
1000
0000
0001
0000
1000
0000
0001
0000
1000
0000
0000
0000
0010
0100
0010
0100
,
0010
0000
0000
0010
0100
0000
0010
0000
0100
0000
0000
0000
0000
0000
0010
0000
,
0000
1000
0100
0010
0001
0000
0000
0000
,
2002
3003
0000
0000
1000
0000
0001
0000
0200
0300
0000
0000
0201
0000
0300
0000
,
0010
0000
2000
3000
0000
0000
0001
0000
0020
0030
0000
0000
0120
0000
0030
0000
,
0100
0000
0010
0000
0100
0000
0010
0000
0200
0300
0000
0000
1100
0000
1000
0000
,
0100
0000
0010
0000
0001
0000
0010
0000
0200
0300
0000
0000
1100
0000
0000
0000
,
2002
3003
0000
0000
1000
0000
0001
0000
0020
0030
0000
0000
0021
0000
0030
0000
,
0100
0000
1000
0000
0001
0000
0010
0000
0200
0300
0000
0000
0210
0000
0300
0000
,
0010
0000
0100
0000
0010
0000
0100
0000
2000
3000
0000
0000
2100
0000
3000
0000
,
0100
0000
0010
0000
0001
0000
0010
0000
0200
0300
0000
0000
1100
0000
0000
0000
,
0000
0400
0040
0000
0000
0000
0000
0000
,
0000
0000
0330
0000
,
0010
0010
0100
0100
,
1000
1000
0001
0001
1000
1000
0001
0001
,
1000
0100
1000
0100
0010
0001
0010
0001
1000
0100
1000
0100
0010
0001
0010
0001
,
0200
0000
0000
0000
0000
0300
0000
0000
0110
0000
0000
0100
0001
0000
1000
0000
,
0001
0000
0100
0001
0100
0010
0100
1000
,
0100
0000
0000
0000
0010
0100
0001
1000
0010
0000
0000
0100
0001
0000
1000
0010
,
0000
0000
0000
0000
1000
0000
0100
0000
1000
0000
0001
0000
1000
0000
0000
0010
,
1000
0000
0000
0000
0100
0010
0001
1000
0010
0000
0000
0010
1000
0000
0001
0000
,
1000
0000
0010
1000
0010
0100
0010
0001
,
0010
0000
0000
0000
0100
0010
1000
0001
0100
0000
0000
0010
1000
0000
0001
0100
,
0000
0000
0000
0000
0001
0000
0010
0000
0001
0000
1000
0000
0001
0000
0000
0100
,
0001
0000
0000
0000
0010
0100
0010
0100
0010
0000
0000
0001
0010
0000
0100
0000
,
1000
0000
0000
0001
1000
0000
0001
0000
1000
0000
0001
0000
1000
0000
0001
0000
,
0100
0000
0000
0000
0010
0100
0010
0100
0010
0000
0000
1000
0010
0000
0100
0000
,
0001
0000
0000
1001
0000
1000
0001
1000
,
0100
0000
0000
0000
1000
0001
1000
0001
1000
0000
0000
0100
0010
0000
0001
0000
,
1000
0000
0000
0001
1000
0000
0001
0000
1000
0000
0001
0000
1000
0000
0001
0000
,
0010
0000
0000
0000
0001
1000
0001
1000
0001
0000
0000
0010
0100
0000
1000
0000
,
0001
0000
0000
1001
0000
1000
0001
1000
,
0010
0000
0000
0000
1000
0001
1000
0001
1000
0000
0000
1000
0001
0000
1000
0000
,
0001
0000
0000
0001
1000
0000
0001
0000
1000
0000
0001
0000
1000
0000
0001
0000
,
1000
0000
0000
0000
0100
0010
0100
0010
0100
0000
0000
0100
0010
0000
0100
0000
,
0010
0000
0000
0110
0000
0001
0010
0100
,
1000
0000
0000
0000
;
