#TITLE:Forbidden Sanctuary;
#SUBTITLE:;
#ARTIST:Konpeki Studios;
#TITLETRANSLIT:;
#SUBTITLETRANSLIT:;
#ARTISTTRANSLIT:;
#GENRE:Touhou;
#CREDIT:Melody Love;
#MUSIC:Forbidden Sanctuary.ogg;
#BANNER:Forbidden Sanctuary.png;
#BACKGROUND:Forbidden Sanctuary-bg.png;
#CDTITLE:;
#SAMPLESTART:53.060;
#SAMPLELENGTH:23.000;
#SELECTABLE:YES;
#OFFSET:-0.027;
#BPMS:0.000=182.000
,65.000=91.000
,81.000=182.000
,113.000=91.000
,121.000=182.000
,133.000=91.000
,135.000=182.000
,231.000=91.000
,247.000=182.000
,311.000=91.000
;
#STOPS:;
#BGCHANGES:;
#FGCHANGES:;

//--------------- dance-single - Melody Love ----------------
#NOTES:
     dance-single:
     Melody Love:
     Beginner:
     6:
     0,0,0,0,0:
0000
0000
0000
0000
,
0000
0000
0000
0000
,
0000
0000
0000
0000
,
0000
0000
0000
0000
,
0000
2000
0000
0000
,
3000
0002
0000
0000
,
0003
0200
0000
0000
,
0300
0100
0000
0000
,
0000
0000
0100
0000
0000
0010
0000
0010
,
0000
0000
1000
0000
0000
1000
0000
0000
,
0000
0000
0010
0000
0000
0100
0000
0100
,
0000
0000
0001
0000
0000
0001
0000
0000
,
0000
0000
0100
0000
0000
0010
0000
0010
,
0000
0000
1000
0000
0000
1000
0000
0000
,
0000
0000
0010
0000
0000
0100
0000
0100
,
0000
0000
0001
0000
0000
0001
0000
0000
,
0000
0001
1000
0100
,
0010
0001
0100
0010
,
1000
1000
0001
0000
0100
0000
0010
0000
,
0100
0001
1000
0010
,
2000
3000
0001
0000
0000
0000
0100
0000
,
0100
0000
0000
0001
,
0001
0100
0000
0010
,
0000
2000
0000
3002
,
0000
0003
1000
0000
0000
0000
0010
0000
,
0010
0000
0000
0100
,
0100
0010
0000
1000
,
0000
0200
0000
0320
,
0030
0200
0300
2000
,
3000
0020
0030
0200
,
0000
0300
0010
0000
0010
0000
0010
0000
,
0000
0100
0100
0100
,
0000
0001
0001
0001
,
0000
0000
2000
0000
0000
3000
0001
0000
,
0001
0001
0000
0010
,
0010
0010
0000
0100
,
0100
0100
0000
2000
,
0000
3000
0000
0010
,
0010
0010
0000
0100
,
0100
0100
0000
0001
,
0001
0001
0000
0020
,
0000
0030
0000
0100
,
0100
0100
0000
1000
,
1000
1000
0000
0001
,
0001
0001
0000
0200
,
0000
0300
0000
1000
,
1000
1000
0000
0001
,
0001
0001
0000
0010
,
0010
0010
0000
0200
,
0000
0300
0000
0010
,
0000
0010
0000
1000
,
0000
1000
0000
0100
,
0000
0100
0000
0001
,
0000
0001
0000
0100
,
0100
0100
0000
0010
,
0010
0010
0000
0001
,
0000
0010
0000
0100
,
0000
1000
0000
2002
,
3003
0200
0000
0320
,
0000
0230
0300
0010
,
0010
0001
0001
0100
,
0100
0000
0000
0000
2000
0000
0000
0000
0000
3000
0000
0000
0001
0000
0000
0000
,
0001
0001
0000
0100
,
0100
0100
0000
0010
,
0010
0010
0000
0020
,
0000
0030
0000
0001
,
0001
0001
0000
1000
,
1000
1000
0000
0100
,
0100
0100
0000
0200
,
0000
0300
0000
2002
,
0000
0000
0000
0000
,
0000
3003
0000
0000
0000
0000
0100
0000
,
0000
0010
0000
0010
0000
0000
1000
0000
,
0000
1000
0000
0000
0000
0000
0010
0000
,
0000
0100
0000
0100
0000
0000
0001
0000
,
0000
0001
0000
0000
0000
0000
0100
0000
,
0000
0010
0000
0010
0000
0000
1000
0000
,
0000
1000
0000
0000
0000
0000
2002
0000
,
0000
0000
0000
0003
3000
0000
0000
0000
0000
0000
0000
0000
2002
0000
0000
0000
0000
0000
0000
0000
0000
3003
0000
0000
0000
0000
0000
0000
0000
0000
0000
0000
0000
0000
0000
0000
0000
0000
0000
0000
0000
0000
0000
0000
0000
0000
0000
0000
;

//--------------- dance-single - Melody Love ----------------
#NOTES:
     dance-single:
     Melody Love:
     Easy:
     9:
     0,0,0,0,0:
0000
0000
0000
0000
,
0000
0000
0000
0000
,
0000
0000
0000
0000
,
0000
0000
0000
0000
,
0000
2200
0000
0000
,
3300
0022
0000
0000
,
0033
2200
0000
0000
,
3300
0000
0100
0000
0000
0100
0000
0000
,
0000
0000
0100
0000
0000
0020
0000
0130
,
0000
0000
1000
0000
0000
0001
0000
0000
,
0000
0000
0010
0000
0000
0200
0000
0310
,
0000
0000
0001
0000
0000
1000
0000
0000
,
0100
0000
0010
0000
0000
0020
0000
0130
,
0000
0000
1000
0000
0000
0001
0000
0000
,
0010
0000
0100
0000
0000
0200
0000
0310
,
0000
0000
0001
0000
0000
1000
0000
0000
,
0100
0000
0001
0001
1000
1000
0000
0100
,
0001
0001
0100
0100
0010
0010
1000
1000
,
0100
0010
0001
0001
1000
1000
0000
0010
,
0100
0100
1000
1000
0001
0001
1000
0001
,
2000
3000
0001
0000
0001
0000
0100
0000
,
0100
0000
1000
0001
,
0001
0100
0100
0010
,
0010
0200
0000
0320
,
0000
0030
1000
0000
1000
0000
0010
0000
,
0010
0000
0100
0001
,
0001
0100
0100
0010
,
0010
0200
0000
0320
,
0030
0000
0200
0000
0300
0100
0020
0000
,
0030
0000
0010
0000
0020
0000
0030
2000
0000
3000
0000
0200
0000
0000
0000
0000
,
0000
0300
1000
0000
1000
0000
1000
0000
,
1000
0010
0010
0010
,
0010
0001
0001
0001
,
0001
0000
2000
0000
0002
3003
0001
0000
,
0001
0001
0010
0001
,
0001
1000
1000
0010
,
0010
1000
1000
0002
,
0000
0003
0010
0010
,
0010
0010
0100
1000
,
1000
0001
0001
0100
,
0100
0001
0001
0020
,
0000
0030
0000
1000
,
1000
1000
1000
0100
,
0100
0010
0010
0001
,
0001
1000
1000
0002
,
0000
0003
1000
1000
,
1000
1000
1000
0001
,
0001
0100
0100
0010
,
0010
1000
1000
0200
,
0000
1300
0000
0100
,
0010
0100
0010
1000
,
0001
1000
0002
0103
,
0001
0100
0001
1000
,
0010
1000
0010
0100
,
0100
0010
0010
1000
,
1000
0001
0001
0001
,
0010
0100
1000
0010
,
0010
0010
0000
2002
,
3003
0000
0000
0000
0200
0000
0000
0300
2000
0000
0000
3000
0020
0000
0000
0030
,
0200
0000
0000
0300
0002
0000
0000
0003
0000
0000
0000
0000
0200
0000
0000
0000
,
0010
0310
0020
0000
0100
0130
0001
0000
,
1000
0000
0000
0000
2000
0000
0000
0000
0000
3000
0000
0000
1000
0000
0000
0000
,
1000
1000
1000
0100
,
0100
0010
0010
0100
,
0100
0010
0010
0020
,
0000
0030
1000
0001
,
0001
0001
0001
0100
,
0100
0010
0010
1000
,
1000
0100
0100
0200
,
0000
1300
0001
2002
,
0000
0000
0000
0000
,
0000
3003
0000
0000
0000
0000
0100
0000
,
0000
0020
0000
0130
0000
0000
1000
0000
,
0000
0001
0000
0000
1000
0000
1000
0000
,
0000
0200
0000
0310
0000
0000
0100
0000
,
0000
0010
0000
0000
0001
0000
1000
0000
,
0000
0020
0000
0130
0000
0000
0010
0000
,
0000
0000
0110
0000
0000
0000
0000
0000
1001
0000
0000
0000
0020
0000
0000
1030
,
0000
1000
0000
0000
0020
0000
0000
1030
0000
0000
0000
0000
0000
0000
0000
0000
;

//--------------- dance-single - Melody Love ----------------
#NOTES:
     dance-single:
     Melody Love:
     Medium:
     12:
     0,0,0,0,0:
0000
0000
0000
0000
,
0000
0000
0000
0000
,
0000
0000
0000
0000
,
0000
0000
0000
0000
,
0000
2200
0000
0300
,
3100
0022
0000
0030
,
0013
2200
0000
0300
,
3100
0000
0100
0000
0000
0100
0000
1000
,
0100
0000
0100
0000
0020
0100
0000
0130
,
0000
1000
1000
0000
0001
0001
0000
0001
,
0010
0000
0010
0000
0200
0010
0000
0310
,
0000
0001
0001
0000
1000
1000
0000
0010
,
0100
0000
0010
0000
0200
0010
0000
0310
,
0000
1000
1000
0000
0001
0001
0000
0100
,
0010
0000
0100
0000
0020
0100
0000
0130
,
0000
0001
0001
0000
1000
1000
0000
0010
,
0010
0000
0000
0000
0010
0100
0010
0000
1000
0000
1000
0000
0000
0010
0100
0000
,
0001
0000
0001
0000
0100
0010
1000
0000
0100
0010
0001
0000
0010
0100
1000
0000
,
0100
0000
0010
0000
0100
0010
0100
0000
1000
0000
1000
0000
0000
0100
0010
0000
,
0001
0000
0001
0000
0100
0010
1000
0000
0100
0010
0001
0000
1000
0000
0001
0000
,
0020
0030
0001
1000
0001
0000
0100
0000
,
0100
0000
0000
0010
1000
0000
0001
0000
,
0001
0000
0100
0001
0100
0000
0010
1000
,
0010
0200
0320
0230
,
0320
0030
1000
0001
1000
0000
0010
0000
,
0010
0000
0000
0100
0001
0000
1000
0000
,
1000
0000
0100
1000
0100
0000
0010
0001
,
0010
0200
0320
0230
,
0300
0000
0200
0000
0300
0100
0020
0000
,
0030
0000
0010
0000
0002
0000
0003
2000
0000
3000
0000
0200
0000
0000
0000
0000
,
2300
3000
1000
0100
1000
0000
0100
0000
,
0100
0000
0010
0001
0010
0000
0001
0000
,
0001
0000
1000
0001
1000
0000
0010
0000
,
0010
0000
2000
0000
0002
3003
0001
1000
,
0001
1000
0001
0000
0010
0000
0001
0010
,
0001
0000
1000
0100
1000
0000
0001
0010
,
0100
0000
1000
0010
0100
0000
0002
0000
,
0000
0000
0003
0000
0010
0000
0010
0001
,
0010
0001
0010
0000
0100
0000
1000
0100
,
1000
0000
0001
0010
0001
0000
1000
0100
,
0010
0000
0001
0100
0010
0000
0020
0000
,
0000
0000
0030
0000
0000
0000
1000
0001
,
1000
0001
1000
0001
1000
0000
0100
0010
,
0100
0000
0010
0100
0010
0000
0001
0010
,
0100
0000
1000
0010
0100
0000
0002
0000
,
0000
0000
0003
0000
1000
0000
1000
0100
,
1000
0100
1000
0100
1000
0000
0001
0100
,
0001
0000
0100
0010
0100
0000
0010
1000
,
0010
0000
1000
0001
1000
0000
0200
0000
,
0000
0000
1300
0000
0000
1000
0100
1000
,
0010
0000
0100
0001
0100
0010
0100
0000
,
0100
0000
0001
1000
0002
0000
0103
0100
,
0002
0003
0010
0010
0200
0300
0010
0000
,
0001
1000
0000
0000
1000
0000
0001
0010
,
0100
1000
0100
0000
0100
0000
1000
0100
,
0010
0001
0010
0000
0010
0000
0001
0100
,
0010
0000
0000
0000
0000
0000
1000
0000
0000
0100
0000
0000
0010
0000
0000
0000
0000
0000
0010
0000
0000
0000
0100
0000
,
0000
0010
0000
0001
0000
1000
0000
0001
0000
2002
0000
0000
,
3003
0000
1000
0000
0200
0000
0000
0300
2000
0000
0000
3000
0020
0000
0000
0030
,
0200
0000
0000
0300
0002
0000
0000
0003
0000
0000
1000
0000
0200
0000
1000
0000
,
1000
1300
0020
0001
0001
0031
1000
0001
,
1000
0000
0001
0000
2000
0000
0000
0000
0000
3000
0100
0000
1000
0000
0100
0000
,
1000
0100
1000
0100
1000
0000
0010
1000
,
0010
0000
0100
0010
0100
0000
0001
0100
,
0001
0000
0010
0100
0010
0000
0020
0000
,
0000
0000
0030
0000
1000
0000
0001
0100
,
0001
0100
0001
0100
0001
0000
1000
0100
,
1000
0000
0010
0100
0010
0000
0100
0001
,
0100
0000
0010
0100
0010
0000
0200
0000
,
0000
0000
0301
0000
0001
1000
2002
0000
,
0000
0000
0000
0000
,
0000
3003
0000
1000
0100
0000
0100
0000
,
0020
0100
0000
0130
0000
1000
1000
0000
,
0001
0001
0000
0001
1000
0000
1001
0000
,
2000
0010
0000
3010
0000
0100
0200
0000
,
0010
0310
0000
0100
0001
0000
0101
0000
,
0000
0010
0000
0110
0000
0000
1010
0000
,
0000
0000
1000
0000
0000
0000
0000
0000
1001
0000
0000
0000
0002
0000
0000
1003
,
0000
1000
0000
0000
0020
0000
1000
1030
0000
0000
0000
0000
0000
0000
0000
0000
;

//--------------- dance-single - Melody Love ----------------
#NOTES:
     dance-single:
     Melody Love:
     Hard:
     14:
     0,0,0,0,0:
0000
0000
0000
0000
,
0000
0000
0000
0000
,
0000
0000
0000
0000
,
0000
0000
0100
0000
0000
0100
0000
0000
,
0000
2100
0100
0100
,
3100
0012
0010
0010
,
0013
2100
0100
0100
,
3100
0000
0100
0000
0000
0100
0000
1000
,
0100
0010
0100
0000
0020
0100
0000
0130
,
0000
0000
1000
0010
1000
0000
0000
0000
1000
0000
0001
0000
0000
0000
0001
0000
,
0010
0100
0010
0000
0200
0010
0000
0310
,
0000
0000
0001
0010
0001
0000
0000
0000
0001
0000
1000
0000
0000
0000
0010
0000
,
0100
0010
1000
0000
0200
0010
0000
0310
,
0000
0000
0010
0100
0010
0000
0000
0000
0001
0000
0010
0000
0000
0000
0100
0000
,
0010
0100
1000
0000
0020
0100
0000
0130
,
0000
0000
0100
0010
0100
0000
0000
0000
0001
0000
0100
0000
0000
0000
0001
0000
,
1000
0000
0000
0000
0010
0100
0010
0100
0001
0000
0001
0000
0000
0010
0100
0010
,
0100
0000
1000
0000
0100
0010
0001
0010
0100
1000
0001
0000
0001
0010
0100
0010
,
0100
0000
0110
0000
0100
0010
0100
0010
0001
0000
0001
0000
0000
0100
0010
0100
,
0010
0000
1000
0000
0100
0010
0001
0010
0100
1000
0001
0000
1000
0000
1000
0000
,
0020
0030
0110
0000
0010
1000
0001
0000
,
1000
0010
0000
0100
0010
1000
0001
0000
,
1000
0001
0100
0001
0100
0010
1000
0010
,
1000
0100
0200
0000
0320
0000
0032
0000
,
2003
3000
0110
0000
0100
0001
1000
0000
,
0001
0100
0000
0010
0100
0001
1000
0000
,
0001
1000
0100
1000
0100
0010
0001
0010
,
0001
1000
2000
0000
3200
0000
0320
0000
,
0030
0000
0000
0000
0200
0000
0000
0000
0300
0000
0100
1000
0020
0000
0000
0000
,
0030
0000
0010
1000
0020
0000
0130
0002
0000
0013
0000
0200
0000
0000
0000
0000
,
2300
3000
1000
0100
1000
0100
1000
0100
,
1000
0000
0001
0010
0001
0010
0001
0010
,
0001
0000
1000
0001
1000
0001
1000
0001
,
1000
0000
0000
0000
2000
0000
0000
0001
0002
0000
3003
0000
0001
0000
1000
0000
,
0001
1000
0001
1000
0010
0100
0001
0010
,
0001
0010
0001
0100
0001
0100
0001
0010
,
0001
0010
0001
0100
0001
0100
0002
0000
,
0000
0000
0003
0000
0010
0000
0010
0001
,
0010
0001
0010
0001
1000
0100
0010
0001
,
0010
0001
0010
0100
0010
0100
1000
0100
,
1000
0100
0010
0001
0010
0001
0020
0000
,
0000
0000
0030
0000
0000
0000
1000
0001
,
1000
0001
1000
0001
1000
0001
0100
0010
,
0100
0010
1000
0010
1000
0010
1000
0001
,
1000
0001
1000
0100
1000
0100
2000
0000
,
0000
0000
3000
0000
0100
0000
0100
1000
,
0100
1000
0100
1000
0100
1000
0001
0010
,
0001
0010
0100
0010
0100
0010
0100
1000
,
0100
1000
0100
0001
0100
0001
0200
0000
,
0000
0000
0000
0000
0310
0000
0000
0001
0000
0000
1000
0100
1000
0000
0100
0000
,
0010
0100
0001
0100
0010
0100
1000
0100
,
0010
0000
0001
0000
1000
0100
1000
0000
0020
0000
0000
0000
0130
0001
0100
0000
,
0002
0000
1003
0000
0100
1000
0100
0000
1000
0000
0010
0100
0010
0100
0000
0001
,
0000
0000
0000
0010
0000
0000
0000
0000
0100
0000
0000
0000
1000
0000
0000
1000
0000
0000
0002
0000
0000
0103
0000
0000
,
0020
0000
1030
0000
0200
0000
0310
0000
0002
0000
1003
0000
0001
1000
0010
0000
,
0100
0000
0100
0010
1000
0000
0001
0000
1000
0000
0001
1000
0010
0000
0100
0000
,
0010
0000
0000
0100
0000
0000
0001
0000
0000
0100
0000
0000
0001
0000
0000
0100
0000
0000
0110
0000
0000
0000
0101
0000
,
0000
0110
0000
1100
0000
0110
0000
0101
0000
0220
0000
0000
,
0330
0000
1000
0000
0200
0000
0000
0000
0002
0000
0000
0003
2000
0000
0000
3000
,
0002
0000
0000
0003
2000
0000
0000
3000
0300
0000
1000
0000
0200
0000
1000
0000
,
2300
0000
0010
0000
3020
0000
0100
0000
0230
0000
0001
0000
0301
1000
0001
1000
,
0001
1000
0001
1000
0002
0000
0000
0000
0000
0003
0010
0000
0001
0000
0100
0000
,
0001
0100
0001
0100
0001
0100
0010
1000
,
0010
1000
0010
0100
0010
0100
0010
0001
,
0010
0001
1000
0100
1000
0100
0020
0000
,
0000
0000
0030
0000
0100
0000
1000
0010
,
1000
0010
1000
0010
1000
0010
0100
0001
,
0100
0001
0100
0010
0100
0010
0100
1000
,
0100
1000
0001
0010
0001
0010
0200
0000
,
0000
0000
0000
0000
0301
0000
0000
1000
0000
0000
0001
0000
2002
0000
0000
0000
,
0000
0000
0000
0000
,
0000
3003
0000
1000
0100
0010
0100
0000
,
0020
0000
0100
0000
0000
0000
0130
0000
0000
0000
0100
0010
0001
0000
0000
0000
,
1000
0000
1000
0000
0000
0000
0001
0000
1000
0000
0100
0000
0011
0000
0000
0100
,
2000
0000
0010
0000
0000
0000
3010
0000
0000
0000
0100
0010
0200
0000
0000
0000
,
0010
0310
0000
0001
0100
0001
0101
0000
,
0100
0010
0000
0110
0000
1000
1010
0000
,
0010
0000
1000
0000
0000
0000
0001
0000
1001
0000
0000
0000
1000
0000
0010
1000
,
0000
0000
1000
0000
0000
0000
0000
0000
0010
0000
0000
0000
1000
0001
1000
0000
0000
0000
0000
0000
0000
0000
0000
0000
0000
0000
0000
0000
0000
0000
0000
0000
;

//--------------- dance-single - Melody Love ----------------
#NOTES:
     dance-single:
     Melody Love:
     Challenge:
     16:
     0.614,0.974,0,0.124,0.015:
0000
0000
0000
0000
,
0000
0000
0000
0000
,
0000
0000
0000
0000
,
0000
0000
0100
0000
0000
0100
0000
0000
,
0000
0000
0000
0000
2100
0000
0000
0000
3100
0000
0000
1000
0100
0000
0000
1000
,
0100
0000
0000
0000
0012
0000
0000
0000
0013
0000
0000
0001
0010
0000
0000
0001
,
0010
0000
0000
0000
2100
0000
0000
0000
3100
0000
0000
1000
0100
0000
0000
1000
,
0100
0000
0100
0000
0000
0100
0000
1000
,
0100
0000
0010
0000
0100
0000
0000
1000
0200
0000
0010
0000
0000
0000
0310
0000
,
0000
0000
0001
0010
0001
0000
0000
1000
0100
0000
1000
0000
0000
0000
0001
0000
,
0010
0000
0100
0000
0010
0000
0000
0001
0100
0000
0010
0000
0000
0100
0010
0000
,
0000
0000
1000
0010
1000
0000
0000
0001
0100
0000
0001
0000
0000
0000
0010
0000
,
0100
0000
0010
0000
0001
0000
0000
1000
0020
0000
0100
0000
0000
0000
0130
0000
,
0000
0000
0010
1000
0010
0000
0000
0100
0001
0000
0100
0000
0000
0000
0010
0000
,
0100
0000
0010
0000
1000
0000
0000
0001
0010
0000
0100
0000
0000
0010
0100
0000
,
0000
0000
0010
0001
0010
0000
0000
0100
1000
0000
0100
0000
0000
0000
1000
0000
,
1001
0000
0000
0000
0000
0000
0000
0000
0010
0000
0010
0000
0100
0000
0001
0000
0100
0000
0010
0000
1000
0000
0010
0000
0000
0000
1000
0100
1000
0000
0100
0000
,
0010
0000
0100
0000
1000
0000
0001
0000
0100
0000
0010
0000
0100
0000
0001
0000
1000
0000
0100
0000
1000
0000
0001
0100
0001
0000
0010
0000
0010
0000
0100
0000
,
0100
0000
0000
0000
0110
0000
0000
0000
0010
0000
0010
0000
0100
0000
1000
0000
0100
0000
0010
0000
0001
0000
0010
0000
0000
0000
0001
0100
0001
0000
0100
0000
,
0010
0000
0000
0100
0000
0000
0001
0000
0000
1000
0000
0000
0100
0000
0000
0010
0000
0000
0100
0000
0000
1000
0000
0000
0001
0000
0000
0100
0000
0000
0001
0000
0000
0100
0000
0000
0002
0000
0000
0003
1000
0000
0000
0000
0000
1000
0000
0000
,
0020
0030
0110
0100
0010
1000
0001
0001
,
1000
0000
0010
0000
0000
0000
1000
0100
1000
0000
0100
0000
0010
0000
0010
0000
,
0001
0001
1000
0001
0100
0010
1000
0100
,
0010
0100
0100
0010
0010
0001
0001
1000
,
1000
0000
0110
0010
0100
0001
1000
1000
,
0001
0000
0100
0000
0000
0000
0001
0010
0001
0000
0100
0000
0010
0000
0010
0000
,
1000
1000
0001
1000
0100
0010
0001
0100
,
0010
0000
0000
1000
0000
0000
1000
0000
0000
0000
0100
0000
0000
0000
0100
0000
0000
0000
0020
0000
0000
0000
0000
0000
,
0030
0000
0000
0000
2000
0000
0000
0000
3000
0000
0100
1000
0020
0000
0000
0000
,
0030
0000
0100
0001
0020
0000
0130
2000
0000
3010
0000
0200
0000
0000
0000
0000
,
0302
0000
0003
0000
1000
0000
0000
0100
1000
0000
0000
0100
1000
0000
0000
0100
,
1000
0000
0000
0000
0001
0000
0000
0010
0001
0000
0000
0010
0001
0000
0000
0010
,
0001
0000
0000
0000
1000
0000
0000
0001
1000
0000
0000
0001
1000
0000
0000
0001
,
1000
0000
0000
0000
2000
0000
0000
0001
0002
0000
3003
0000
0001
0000
0000
1000
,
0001
0000
0000
1000
0001
0000
0000
0010
0001
0000
0000
0100
0001
0000
0000
0100
,
0001
0000
0000
1000
0001
0000
0000
1000
0001
0000
0000
0010
0001
0000
0000
0010
,
0001
0000
0000
0100
0001
0000
0000
0100
0001
0000
0000
0010
0002
0000
0000
0000
,
0000
0000
0000
0000
0003
0000
0000
0000
0010
0000
0000
0000
0010
0000
0000
0001
,
0010
0000
0000
0001
0010
0000
0000
1000
0010
0000
0000
0100
0010
0000
0000
0100
,
0010
0000
0000
0001
0010
0000
0000
0001
0010
0000
0000
0100
0010
0000
0000
0100
,
0010
0000
0000
1000
0010
0000
0000
1000
0010
0000
0000
0100
0020
0000
0000
0000
,
0000
0000
0000
0000
0030
0000
0000
0000
0000
0000
0000
0000
1000
0000
0000
0001
,
1000
0000
0000
0001
1000
0000
0000
0001
1000
0000
0000
0010
1000
0000
0000
0010
,
1000
0000
0000
0100
1000
0000
0000
0100
1000
0000
0000
0001
1000
0000
0000
0001
,
1000
0000
0000
0010
1000
0000
0000
0010
1000
0000
0000
0100
2000
0000
0000
0000
,
0000
0000
0000
0000
3000
0000
0000
0000
0100
0000
0000
0000
0100
0000
0000
1000
,
0100
0000
0000
1000
0100
0000
0000
1000
0100
0000
0000
0010
0100
0000
0000
0010
,
0100
0000
0000
1000
0100
0000
0000
1000
0100
0000
0000
0010
0100
0000
0000
0010
,
0100
0000
0000
0001
0100
0000
0000
0001
0100
0000
0000
0010
0200
0000
0000
0000
,
0000
0000
0000
0000
0310
0000
0000
0001
0000
0000
1000
0100
1000
0000
0001
0000
,
0010
0100
1000
0001
0010
0100
1000
0100
,
0010
0000
0001
0000
1000
0100
1000
0100
2000
0000
0000
0000
3010
0100
0010
0100
,
0010
0100
0010
0000
1000
0100
1000
0100
1000
0100
0010
0001
0010
0001
0010
0001
,
0100
0000
0000
0000
0000
0000
0010
0000
0000
1000
0000
0000
0000
0000
0000
0000
0100
0000
0000
0000
0000
0000
0000
0000
1000
0000
0000
0000
0000
0000
0100
0000
0000
0000
0000
0000
0100
0000
0000
0000
0000
0000
0100
0000
0000
0000
0000
0000
,
1000
0000
1000
0000
0100
0000
0100
0000
0010
0000
0010
0000
0001
1000
0010
0100
,
0001
1000
0010
0100
0001
1000
0010
0000
1000
0000
0001
1000
0010
0000
0100
0000
,
0010
0000
0000
0100
0000
0000
0001
0000
0000
0100
0000
0000
0001
0000
0000
0100
0000
0000
0010
0000
0000
0000
0001
0100
,
0000
0000
0010
0100
0000
0000
1000
0100
0000
0000
0010
0100
0000
0000
0001
0100
0000
0000
2002
0000
0000
0000
0000
0000
,
3003
0000
1000
0000
0200
0000
0000
0000
0020
0000
0000
0030
2000
0000
0000
3000
,
0002
0000
0000
0003
2000
0000
0000
3000
0300
0000
1000
0000
0200
0000
1000
0000
,
2300
0000
0000
0000
0010
0000
0000
0000
3020
0000
0000
0000
0100
0000
0000
0000
0230
0000
0000
0000
0001
0000
0000
0000
0301
0000
0000
0001
1000
0000
0000
0010
,
1000
0000
0000
0001
1000
0000
0000
0100
2000
0000
0000
0000
0000
0000
0000
0000
0000
0000
3000
0000
0011
0000
0000
0000
0001
0000
0000
0000
0000
0000
0100
0000
,
0001
0000
0000
0100
0001
0000
0000
0100
0001
0000
0000
1000
0010
0000
0000
1000
,
0010
0000
0000
0100
0010
0000
0000
0100
0010
0000
0000
0001
0010
0000
0000
0001
,
0010
0000
0000
0100
1000
0000
0000
0100
1000
0000
0000
0100
0020
0000
0000
0000
,
0000
0000
0000
0000
0030
0000
0000
0000
0100
0000
0000
0000
1000
0000
0000
0010
,
1000
0000
0000
0010
1000
0000
0000
0010
1000
0000
0000
0001
0100
0000
0000
0001
,
0100
0000
0000
0010
0100
0000
0000
0010
0100
0000
0000
1000
0100
0000
0000
1000
,
0100
0000
0000
0010
0001
0000
0000
0010
0001
0000
0000
0010
0200
0000
0000
0000
,
0000
0000
0000
0000
0301
0000
0000
0001
0000
0000
1000
0000
2002
0000
0000
0000
,
0000
0000
0000
0000
,
0000
0000
3003
0000
0000
0000
1000
0000
0100
0000
0010
0000
0100
0000
0000
0010
,
0100
0000
1000
0000
0000
0001
1000
0000
0000
0000
0100
0010
0001
0000
0000
0000
,
1000
0000
1000
0000
0000
0000
0101
0000
1010
0000
1100
0000
0011
0000
0000
0100
,
2000
0000
0010
0000
0000
0000
3010
0000
0000
0000
0100
0010
0100
0000
0000
0100
,
0010
0000
0100
0000
0000
0000
1000
0000
0100
0000
1000
0000
0011
0000
0000
1000
,
0100
0000
0110
0000
0000
0000
0110
0000
0000
0000
1000
0100
1000
0000
0000
0000
,
1000
0000
0000
0000
1010
0000
0000
0000
0000
0000
0000
0000
1001
0000
0000
0000
1001
0000
0000
0000
0000
0000
0000
0000
1000
0000
0000
0000
0000
0010
1000
0000
,
0000
0000
1000
0000
0000
0000
0000
0010
1000
0000
0000
0000
1000
0001
1000
0000
0000
0000
0000
0000
0000
0000
0000
0000
0000
0000
0000
0000
0000
0000
0000
0000
;
