#TITLE:Bitter Choco Decoration;
#SUBTITLE:(Nightcord ver.);
#ARTIST:syudou;
#TITLETRANSLIT:Bitter Choco Decoration;
#SUBTITLETRANSLIT:(Nightcord ver.);
#ARTISTTRANSLIT:syudou feat. Miku & Nightcord;
#GENRE:;
#CREDIT:Melody Love;
#MUSIC:Bitter Choco Decoration (Nightcord Ver.).mp3;
#BANNER:Bitter Choco Decoration (Nightcord Ver.).png;
#BACKGROUND:Bitter Choco Decoration-bg (Nightcord Ver.).png;
#CDTITLE:;
#SAMPLESTART:43.888;
#SAMPLELENGTH:25.000;
#SELECTABLE:YES;
#OFFSET:-0.046;
#BPMS:0.000=43.500
,8.000=87.000
,52.500=174.000
,120.500=522.000
,125.000=174.000
,157.000=87.000
,161.000=174.000
,220.000=43.500
,221.000=174.000
,273.000=43.500
;
#STOPS:52.000=2.235
,120.500=1.040
,273.000=1.200
;
#DISPLAYBPM:43.500:174.000;
#BGCHANGES:-1.146=Bitter Choco Decoration (Nightcord Ver.).avi=1.000=1=0=0=StretchNoLoop==CrossFade==,
99999.000=-nosongbg-=1.000=0=0=0=StretchNoLoop====
;
#FGCHANGES:;

//--------------- dance-single - Melody Love ----------------
#NOTES:
     dance-single:
     Melody Love:
     Beginner:
     5:
     0,0,0,0,0:
0000
0000
0000
0000
,
2000
3000
0002
0003
0020
0030
0200
0300
,
0001
0000
0100
0100
,
0001
0000
0010
0010
,
0100
0100
0100
0000
,
1000
1000
1000
0000
,
1000
1000
0010
0010
,
0100
0100
0010
0010
,
1000
1000
1000
0000
,
0001
0001
1001
0000
,
0001
0001
1000
1000
,
0001
0000
0000
0010
0000
0000
0100
0000
0000
2000
3000
0000
,
1000
1000
0100
0001
,
1001
1000
0000
0010
,
0010
0020
0030
0000
,
0000
0100
0001
0001
,
0000
0001
1000
2000
,
3000
0001
0000
0100
,
0100
0200
0300
0000
,
0000
0010
1000
1000
,
0000
0001
0100
0200
,
0300
0010
0000
0010
,
0000
0010
0000
0020
,
0030
0100
0000
0100
,
0000
0100
0000
0200
,
0300
0001
0000
0001
,
0000
1000
0000
2000
,
3000
0001
0000
0100
,
0000
1000
0000
0100
,
0000
0001
0000
0200
,
0000
0300
0000
0000
,
0000
0010
0000
0010
,
0010
0010
0000
0000
,
0000
0100
0000
0100
,
0100
0100
0000
0000
,
0000
0001
0000
0001
,
0001
0001
0000
0000
,
0000
0010
0010
0010
,
0010
0100
0100
0100
,
0100
0200
0000
0000
,
0300
0001
0000
0100
,
0100
0200
0300
0000
,
0100
0001
0100
0100
,
0000
0010
1000
2000
,
3000
1000
0000
0010
,
0010
0020
0030
0000
,
0010
1000
0010
0010
,
0000
1000
0001
0002
,
0003
0100
0000
0010
,
0010
0020
0030
0000
,
0010
0100
0010
0010
,
0000
1000
0100
0200
,
0300
2000
0000
0002
,
3003
0002
0000
2000
,
3003
0001
0000
0001
,
0000
0001
0100
0000
,
0100
0000
0100
0000
,
0200
0300
0010
0000
,
0010
0000
0010
0000
,
0010
0100
0001
0000
,
0001
0000
0001
0000
,
0002
0003
1000
0000
,
1000
0000
0000
0010
0000
0000
0000
0000
,
0010
0000
0000
0100
0000
0000
0000
0000
,
0100
0000
0000
0100
0000
0000
0000
0000
,
0100
0000
0000
0002
0000
0000
0003
0000
,
0001
0000
0000
2000
0000
0000
3000
0000
,
1000
0000
0000
0002
0000
0000
0003
0000
,
0001
0000
0000
0000
0000
0000
0000
0000
0200
0000
0000
0000
0000
0000
0000
0300
0000
0000
0000
0000
0000
0000
0000
0000
0000
0000
0000
0000
0000
0000
0000
0000
;

//--------------- dance-single - Melody Love ----------------
#NOTES:
     dance-single:
     Melody Love:
     Easy:
     8:
     0,0,0,0,0:
0000
0000
0000
0000
0000
0000
0000
0000
0100
0000
0100
0000
0100
0000
0100
0010
,
2000
0000
3000
0000
2000
0000
3000
0000
0010
0000
0010
0000
0010
0000
0010
1000
,
0001
0001
0001
1000
0100
0100
0100
0010
,
0001
0000
0001
0000
0001
0000
0100
0000
0010
0000
0010
0000
0010
0000
0020
0030
,
0100
0100
0010
0010
,
1000
0001
1000
0001
0010
0100
0010
0100
,
1000
1000
1000
0100
0010
0010
0010
0001
,
0100
0000
0100
0000
0100
0000
0010
0000
1000
0000
1000
0000
1000
0000
2000
3000
,
0010
0010
0100
0100
,
0001
0010
0100
1000
0001
0000
1001
0000
,
0001
1000
0001
0001
1000
0001
1000
1000
,
0001
0000
0000
0010
0000
0000
0100
0000
0000
1000
0000
0000
0100
0000
0000
0010
0000
0000
0002
0000
0003
0000
0000
0000
,
1000
0000
0010
0000
1000
0001
1000
0001
,
1001
2000
0010
3010
,
0000
0100
0000
0020
0000
0000
0030
0100
,
0010
0100
0001
0001
,
1000
1000
0010
0020
,
0030
0002
0100
0103
,
0000
0010
0000
0200
0000
0000
0300
0010
,
0100
0010
1000
1000
,
0001
0001
0100
0200
,
0300
0010
0000
0000
1000
0000
0001
0000
,
0000
0010
0000
0000
0001
0000
2000
0000
,
0000
3100
0000
0000
0010
0000
0001
0000
,
0000
0010
0000
0000
0100
0000
2000
0000
,
0000
3100
0000
0000
0010
0000
0010
0000
,
0000
0010
0000
0000
0100
0000
0200
0000
,
0000
1300
0000
0000
1000
0000
1000
0000
,
0000
1001
0000
0000
0010
0000
0010
0000
,
0000
1001
0000
0000
0100
0000
0100
0000
,
0000
1001
0000
0000
0200
0000
0000
0000
,
0000
0300
0000
0000
0010
0000
0000
0000
0001
0000
0000
0000
0001
0000
0000
0000
,
0000
0020
0000
0130
0000
0010
0100
0000
,
0100
1000
0100
0010
,
0001
0001
0010
0100
,
1000
0000
0000
0001
1000
0000
1000
0000
,
0010
0000
0000
1000
0001
0000
0001
0000
,
0100
0010
1000
0010
,
0100
0001
0010
0100
,
1000
0000
0100
0100
0100
0100
0100
0100
,
0100
0002
0100
0103
,
0000
0010
0000
0200
0000
0000
0300
0010
,
0100
0001
0100
0100
,
0010
0010
0100
0200
,
0300
2000
0010
3010
,
0000
0100
0000
0020
0000
0000
0030
0100
,
0010
1000
0001
0001
,
1000
1000
0010
0020
,
0030
0000
0200
0000
0310
0100
0010
0000
,
0000
1000
0000
0002
0000
0000
0003
1000
,
0010
0100
0010
0010
,
0100
0100
0010
0020
,
0030
0202
0303
0200
,
0000
0300
2002
0000
3003
0000
2000
0000
,
0000
3000
0100
0000
1000
0000
0001
0000
,
1000
0000
0000
1001
0000
0000
0001
0000
0000
0000
0000
0000
0100
0000
0000
0000
,
0010
0000
0010
1000
0000
0000
0001
0000
,
0002
0000
0000
1003
0000
0000
0001
0000
,
1000
0000
0100
0010
0000
0000
0100
0000
,
0200
0000
0000
0310
0000
0000
0100
0000
,
1000
0000
0001
1000
0000
0000
0010
0000
,
0020
0000
0000
1030
0000
0000
0010
0000
,
0010
0000
0000
1010
0000
0000
0100
0000
,
0100
0000
0000
0101
0000
0000
0001
0000
,
0001
0000
0000
1001
0000
0000
0000
0000
,
0100
0000
0000
2002
0000
0000
0003
0000
,
3001
0000
0000
2002
0000
0000
3000
0000
,
1003
0000
0000
2002
0000
0000
0003
0000
,
3001
0000
0000
0000
0000
0000
0000
0000
0000
0000
0000
0000
0000
0000
0000
0000
0000
0000
0000
0000
0000
0000
0000
0000
0000
0000
0000
0000
0000
0000
0000
0000
0000
0000
0000
0000
0000
0000
0000
0000
0000
0000
0000
0000
0000
0000
0000
0000
0200
0300
0000
0000
0000
0000
0000
0000
0000
0000
0000
0000
0100
0000
0000
0000
0000
0000
0000
0000
0000
0000
0000
0000
0000
0000
0000
0000
0000
0000
0100
0000
0000
0000
0000
0000
0000
0000
0000
0000
0000
0000
0100
0000
0000
0000
0000
0000
0000
0000
0000
0000
0000
0000
0000
0000
0000
0000
0000
0000
0000
0000
0000
0000
0000
0000
0000
0000
0000
0000
0000
0000
0000
0000
0000
0000
0000
0000
0000
0000
0000
0000
0000
0000
0000
0000
0000
0000
0000
0000
0000
0000
0000
0000
0000
0000
0000
0000
0000
0000
0000
0000
0000
0000
0000
0000
0000
0000
0000
0000
0000
0000
0000
0000
0000
0000
0000
0000
0000
0000
0000
0000
0000
0000
0000
0000
0000
0000
0000
0000
0000
0000
0000
0000
0000
0000
0000
0000
0000
0000
0000
0000
0000
0000
;

//--------------- dance-single - Melody Love ----------------
#NOTES:
     dance-single:
     Melody Love:
     Medium:
     11:
     0,0,0,0,0:
0002
0000
0000
0000
2003
0000
0000
0000
3002
0000
0000
0000
0003
0000
0000
0000
0100
0000
0001
0100
0000
0000
0100
0000
0001
0000
0100
0001
0000
0000
0001
0000
,
2000
0000
0000
0000
3002
0000
0000
0000
2003
0000
0000
0000
3000
0000
0000
0000
0010
0000
1000
0010
0000
0000
0010
0000
1000
0000
0010
1000
0000
1000
0001
1000
,
0000
0100
1000
0000
1000
0000
1000
0200
0300
0010
0001
0000
0001
0000
0001
0020
,
0030
0100
0010
0000
0010
0000
0010
0200
0300
1000
0001
0000
0001
0000
0002
0003
,
0000
0010
0100
0000
1000
0000
0001
0100
0000
0100
0010
0100
0001
0000
1000
0001
,
0000
0010
0100
1000
0100
0000
0010
0100
0000
0010
0001
0010
0100
0000
0100
0000
,
0000
0100
1000
0000
1000
0000
1000
0200
0300
0010
0001
0000
0001
0000
0001
0020
,
0030
0100
0010
0000
0010
0000
0010
0200
0300
1000
0001
0000
0001
0000
0002
0003
,
0000
0100
0010
0000
0100
0000
0001
0100
0000
0100
0001
0100
0010
0000
0100
0010
,
0000
0010
0100
0010
1000
0000
0001
1000
0000
0100
0010
0100
0010
0000
0000
0000
,
0001
0000
1000
0000
0001
0000
0001
2000
3000
0100
0000
0020
0000
0030
0000
0010
,
0000
0000
0000
0001
0000
0000
0010
0000
0000
0000
0000
0000
0100
0000
0000
0000
0000
0000
1000
0000
0000
0100
0000
0000
0000
0000
0000
0010
0000
0000
0001
0000
0000
0010
0000
0000
0200
0000
0000
0000
0300
0000
0000
0000
0000
0000
0000
0000
,
1000
0001
1000
0010
1000
0100
1000
0001
,
1001
0010
2000
0000
3010
0100
0010
0000
,
0010
0100
0000
0020
0000
0000
0030
0100
,
0010
0000
0100
0000
0001
0100
0001
0000
,
1000
0010
1000
0000
0010
0000
0020
0000
,
0030
0100
0002
0000
0103
0010
0100
0000
,
0100
0010
0000
0200
0000
0000
0300
0010
,
0100
0000
0010
0000
1000
0010
1000
0000
,
0001
0100
0001
0000
0100
0000
0200
0000
,
0300
0010
0000
0100
0001
0000
0001
0000
,
0100
0010
0000
1000
0100
0000
0200
0000
,
0000
1300
0000
1000
0001
0000
0001
0000
,
0010
0001
0000
1000
0100
0000
2000
0000
,
3000
0100
0000
0100
0010
0000
0010
0000
,
0100
1000
0000
0001
0010
0000
0002
0000
,
0000
1003
0000
0001
1000
0001
1000
0001
,
0000
1001
0000
0010
1000
0010
1000
0010
,
0000
1010
0000
0100
0001
0100
0001
0100
,
0000
0101
0000
0000
0220
0000
0000
0000
,
0000
0330
0000
0000
0100
0000
0000
0000
0001
0000
1000
0000
0001
0000
0000
0000
,
0020
0100
0000
0130
0000
0010
0100
0010
,
0100
0000
1000
0100
0010
0000
0001
0010
,
0200
0010
0000
0310
0000
0001
0001
0000
,
1000
1000
0000
0010
1000
0010
1000
0000
,
0010
0200
0000
0301
0001
0000
0001
0000
,
0100
0000
0010
1000
0010
1000
0010
0100
,
0010
0100
0001
0100
0001
0100
0010
0100
,
0010
0000
0100
0000
0010
0000
0100
0000
0100
0000
0100
0000
0100
0000
0010
0100
,
0001
0000
0000
0100
0002
0000
0000
0000
0103
0000
0010
0000
0100
0000
0000
0000
,
0100
0010
0000
0200
0000
0000
0300
0010
,
0100
0000
0001
0000
0100
0010
0100
0000
,
0010
0100
0010
0000
0100
0010
0200
0000
,
0300
0010
2000
0000
3010
0100
0010
0000
,
0010
0100
0000
0020
0000
0000
0030
0100
,
0010
0000
1000
0000
0001
1000
0001
0000
,
1000
0001
1000
0000
0001
1000
0002
0000
,
0003
0010
0200
0000
0310
0100
0010
0000
,
0001
1000
0000
0002
0000
0000
0003
1000
,
0010
0000
0100
0000
0010
1000
0010
0000
,
0100
0001
0100
0000
0010
1000
0020
0000
,
0030
0100
0002
0000
0103
0010
0200
0000
,
0000
0300
0002
0000
0013
0100
0020
0000
,
0000
0030
0100
0000
1000
0000
0001
0010
,
0001
1000
0000
0001
1000
0000
1001
0000
0000
0000
0000
0000
0001
0000
0000
0000
0000
0000
0000
0000
1000
0000
0000
0000
0100
0000
0000
0000
0000
0000
0000
0000
,
0010
0000
0100
1000
0000
1000
0001
0000
,
0002
0000
0000
1003
0000
0001
1000
0000
,
1000
0000
0100
0010
0000
0001
0100
0000
,
0200
0000
0000
0310
0000
0100
0010
0000
,
0010
0000
0100
0001
0000
0001
1000
0000
,
2000
0000
0000
3001
0000
1000
0010
1000
,
0010
1000
0000
1010
0000
0100
0001
0100
,
0001
0100
0000
0101
0000
0010
0100
0010
,
0100
0010
0000
0110
0000
0010
0100
0000
,
0100
0000
0000
2002
3003
0000
0010
0001
,
0010
0001
0000
2002
3003
0000
0010
1000
,
0010
1000
0000
2002
3003
0000
1000
0001
,
1000
0000
0000
0000
0000
0000
0000
0000
0000
0000
0000
0000
0000
0000
0000
0000
0000
0000
0000
0000
0000
0000
0000
0000
0001
0000
0000
0000
0000
0000
0000
0000
0000
0000
0000
0000
0000
0000
0000
0000
0000
0000
0000
0000
0000
0000
0000
0000
0020
0030
0000
0000
0000
0000
0000
0000
0000
0000
0000
0000
0100
0000
0000
0000
0000
0000
0000
0000
0000
0000
0000
0000
0010
0000
0000
0000
0000
0000
0100
0000
0000
0000
0000
0000
0000
0000
0000
0000
0000
0000
0100
0000
0000
0000
0000
0000
0000
0000
0000
0000
0000
0000
0000
0000
0000
0000
0000
0000
0000
0000
0000
0000
0000
0000
0000
0000
0000
0000
0000
0000
0000
0000
0000
0000
0000
0000
0000
0000
0000
0000
0000
0000
0000
0000
0000
0000
0000
0000
0000
0000
0000
0000
0000
0000
0000
0000
0000
0000
0000
0000
0000
0000
0000
0000
0000
0000
0000
0000
0000
0000
0000
0000
0000
0000
0000
0000
0000
0000
0000
0000
0000
0000
0000
0000
0000
0000
0000
0000
0000
0000
0000
0000
0000
0000
0000
0000
0000
0000
0000
0000
0000
0000
;

//--------------- dance-single - Melody Love ----------------
#NOTES:
     dance-single:
     Melody Love:
     Hard:
     14:
     0.687,0.877,0.224,0.464,0.416:
0002
0000
0000
0000
0000
0000
0000
0000
2003
0000
0000
0000
0000
0000
0000
0000
3002
0000
0000
0000
0000
0000
0000
0000
0003
0000
0000
0000
0000
0000
0000
0000
0100
0000
0000
0000
0001
0000
0100
0000
0000
0000
0000
0000
0100
0000
0000
0000
0001
0000
0000
0000
0100
0000
0001
0000
0000
0000
0001
0000
1000
0001
1000
0002
,
2003
0000
0000
0000
0001
0000
0000
0000
3002
0000
0000
0000
1000
0000
0000
0000
2003
0000
0000
0000
0010
0000
0000
0000
3000
0000
0000
0000
0010
0000
0000
0000
0010
0000
0000
0000
1000
0000
0010
0000
0000
0000
0000
0000
0010
0000
0000
0000
1000
0000
0000
0000
0010
0000
1000
0000
0000
0000
1000
0000
0001
1000
0001
1000
,
0000
0100
1000
0100
1000
0100
1000
0200
0300
0010
0001
0010
0001
0010
0001
0020
,
0030
0100
0010
0100
0010
0100
0010
0200
0300
1000
0001
1000
0001
1000
0002
0003
,
0000
0010
0100
0010
0001
1000
0001
0100
0000
0100
0010
0100
0001
1000
0100
0010
,
0000
0010
0100
1000
0100
1000
0100
0010
0000
0010
0001
0010
0001
0010
0100
0000
,
0000
0100
1000
0100
1000
0100
1000
0200
0300
0010
0001
0010
0001
0010
0001
0020
,
0030
0100
0010
0100
0010
0100
0010
0200
0300
1000
0001
1000
0001
1000
0002
0003
,
0000
0100
0010
1000
0100
0010
0001
0100
0000
0100
0001
0100
0010
1000
0100
0010
,
0000
0000
0010
0000
0100
0000
0010
0000
0100
0000
1000
0000
0001
0000
1000
0000
0000
0000
0100
0000
0100
0000
0010
0000
0010
0000
0001
0000
1000
0001
1000
0000
,
0001
0000
1000
0000
0001
0000
0001
2000
3000
0100
0000
0010
0000
0001
0000
1000
,
0000
0000
0000
0001
0000
0000
0010
0000
0000
0001
0000
0000
1000
0000
0000
0001
0000
0000
0100
0000
0000
0002
0000
0000
0003
0000
0000
0010
0000
0000
1000
0000
0000
0010
0000
0000
0200
0000
0000
0000
0300
0000
0000
0000
0000
0000
0000
0000
,
1000
0000
0001
0000
1000
0000
0010
1000
0000
1000
0000
0100
1000
0000
0001
0000
,
1001
0100
2100
0000
3010
0100
0010
0000
,
0010
0100
0000
0220
0000
0000
0330
0100
,
0010
0100
0010
0100
0010
0100
0010
0100
,
0010
1000
0100
0010
0100
1000
0020
0000
,
0030
0100
0102
0000
0103
0010
0100
0000
,
0100
0010
0000
0220
0000
0000
0330
0010
,
0100
0010
0100
0010
0100
0010
0100
0010
,
0100
0001
0000
0100
0010
1000
0200
0000
,
0300
1000
0000
0001
0010
0100
1000
0100
,
0010
0001
0000
1000
0100
0010
0012
0000
,
0000
1003
0000
1000
0001
0010
0001
0100
,
0001
1000
0000
1000
0001
0100
0002
0000
,
0003
1000
0000
1000
0100
0010
0001
0010
,
0100
1000
0000
0001
0010
0100
2100
0000
,
0000
3001
0000
0001
1000
0001
0100
0001
,
0010
0001
0000
0010
1000
0010
0100
0010
,
0001
0010
0000
0100
0001
0100
0010
0100
,
1000
0000
0000
0000
0000
0000
0000
0000
0000
0000
0000
0000
0000
0000
0000
0000
0000
0000
0000
0000
0000
0000
0000
0000
0020
0030
0000
0000
0000
0000
0000
0000
0000
0000
0000
0000
0000
0000
0000
0000
0000
0000
0000
0000
0000
0000
0000
0000
0000
0000
0000
0000
0000
0000
0000
0000
0000
0000
0000
0000
0000
0000
0000
0000
0000
0000
0000
0000
0000
0000
0000
0000
0000
0000
0000
0000
0000
0000
0000
0000
0000
0000
0000
0000
0000
0000
0000
0000
0000
0000
0000
0000
0000
0000
0000
0000
0220
0000
0000
0000
0000
0000
0000
0000
0000
0000
0000
0000
0000
0000
0000
0000
0000
0000
0000
0000
0000
0000
0000
0000
0000
0000
0000
0000
0000
0000
0000
0000
0000
0000
0000
0000
0000
0000
0000
0000
0000
0000
0000
0000
0000
0000
0000
0000
0000
0000
0000
0000
0000
0000
0000
0000
0000
0000
0000
0000
0000
0000
0000
0000
0000
0000
0000
0000
0000
0000
0000
0000
0000
0000
0000
0000
0000
0000
0000
0000
0000
0000
0000
0000
0000
0000
0000
0000
0000
0000
0000
0000
0000
0000
0000
0000
,
0000
0330
1001
0000
0001
1000
0001
0000
,
0020
0100
0000
0130
0000
0100
0010
0001
,
0010
0100
1000
0100
0010
0001
0100
0010
,
0200
0010
0000
0310
0010
0100
0100
0001
,
0001
1000
0000
0100
1000
0010
1000
0100
,
0010
0002
0000
0103
0100
0010
0010
0000
,
0110
0000
0000
0000
0010
1000
0010
0000
1000
0010
1000
0000
0010
0100
0010
0000
,
0100
0010
0100
0000
0001
0100
0001
0000
0100
0001
0100
0000
0010
0100
0010
0000
,
0100
0010
0100
0010
0100
0000
0100
0000
0100
0000
0100
0000
0100
0001
0010
0100
,
1000
0000
0000
0010
0012
0000
0000
0000
0103
0000
0010
0000
0100
0000
0000
0000
,
0100
0010
0000
0220
0000
0000
0330
0010
,
0100
0001
0100
0010
0100
1000
0100
0010
,
0100
0001
0010
0100
0010
0001
0200
0000
,
0300
0010
2010
0000
3010
0100
0010
0000
,
0010
0100
0000
0220
0000
0000
0330
0100
,
0010
1000
0010
0100
0010
0001
0010
0100
,
0010
1000
0000
0010
0100
0001
0020
0000
,
0030
0001
2001
0000
3010
0100
0010
0000
,
1000
0001
0000
2002
0000
0000
3003
1000
,
0010
0100
0001
0100
0010
1000
0010
0100
,
0001
0100
0010
0100
0010
1000
0020
0000
,
0030
0100
0102
0000
0103
0010
0220
0000
,
0000
0330
2010
0000
3010
0100
0220
0000
,
0000
0330
0010
0000
1010
0000
0001
0010
,
0011
0001
0000
1000
0001
0001
1000
0000
0000
0000
0000
0000
0001
0000
0000
0000
0000
0000
0000
0000
1000
0000
0000
0000
0100
0000
0000
0000
0010
0000
0000
0000
,
0001
0010
0100
1000
0000
1000
0100
0010
,
0012
0000
0000
1003
0000
0001
1000
0100
,
1000
0010
1000
0001
0000
0010
1000
0010
,
0200
0000
0000
0310
0000
0001
0010
0100
,
1000
0100
0010
0001
0000
0001
0010
0100
,
2100
0000
0000
3001
0000
1000
0001
1000
,
0010
1000
0100
1000
0000
0100
0001
0100
,
0010
0100
1000
0100
0000
0010
1000
0010
,
0100
0010
0001
0010
0000
0010
0100
1000
,
0001
0000
0000
2001
3000
0001
0010
0001
,
0010
0001
1000
1002
0003
1000
0010
1000
,
0010
1000
0001
2001
3000
1000
0001
0100
,
0010
0000
0000
0000
0000
0000
0000
0000
0000
0000
0000
0000
0000
0000
0000
0000
0000
0000
0000
0000
0000
0000
0000
0000
1000
0000
0000
0000
0000
0000
0000
0000
0000
0000
0000
0000
0000
0000
0000
0000
0000
0000
0000
0000
0000
0000
0000
0000
0020
0030
0000
0000
0000
0000
0000
0000
0000
0000
0000
0000
1000
0000
0000
0000
0000
0000
0000
0000
0000
0000
0000
0000
1000
0000
0000
0000
0000
0000
0001
0000
0000
0000
0000
0000
0001
0000
0000
0000
0000
0000
1000
0000
0000
0000
0000
0000
0000
0000
0000
0000
0000
0000
0000
0000
0000
0000
0000
0000
0000
0000
0000
0000
0000
0000
0000
0000
0000
0000
0000
0000
0000
0000
0000
0000
0000
0000
0000
0000
0000
0000
0000
0000
0000
0000
0000
0000
0000
0000
0000
0000
0000
0000
0000
0000
0000
0000
0000
0000
0000
0000
0000
0000
0000
0000
0000
0000
0000
0000
0000
0000
0000
0000
0000
0000
0000
0000
0000
0000
0000
0000
0000
0000
0000
0000
0000
0000
0000
0000
0000
0000
0000
0000
0000
0000
0000
0000
0000
0000
0000
0000
0000
0000
;
