#TITLE:After LIKE;
#SUBTITLE:;
#ARTIST:IVE;
#TITLETRANSLIT:After LIKE;
#SUBTITLETRANSLIT:;
#ARTISTTRANSLIT:IVE;
#GENRE:Kpop;
#CREDIT:Melody Love;
#BANNER:After LIKE.png;
#BACKGROUND:After LIKE-bg.png;
#JACKET:After LIKE-jacket.png;
#LYRICSPATH:;
#CDTITLE:;
#MUSIC:After LIKE.ogg;
#OFFSET:0.000;
#SAMPLESTART:48.289;
#SAMPLELENGTH:17.900;
#SELECTABLE:YES;
#BPMS:0.000=125.000,137.000=62.500,151.000=125.000;
#STOPS:;
#BGCHANGES:104.000=Lisa Rinna.png=1.000=1=0=1===CrossFade==,
137.000=After LIKE-bg.png=1.000=1=0=1===CrossFade==,
186.000=Close Lisa.png=1.000=1=0=1===CrossFade==,
99999=-nosongbg-=1.000=0=0=0 // don't automatically add -songbackground-
;
#KEYSOUNDS:;

//---------------dance-single - Blank----------------
#NOTES:
     dance-single:
     Blank:
     Challenge:
     13:
     0.561,0.564,0.467,0.238,0.335:
0000
0000
0000
0000
,
0000
0000
0000
0000
,
0000
0000
0100
0000
1000
0000
0000
1000
0000
0000
0010
0000
0100
0000
0000
0100
,
0000
0000
0001
0000
0010
0000
0000
0010
0000
0000
0100
0000
1000
0000
0000
1000
,
0000
0000
0001
0000
0100
0000
0000
0100
0000
0000
0010
0000
0001
0000
0000
0001
,
0000
0010
0100
0000
0000
0100
1000
0010
,
0100
0000
0001
0000
1000
0100
0000
1000
0000
0000
0100
0000
0100
0001
0000
0100
,
0000
0000
0100
0000
1000
0100
0000
1000
0000
0000
0100
0000
0100
0001
0000
0100
,
0000
0000
0100
0000
1000
0100
0000
1000
0000
0000
0100
0000
0100
0001
0000
0100
,
0000
0100
1000
0100
0000
0100
1000
0100
,
1000
0000
0001
0000
1000
0000
0010
0000
1000
0000
0100
1000
0000
1000
0000
0000
,
0011
0000
0001
0000
0100
0000
1000
0000
0100
0000
0001
1000
0000
0000
0000
0000
,
0010
0000
1000
0000
0010
0000
1000
0000
0010
0000
0000
0100
0010
0000
0001
0000
,
0010
0000
0101
0000
0010
0000
1000
0000
0010
0000
0010
0100
0000
0000
0000
0000
,
0100
0000
0001
0000
0100
0000
0010
0000
1000
0000
0010
0100
0000
0100
0000
0000
,
1010
0000
0100
0000
0010
0000
0100
0000
0010
0000
0100
0001
0000
0000
0000
0000
,
0100
0000
0001
0000
0100
0000
0010
0000
1000
0000
0001
1000
0000
0010
0000
0000
,
1000
0000
1100
0000
0000
1001
0000
0101
,
0000
1001
0000
0000
2100
0000
3100
0000
,
1000
0001
0000
1001
1000
0001
1000
0001
,
0000
0000
1100
0000
1100
0000
0000
0000
1000
0000
0000
0010
1000
0000
0000
0000
,
0100
0000
0001
0000
0000
0010
0001
0000
0000
0000
0010
0000
1000
0000
1002
0000
,
0000
0103
0000
0000
0201
0000
0301
0000
,
0100
0010
0000
0110
0010
1000
0010
0001
,
0000
0000
0011
0000
0011
0000
0000
0000
1000
0000
0000
0001
1000
0000
0000
0000
,
1000
0001
0101
0000
0000
1010
0000
1001
,
0000
0100
2002
3003
0220
0330
1000
0100
,
1000
0000
0010
0000
1000
0000
0000
0000
0010
0000
1000
0001
1000
0000
0001
1000
,
0001
0000
1000
0100
1000
0000
0000
0000
0100
0000
0000
0000
0010
0000
0001
0000
,
0000
0000
0001
0010
0001
0000
0010
0100
0010
0000
0100
1000
0100
0000
1000
0010
,
1000
0000
0001
0100
0001
0000
0000
0000
1100
0000
0000
0000
0010
0000
0000
0000
,
0011
0000
0000
0000
1000
0100
1000
0100
1000
0010
1000
0010
1000
0100
1000
0100
,
1000
0010
1000
0010
2000
0000
0000
0000
3100
0000
0000
0000
1000
0000
0000
0010
,
1000
0001
2000
0000
0000
3020
0000
0032
,
0000
0203
1300
1001
1000
1100
0100
0110
,
0010
0011
0001
0101
0100
1100
1000
1010
,
0010
0110
0100
0101
0001
0011
0010
1010
,
1000
0000
1100
0000
0220
0000
0000
0000
0330
0000
0000
0000
1000
0001
1000
0001
,
1000
0001
1000
0001
1000
0001
1000
0001
1000
0001
1000
0001
1000
0000
0000
0000
,
0102
0000
0103
0000
0010
0100
0000
0110
,
0001
1000
0001
1000
0000
1010
1010
0000
,
0001
0000
0000
0100
0001
0000
0000
0000
0010
0000
1000
0000
0000
0100
1000
0000
,
0000
0100
0001
2001
0000
3100
0000
0000
,
1020
0000
1030
0000
1000
0001
0000
1001
,
0010
1000
0010
0100
0000
0101
0101
0000
,
0100
0000
0000
0010
0100
0000
0000
0000
0001
0000
1000
0000
0101
0000
0000
0000
,
0000
1100
0000
0110
0000
0010
2002
3003
,
0220
0330
0001
0010
0001
0100
0001
0000
,
0010
0000
1000
0100
1000
0000
0001
0010
0001
0000
1000
0100
1000
0000
0000
0000
,
0100
0000
0000
0000
0010
0000
0001
0000
0000
0000
1000
0100
1000
0000
0100
0010
,
0100
0000
0010
0001
0010
0000
0001
0100
0001
0000
1000
0010
1000
0000
0000
0000
,
1010
0000
0000
0000
0100
0000
0000
0000
0101
0000
0000
0000
0100
0010
0100
0010
,
0100
0001
0100
0001
0100
0010
0100
0010
0100
0001
0100
0001
2000
0000
0000
0000
,
3100
0000
0000
0000
1000
0000
0000
0010
1000
0000
0001
0000
2000
0000
0000
0000
,
0000
3020
0000
0230
0300
2002
0000
0000
,
0000
0000
0000
0000
0000
3003
0000
0000
;

//---------------dance-single - Expert----------------
#NOTES:
     dance-single:
     Expert:
     Hard:
     10:
     0.453,0.466,0.308,0.229,0.079:
0000
0000
0000
0000
,
0000
0000
0000
0000
,
0000
0000
0100
0000
1000
0000
0000
1000
0000
0000
0000
0000
0100
0000
0000
0100
,
0000
0000
0000
0000
0010
0000
0000
0010
0000
0000
0000
0000
1000
0000
0000
1000
,
0000
0000
0001
0000
0100
0000
0000
0100
0000
0000
0000
0000
0001
0000
0000
0001
,
0000
0010
0100
0000
0000
0100
1000
0100
,
1000
0000
0100
0000
1000
0100
0000
1000
0000
0000
0000
0000
0001
0100
0000
0001
,
0000
0000
0000
0000
1000
0010
0000
1000
0000
0000
0000
0000
0001
0010
0000
0001
,
0000
0000
0000
0000
1000
0100
0000
1000
0000
0000
0000
0000
0001
0100
0000
0001
,
0000
0000
1000
0100
0000
0100
1000
0100
,
1000
0001
1000
0010
1000
0010
1000
0000
,
0010
0001
0100
1000
0100
0001
1000
0000
,
0010
1000
0010
1000
0010
0100
0010
0100
,
0001
0100
0001
0100
0010
0010
0100
0000
,
0100
0001
0100
0010
1000
0010
0100
0001
,
1000
0100
0010
0100
0010
0100
0001
0000
,
0100
0010
0100
0010
1000
0001
1000
0001
,
0000
0000
1100
0000
0000
1001
0000
1001
,
0000
1001
0000
0000
2100
0000
3100
0000
,
1000
0001
0000
0010
0000
0001
1000
0001
,
0000
1100
0000
0000
1000
0010
1000
0000
,
0100
0001
0010
0001
0000
0010
0100
0002
,
0000
1003
0000
0000
0201
0000
0301
0000
,
0100
0010
0000
0010
0000
1000
0010
0001
,
0000
0011
0000
0000
1000
0001
1000
0000
,
1000
0000
0101
0000
0000
1001
0000
1001
,
0000
0000
2002
3003
0220
0330
0000
0010
,
1000
0010
1000
0000
0010
1000
1000
0001
,
0001
1000
1000
0000
0100
0000
0010
0001
,
0000
0001
0001
0010
0010
0100
0100
1000
,
1000
0001
0001
0000
1100
0000
0010
0000
,
0011
0000
1000
1000
0100
0100
1000
1000
,
0010
0010
2000
0000
3100
0000
0100
0000
,
1000
0001
2000
0000
0000
3020
0000
0032
,
0000
0203
0300
1000
1000
1100
0100
0100
,
0010
0011
0001
0001
0100
1100
1000
1000
,
0010
0110
0100
0100
0001
0011
0010
0010
,
1000
1100
0220
0000
0330
0000
1000
0001
,
1000
0001
1000
0001
1000
0001
1000
0000
,
0102
0000
0103
0000
0010
0100
0000
0110
,
0000
1000
0001
1000
0000
1010
0000
0000
,
0001
0100
0001
0000
0010
1000
0100
1000
,
0000
0100
0001
2000
0000
3100
0000
0000
,
1020
0000
1030
0000
1000
0001
0000
0001
,
0010
0001
0010
0100
0000
0110
0000
0000
,
0100
0010
0100
0000
0001
1000
0100
0000
,
0000
0110
0000
0110
0000
0000
2002
3003
,
0220
0330
0000
0010
0001
0100
0001
0000
,
0010
1000
1000
0001
0001
1000
1000
0000
,
0100
0000
0010
0001
0000
1000
1000
0100
,
0100
0010
0010
0001
0001
1000
1000
0000
,
1010
0000
0100
0000
0101
0000
0100
0100
,
0010
0010
0001
0001
0100
0100
2000
0000
,
3100
0000
1020
0030
1000
0001
2000
0000
,
0000
3010
0000
0100
0000
2002
0000
0000
,
0000
0000
0000
0000
0000
3003
0000
0000
;

//---------------dance-single - Hard----------------
#NOTES:
     dance-single:
     Hard:
     Medium:
     7:
     0.360,0.392,0.167,0.220,0.000:
0000
0000
0000
0000
,
0000
0000
0000
0000
,
0000
0000
1000
0100
1000
0000
0100
0000
,
0100
0000
0010
0100
0010
0000
1000
0000
,
1000
0000
0100
0001
0100
0000
0001
0000
,
0001
0000
0100
0000
0000
0100
1000
0000
,
0100
1000
0100
0000
0100
0000
0001
0100
,
0001
0000
1000
0000
1000
0000
0001
0010
,
0001
0000
0100
0000
0100
0000
0010
0100
,
0010
1000
0000
1000
,
0001
0000
0001
0000
1000
0010
1000
0000
,
0010
0000
0010
0000
0100
1000
0100
0000
,
1000
0000
1000
0000
0010
0100
0010
0000
,
0001
0000
0001
0000
0010
0100
0010
0000
,
0100
0000
0100
0000
1000
0010
1000
0000
,
0001
0000
1000
0000
0001
1000
0001
0000
,
0100
0010
0100
0000
1000
0000
0001
0000
,
0000
0000
1100
0000
0000
0001
0000
1000
,
0000
1001
0000
0000
2100
0000
3100
0000
,
1000
0000
0010
0000
0010
0000
1000
0001
,
0000
1100
0000
0000
1000
0000
1000
0000
,
0100
0000
0010
0000
0100
0010
0000
0002
,
0000
1003
0000
0000
0201
0000
0301
0000
,
0010
0000
0100
0000
0100
0000
1000
0001
,
0000
1001
0000
0000
1000
0000
1000
0000
,
0001
0000
0001
0000
0000
1001
0000
1001
,
0000
0000
2002
3003
0220
0330
0000
0000
,
1000
0010
1000
0000
0010
0000
1000
0000
,
0001
0010
0100
0000
0100
0000
0010
0010
,
0000
0001
0010
0100
,
1000
0100
1001
0010
,
1001
0000
1000
1000
0100
0000
1000
1000
,
0010
2000
3100
0100
,
1000
0001
2000
0000
0000
3020
0000
0032
,
0000
0103
0000
1000
1000
1000
0100
0100
,
0010
0010
0001
0001
0100
0100
1000
1000
,
0010
0010
0100
0100
0001
0001
0010
0010
,
1000
1000
0220
0000
0330
0000
1000
0001
,
1000
0000
0001
1000
0001
0000
0010
0000
,
0102
0103
0010
0100
,
0100
0000
0001
1000
0000
0100
0000
0000
,
0001
0001
0010
0100
,
0100
0000
0001
2000
0000
3100
0000
0000
,
1020
1030
1000
0001
,
0001
0000
0010
0100
0000
0110
0000
0000
,
0100
0010
0100
0000
0001
0000
1000
0000
,
0000
0010
0000
0100
0000
0000
2002
3003
,
0220
0330
0000
0000
0001
0100
0001
0000
,
0010
0000
1000
0000
0001
1000
1000
0000
,
0100
0000
0010
0001
0000
0000
1000
0100
,
0100
0000
0010
0001
0001
0000
1000
0000
,
0010
0000
0100
0000
0001
0000
0100
0100
,
0010
0000
0001
0001
0100
0000
2000
0000
,
3100
0000
0020
0030
1000
0001
2000
0000
,
0000
3001
0000
1000
0000
2002
0000
0000
,
0000
0000
0000
0000
0000
3003
0000
0000
;

//---------------dance-single - Medium----------------
#NOTES:
     dance-single:
     Medium:
     Easy:
     5:
     0.283,0.270,0.088,0.167,0.000:
0000
0000
0000
0000
,
0000
0000
0000
0000
,
0000
1000
0100
0100
,
0010
0010
0100
0100
,
1000
1000
0010
0010
,
0001
0100
0000
1000
,
0100
0100
1000
1000
,
0010
0010
0001
0001
,
0100
0100
1000
1000
,
0010
1000
0000
1000
,
0001
0001
1000
1000
,
0010
0010
0100
0100
,
1000
1000
0010
0010
,
0001
0001
0010
0010
,
0100
0100
1000
1000
,
0001
1000
0001
1000
,
0100
0010
1000
0001
,
0000
0000
1001
0000
0000
0001
0000
1000
,
0000
1001
0000
0000
2000
0000
3100
0000
,
1000
0010
0010
1000
,
0001
1100
1000
1000
,
0100
0010
0100
0002
,
0000
1003
0000
0000
0200
0000
0301
0000
,
0010
0100
0100
1000
,
0001
1001
1000
1000
,
0001
0000
0001
0000
0000
0001
0000
1000
,
0000
0000
2002
0000
0000
3003
0000
0000
,
1000
1000
0010
0100
,
0001
0001
0100
0010
,
0001
0010
0100
1000
,
1000
0100
0010
0001
,
1001
1000
0100
1000
,
0010
2000
3100
0100
,
1000
0000
0002
0000
0000
0003
1000
0000
,
0010
1000
1000
0100
,
0010
0001
0100
1000
,
0010
0100
0001
0010
,
1000
0220
0330
1000
,
0001
0100
0001
0010
,
0002
0103
0010
0100
,
0100
0001
1000
0100
,
0001
0001
0010
0100
,
0100
0001
2000
3100
,
0020
1030
1000
0001
,
0001
0010
0100
0110
,
0100
0100
0001
1000
,
0010
0100
0000
2002
,
0000
3003
0001
0001
,
0010
1000
1000
0100
,
0010
0010
0001
1000
,
1000
0100
0001
0001
,
0010
0100
0001
0001
,
0010
0100
1000
2000
,
3100
0000
0020
0030
1000
0000
0002
0000
,
0000
1003
0000
0000
0000
2002
0000
0000
,
0000
0000
0000
0000
0000
3003
0000
0000
;

//---------------dance-single - Easy----------------
#NOTES:
     dance-single:
     Easy:
     Beginner:
     3:
     0.155,0.196,0.035,0.079,0.000:
0000
0000
0000
0000
,
0000
0000
0000
0000
,
0000
1000
0000
0100
,
0000
0010
0000
0100
,
0000
1000
0000
0010
,
0000
0100
0000
1000
,
0000
0100
0000
1000
,
0000
0010
0000
0001
,
0000
0100
0000
1000
,
0000
0010
0000
1000
,
0000
0001
0000
1000
,
0000
0010
0000
0100
,
0000
1000
0000
0010
,
0000
0001
0000
0010
,
0000
0100
0000
1000
,
0000
1000
0000
0001
,
0000
0001
0000
0001
,
0000
1000
0000
1000
,
0000
1001
0000
0100
,
0000
0010
0000
1000
,
0000
0001
0000
1000
,
0000
0100
0000
0010
,
0000
1000
0000
0001
,
0000
0100
0000
1000
,
0000
0010
0000
1000
,
0000
0001
0000
0100
,
0000
0000
2002
0000
0000
3003
0000
0000
,
1000
1000
0000
0000
,
0001
0001
0000
0000
,
0010
0010
0000
0000
,
0100
0100
0000
0000
,
0001
0001
0000
0000
,
1000
1000
0000
0000
,
0100
0200
0000
0000
,
0300
1000
1000
0100
,
0000
0001
0001
0010
,
0000
1000
1000
0010
,
0000
0020
0030
1000
,
0000
0001
0000
1000
,
0000
0001
0000
0100
,
0000
0001
0000
0100
,
0000
1000
0000
0100
,
0000
0001
2000
3100
,
0000
0001
0000
1000
,
0000
0010
0000
0100
,
0000
0001
1000
1000
,
0001
0001
0000
2002
,
0000
3003
0001
0001
,
0000
0000
1000
1000
,
0000
0000
0010
0010
,
0000
0000
0001
0001
,
0000
0000
1000
1000
,
0000
0000
0010
0010
,
0000
0000
1000
1000
,
0000
0000
0000
0000
0000
2002
0000
0000
,
0000
0000
0000
0000
0000
3003
0000
0000
;
