#TITLE:13 Year Old Statement;
#SUBTITLE:;
#ARTIST:SLAVE.V-V-R feat. Miki;
#TITLETRANSLIT:13 Year Old Statement;
#SUBTITLETRANSLIT:;
#ARTISTTRANSLIT:SLAVE.V-V-R feat. Miki;
#GENRE:Vocaloid;
#CREDIT:Melody Love;
#MUSIC:13 Year Old Statement.ogg;
#BANNER:13statement.png;
#BACKGROUND:13statement-bg.png;
#CDTITLE:;
#SAMPLESTART:34.595;
#SAMPLELENGTH:23.000;
#SELECTABLE:YES;
#OFFSET:-0.750;
#BPMS:0.000=92.500
,53.000=185.000
,221.000=92.500
,237.000=185.000
,285.000=92.500
,289.000=185.000
,304.500=92.500
,306.542=740.000
,309.000=370.000
,310.000=185.000
,311.500=92.500
,312.292=46.250
,312.646=23.125
,313.000=92.500
;
#STOPS:;
#DISPLAYBPM:92.500:185.000;
#BGCHANGES:;
#FGCHANGES:;

//--------------- dance-single - Melody Love ----------------
#NOTES:
     dance-single:
     Melody Love:
     Beginner:
     5:
     0,0,0,0,0:
0000
0000
0000
0000
,
0000
0000
0000
0000
,
0000
1000
0010
1000
,
0000
0001
0010
0001
,
0000
1000
0100
1000
,
0000
0001
0100
0001
,
0000
0100
0000
0010
,
0000
1000
1000
1000
,
0000
1001
0000
0100
,
0000
0001
0001
0001
,
0000
1001
0000
1000
,
0000
0100
0000
0010
,
0000
0001
0001
0001
,
0000
0100
0000
0001
,
0000
0200
0000
0300
,
0000
0010
0000
0010
,
0000
0100
0000
0100
,
0000
0010
0000
1000
,
0000
0020
0000
0030
,
0000
0100
0000
0010
,
0000
0100
0000
0000
,
0000
0100
0000
0001
,
0000
0200
0000
0300
,
0000
0001
0000
0001
,
0000
1000
0000
1000
,
0000
0100
0000
1000
,
0000
0200
0000
0300
,
0000
1000
0000
1000
,
0000
1000
0000
0000
,
0000
0001
0000
0001
,
0000
0001
0000
0000
,
0000
1001
0000
0000
,
0000
1001
0000
0000
,
0000
0001
0000
0010
,
0000
0001
0000
0000
,
0000
1001
0000
0000
,
0000
1001
0000
0000
,
0000
1000
0000
0010
,
0000
2000
0000
0000
,
3000
0002
0000
0000
,
0003
2000
0000
0000
,
3000
0000
0001
0001
,
0000
0000
1000
1000
,
0000
0002
0000
0000
,
0003
2000
0000
0000
,
3000
0000
0010
0010
,
0000
0200
0000
0000
,
0000
0020
0300
0030
,
0100
0100
0000
0000
,
0010
0010
0000
0001
,
0001
1000
0000
0000
,
0000
0020
0000
0030
,
0100
0100
0000
0000
,
0010
0010
0000
1000
,
1000
0001
0000
0000
,
0000
0000
0002
0003
1000
0000
0002
0000
,
0003
1000
1000
0001
,
0001
0000
2000
3000
0001
0000
2000
0000
,
3000
0001
0100
0010
,
1000
0001
0000
1000
,
0000
0002
0000
0003
,
0000
0100
0000
0100
,
0000
0010
0000
0010
,
0000
1000
0000
0001
,
0000
2000
0000
3000
,
0000
0010
0000
0100
,
0000
0010
0000
0100
,
0000
1000
0000
0001
,
0000
0002
0000
0003
,
0000
1000
0000
1000
,
0000
0010
0000
0010
,
0000
0001
1000
2000
,
3000
1000
0000
0010
,
0000
1000
0000
0000
,
0000
0001
0000
0010
,
0000
0001
0000
1000
,
0001
0000
0000
0000
0000
0200
0000
0000
,
0000
0000
0000
0000
,
0000
0000
0300
0001
0000
0000
0010
0000
0000
0020
0000
0000
,
0000
0030
1000
0000
0100
0000
0200
0000
,
0000
0300
0010
0000
1000
0000
2000
0000
,
0000
3000
0100
0000
0001
0000
0002
0000
,
0000
0003
1001
0000
0000
0000
0000
0000
;

//--------------- dance-single - Melody Love ----------------
#NOTES:
     dance-single:
     Melody Love:
     Easy:
     8:
     0,0,0,0,0:
0000
0000
0000
0000
,
0000
0000
0000
0000
,
0000
0000
1000
0000
0010
0000
1000
1000
,
1000
0000
0001
0000
0010
0000
0001
0001
,
0001
0000
1000
0000
0100
0000
1000
1000
,
1000
0000
0001
0000
0100
0000
0001
0001
,
0001
0000
0100
0000
0100
0000
0100
0100
,
0100
0000
0001
1000
0001
1000
0001
0000
,
1000
0000
1001
0000
0100
0000
0100
0100
,
0100
0000
1000
0001
1000
0001
1000
0000
,
0001
0000
1001
0000
0000
0010
1010
0000
,
0000
0100
0101
0000
0000
0010
1010
0000
,
0010
0000
0000
0000
0100
0000
0100
0000
0100
0000
0000
0000
0100
0000
0000
0020
,
0000
0130
0100
0001
,
0000
0002
0000
0200
0000
0003
0300
0000
,
0000
0010
0000
0100
0000
0100
0000
0000
,
0000
0100
0000
0010
0000
0010
0000
0000
,
0110
0010
0010
0001
,
0000
0002
0000
0020
0000
0003
0030
0000
,
0000
0200
0000
0000
0300
0020
0000
0000
,
0000
0200
0000
0330
0000
0000
2000
0000
,
0000
3010
0010
1000
,
0000
2000
0000
0020
0000
3000
0030
0000
,
0000
1000
0000
0010
0000
0010
0000
0000
,
0000
0001
0000
0100
0000
0100
0000
0000
,
0110
0100
0100
1000
,
0000
2000
0000
0200
0000
3000
0300
0000
,
0000
1000
0000
0001
0000
0001
0000
1000
,
0000
1000
0000
0000
0000
0000
0000
0000
,
0000
0100
0000
0010
0000
0010
0000
0100
,
0000
0100
0000
0000
0000
0000
0100
0000
,
0100
1000
1000
1000
,
1001
0001
0001
0001
,
1001
0000
0001
0010
,
0000
0000
0100
1000
,
0000
0001
0001
0001
,
1001
1000
1000
1000
,
1001
0000
1000
1000
,
0010
0020
0000
0000
,
0030
2000
0010
0010
,
3000
0002
0100
0100
,
0003
0000
0001
0010
,
0010
0100
0100
1000
,
0000
0002
0100
0100
,
0003
2000
0010
0010
,
3000
0000
0100
0010
,
0010
0200
0000
0000
0000
0000
0000
0000
,
0000
0020
0330
0100
,
0000
0002
0000
0000
0000
0003
0000
0001
,
0000
0002
0000
0103
0000
0200
0000
0310
,
0000
0020
0000
0000
0000
0030
0000
0000
,
0000
2002
0000
0000
3003
0000
0100
0000
,
0000
2000
0000
0000
0000
3000
0000
1000
,
0000
2000
0000
3010
0000
0020
0000
0130
,
0000
0200
0000
0000
0000
0000
0000
0300
,
0000
0000
0000
0000
0002
0000
0003
0000
1000
0000
0000
0020
0000
0000
0030
0000
,
0000
0100
0000
0100
0000
0000
0000
0010
0000
0100
0000
0100
0000
0000
0000
0010
,
0000
0000
0010
0000
2000
0000
3000
0000
0001
0000
0000
0200
0000
0000
0300
0000
,
0000
0010
0000
0100
0000
0000
0000
0100
0000
0010
0000
0100
0000
0000
0000
0000
,
0001
1000
0001
0000
0001
0000
1000
0000
,
0000
0200
0000
0020
0000
0300
0030
0000
,
0000
0100
0000
0010
0000
0010
0000
0000
,
0000
0010
0000
0100
0000
0100
0000
0000
,
0000
0001
0001
1000
,
0000
0020
0000
0200
0000
0030
0300
0000
,
0000
0010
0000
0100
0000
0100
0000
0010
,
0000
0010
0000
0000
0000
0000
2000
0000
,
3002
1003
1000
0001
,
0000
0020
0000
0002
0000
0030
0003
0000
,
0000
1000
0000
0100
0000
0100
0000
0000
,
0000
0010
0000
0100
0000
0100
0000
0000
,
0000
0000
0000
0000
0220
0330
0000
0000
1000
0000
0000
0220
0000
0000
0330
0000
,
0000
0000
0000
0001
0000
0000
1000
0000
0000
0000
1000
0000
0000
0000
0100
0000
,
0000
0200
0000
0000
0300
0000
0000
0000
,
0000
0010
0000
0001
0000
0001
0000
1000
,
0000
2000
0000
3000
0000
0000
0000
0000
,
0000
0001
0001
0001
1000
2002
0000
0000
,
0000
0000
0000
0000
,
0000
0000
0000
0000
3003
0000
0001
0000
0000
1000
0000
0000
0001
0000
0000
1000
0000
0000
0002
0000
0000
2000
0000
0000
,
0000
3003
1000
0001
1000
0001
2000
0002
,
0000
3003
0001
0010
0001
0010
0002
0020
,
0000
0033
0100
1000
0100
1000
0200
2000
,
0000
3300
1100
0000
0000
0000
0000
0000
;

//--------------- dance-single - Melody Love ----------------
#NOTES:
     dance-single:
     Melody Love:
     Medium:
     11:
     0,0,0,0,0:
0000
1000
1000
0001
,
0001
0100
0100
0010
,
0010
0000
0000
0000
1000
0000
0100
0000
0010
0000
0100
0000
1000
0000
1000
0100
,
0000
0000
0000
0000
0001
0000
0010
0000
0100
0000
0010
0000
0001
0000
0001
0100
,
0000
0000
0000
0000
1000
0000
0100
0000
0010
0000
0100
0000
1000
0000
1000
0100
,
0000
0000
0000
0000
0001
0000
0010
0000
0100
0000
0010
0000
0001
0000
0001
0100
,
0000
0100
0001
0000
0100
0000
0100
0000
0100
0000
0000
0000
0100
0000
0100
0000
,
0100
0000
0001
1000
0001
1000
0001
1001
,
1000
0001
1001
0100
0100
0100
0000
0100
,
0100
0100
1000
0001
1000
0001
1000
1001
,
0001
1000
1001
0100
0001
0001
1001
0100
,
1000
1000
1001
0100
0001
0001
1001
0100
,
1000
0000
0000
0000
0100
0000
0100
0000
0100
0000
0100
0000
0100
0000
0000
0100
,
0000
0020
0000
0000
0031
0000
0100
0000
0001
0000
0000
0000
1000
0000
0010
0000
,
1000
0002
0000
0200
0000
0003
0300
0010
,
0000
0010
0000
0100
0000
0100
0000
0010
,
0000
0010
0000
0000
0100
0001
0010
0000
,
0110
0000
0001
0010
0001
0000
1000
0100
,
1000
0002
0000
0020
0000
0003
0030
0100
,
0000
0100
0000
0010
0000
0010
0000
0100
,
0010
0100
0000
0000
0000
0000
2000
0000
,
3002
0000
1003
0010
1000
0000
0001
0100
,
0001
2000
0000
0020
0000
3000
0030
1000
,
0000
1000
0000
0010
0000
0010
0000
0100
,
0000
0100
0000
0000
0010
0100
0001
0000
,
1001
0000
1000
0100
1000
0000
0001
0010
,
0001
2000
0000
0200
0000
3000
0300
1000
,
0000
1000
0000
0001
0000
0001
0000
0001
,
1000
0001
0000
0000
0000
0000
0000
1000
,
0000
1000
0000
0001
0000
0001
0000
0010
,
0100
0010
0000
0000
0000
0000
0100
0000
,
0100
1000
1000
1100
,
1000
0001
0001
0101
,
0100
0001
0000
0100
0000
0100
0010
0100
,
0000
0001
0000
1000
0000
0001
0000
1000
,
0000
0001
0001
0011
,
0001
1000
1000
1010
,
0010
1000
0000
0010
0000
0000
0010
1000
,
0000
0010
0000
0010
0000
0000
0010
0000
,
0010
1000
1000
1100
,
0100
0001
0001
0101
,
0001
0100
0000
0100
0000
0000
0010
0100
,
0010
1000
0000
0001
0000
1000
0000
0001
,
0000
0001
0001
0011
,
0010
1000
1000
1010
,
1000
0010
0000
0010
0000
0000
2000
0000
,
3100
0200
0000
0000
0000
0000
0000
0000
,
0000
2000
3300
0100
,
1000
0002
0000
0000
0000
0003
0000
0001
,
0100
0002
0000
0103
0010
0200
0000
0310
,
1000
0020
0000
0000
0000
0030
0000
0000
,
0000
2002
0000
0000
3003
0000
0100
0000
,
0001
2000
0000
0000
0000
3000
0000
1000
,
0010
2000
0000
3010
0100
0020
0000
0130
,
0001
0200
0000
0000
0000
0000
0000
0300
,
0000
0000
0000
0000
0002
0000
0003
0000
1000
0000
0000
0010
0000
0020
0030
0000
,
0000
0100
0001
0100
0000
0100
0000
0100
0000
0010
1000
0010
0000
0010
0000
0010
,
0000
0000
0100
0000
2000
0000
3000
0000
0001
0000
0000
0100
0000
0200
0300
0000
,
0000
0010
1000
0010
0000
0010
0000
0010
0000
0100
0001
0100
0000
0000
0000
0000
,
0001
1000
0001
0100
0001
0000
1000
0010
,
1000
0200
0000
0020
0000
0300
0030
0100
,
0000
0100
0000
0010
0000
0010
0000
0100
,
1000
0100
0000
0010
0001
0010
0001
0000
,
0000
0000
0001
0010
0001
0000
1000
0100
,
1000
0020
0000
0200
0000
0030
0300
0010
,
0000
0010
0000
0100
0000
0100
0000
0010
,
0100
0010
0000
0000
0000
0000
2000
0000
,
3002
0000
1003
0010
1000
0000
0001
0100
,
0001
0020
0000
0002
0000
0030
0003
1000
,
0000
1000
0000
0100
0000
0100
0000
0010
,
0001
0010
0000
0100
1000
0100
1000
0000
,
0000
0000
0000
0000
2020
3030
0000
0000
1000
0000
0000
0001
0000
0202
0303
0000
,
0000
0001
0000
0001
0000
0000
1000
0000
0000
0000
1000
0000
0000
0000
0100
0000
,
0010
0200
0000
0000
0300
0000
0100
0000
,
0100
0010
0000
0001
0000
0001
0000
1000
,
0000
2000
0000
3000
0000
0000
0010
0000
,
0100
0001
1000
0001
1000
2002
0000
0000
,
0000
0000
0000
0000
,
0000
0000
0000
0000
3003
0000
0002
0000
0000
0103
0000
0000
2000
0000
0000
0100
0000
0000
0000
0000
0000
0100
0000
0000
,
0000
3100
0002
0103
2000
0100
0000
0100
,
0000
3100
0002
0013
2000
0010
0000
0010
,
0000
3010
0002
0013
2000
0010
0000
0010
,
0000
3010
1010
0000
0000
0000
0000
0000
;

//--------------- dance-single - Melody Love ----------------
#NOTES:
     dance-single:
     Melody Love:
     Hard:
     14:
     0.508,0.687,0.102,0.182,0.12:
0000
0000
1000
1000
1000
0000
0001
0001
,
0001
0000
0100
0100
0100
0000
0010
0010
,
0010
0000
0000
0000
1000
0000
0100
0000
1000
0000
0100
0000
1000
0100
1000
0100
,
0000
0000
0000
0000
0010
0000
0001
0000
0010
0000
0001
0000
0010
0001
0010
0001
,
0000
0000
0000
0000
1000
0000
0010
0000
1000
0000
0010
0000
1000
0010
1000
0010
,
0000
0000
0000
0000
0100
0000
0001
0000
0100
0000
0001
0000
0100
0001
0100
0001
,
0000
0001
0100
0001
0100
0000
0100
0000
0100
0000
0100
0000
0100
0000
0100
0000
,
0100
0000
0100
0000
0001
0000
1000
0001
1000
0000
1000
0000
0001
1000
0001
1000
,
0000
1000
0001
1000
0001
0000
0100
0000
0100
0000
0100
0000
0100
0000
0100
0000
,
0100
0000
0100
0000
1000
0000
0001
1000
0001
0000
1001
0000
1000
0001
1000
0001
,
0000
0001
1000
0001
1000
0000
0100
0000
0001
1000
0001
1000
0001
0000
0100
0000
,
1000
0001
1000
0001
1000
0000
0100
0000
0001
1000
0001
1000
0001
0000
0100
0000
,
1000
0000
0000
0000
0100
0000
0100
0000
0100
0000
0100
0000
0100
0000
0010
0010
,
0000
0100
0020
0000
0031
0000
0100
0000
0001
0000
0100
0000
0010
0000
1000
0000
,
0010
1000
0000
0002
0200
0003
0300
1000
,
0100
1000
0000
1000
0100
1000
0000
0100
,
1000
0100
0000
1000
0100
1000
0010
0000
,
0110
0000
0001
0010
0001
0010
0100
1000
,
0100
1000
0000
0002
0020
0003
0030
1000
,
0100
1000
0000
0100
1000
0100
0000
0100
,
0010
0100
0000
0000
0000
0000
2000
0000
,
3002
0000
1003
0010
1000
0010
0100
0001
,
0100
0001
0000
2000
0020
3000
0030
0001
,
0010
0001
0000
0001
0010
0001
0000
0010
,
0001
0010
0000
0001
0010
0001
0100
0000
,
0110
0000
1000
0100
1000
0100
0010
0001
,
0010
0001
0000
2000
0200
3000
0300
0001
,
0010
0001
0000
0010
0001
0010
0000
0010
,
0100
0010
0000
0000
0000
0000
0000
1000
,
0100
1000
0000
0001
0010
0001
0000
1000
,
0100
1000
0000
0000
0000
0000
0010
0000
,
0110
0000
1000
0100
1000
0100
1100
0000
,
1100
0000
0001
0100
0001
0100
0101
0000
,
0101
0001
0000
0100
0000
0100
0010
0100
,
0010
0100
0000
0110
0000
0100
0001
0100
,
1000
0100
0001
0010
0001
0010
0011
0000
,
0011
0000
1000
0010
1000
0010
1010
0000
,
1010
1000
0000
0010
0000
0010
0001
0010
,
1000
0010
0000
0010
0000
0010
0010
0000
,
0110
0000
1000
0100
1000
0100
1100
0000
,
1100
0000
0001
0100
0001
0100
0101
0000
,
0101
0001
0000
0100
0010
0100
0010
0100
,
0010
0100
0010
0100
0010
0100
0001
0100
,
1000
0100
0001
0010
0001
0010
0011
0000
,
0011
0000
1000
0010
1000
0010
1010
0000
,
1010
1000
0000
0010
0000
0010
2000
0000
,
3001
0200
0000
0010
0000
0010
0000
0010
,
0000
0310
2002
0000
3003
0000
0001
0001
,
1000
0002
0000
0000
0000
0003
0000
0001
,
0100
0201
0000
0301
0100
0010
1000
0001
,
0100
0020
0000
1000
0000
1000
0000
1030
,
0000
2002
0000
0000
3003
0000
1000
1000
,
0001
2000
0000
0000
0000
3000
0000
1000
,
0010
1020
0000
1030
0010
0100
0001
1000
,
0010
0200
0000
0001
0000
0001
0000
0301
,
0000
0000
0000
0000
2002
0000
3003
0000
1000
0000
0100
0010
0000
0020
0030
0000
,
0000
0100
1000
0100
0000
0100
0001
0100
0000
0100
1000
0100
0000
0100
0001
0100
,
1000
0000
0100
0000
2002
0000
3003
0000
0001
0000
0010
0100
0000
0200
0300
0000
,
0000
0010
0001
0010
0000
0010
1000
0010
0000
0010
0001
0010
0000
0000
0000
0000
,
0001
1000
0001
1000
0001
0000
0100
0000
0001
0000
1000
0000
0010
0000
1000
0000
,
0001
0100
0000
0200
0002
0300
0003
1000
,
0100
1000
0000
0100
0010
0100
0000
0100
,
1000
0100
0000
1000
0100
1000
0010
0000
,
0110
0000
0001
0010
0001
1000
0100
1000
,
0001
0010
0000
0020
0002
0030
0003
1000
,
0100
1000
0000
0001
0010
0001
0000
0100
,
0010
0100
0000
0000
0000
0000
2000
0000
,
3002
0000
1003
0010
1000
0001
0100
0001
,
1000
0010
0000
0020
2000
0030
3000
0001
,
0010
0001
0000
0010
0100
0010
0000
0010
,
0001
0010
0000
0001
0010
0001
0100
0000
,
0110
0000
0000
0000
2002
3003
0000
0000
2020
3030
0000
2002
3003
0202
0303
0000
,
0100
0010
0010
0100
0000
0000
0010
0000
1000
0000
0100
0000
0000
0000
0100
0000
,
0010
0002
0000
1003
0000
0000
0100
1000
,
0100
0010
0000
0001
0010
0100
0000
1000
,
0100
0020
0000
0130
0000
0010
0100
0010
,
0001
0000
1000
0000
1000
0000
1000
0000
1000
0001
2002
0000
0000
0000
0000
0000
,
0000
0000
0000
0000
,
0000
0000
0000
3003
0002
0000
0103
0000
2000
0000
0100
0000
0010
0000
0100
0000
,
0010
3100
0002
0103
2000
0100
0010
0100
,
0010
3100
0002
0013
2000
0010
0100
0010
,
0100
3010
0002
0013
2000
0010
0100
0010
,
3100
1000
0010
1000
1100
0000
0000
0000
0000
0000
0000
0000
0000
0000
0000
0000
;
