#TITLE:irony (Mtell Remix);
#SUBTITLE:;
#ARTIST:ClariS;
#TITLETRANSLIT:;
#SUBTITLETRANSLIT:;
#ARTISTTRANSLIT:;
#GENRE:;
#CREDIT:;
#BANNER:;
#BACKGROUND:;
#LYRICSPATH:;
#CDTITLE:;
#MUSIC:irony (Mtell Remix).ogg;
#OFFSET:-1.417000;
#SAMPLESTART:134.445999;
#SAMPLELENGTH:15.000000;
#SELECTABLE:YES;
#BPMS:0.000000=175.000000
;
#STOPS:
;
#BGCHANGES:;
#KEYSOUNDS:;
#ATTACKS:;

//---------------dance-single - ----------------
#NOTES:
     dance-single:
     :
     Hard:
     16:
     0.742003,1.008350,0.503575,0.302145,0.246992,1083.000000,978.000000,105.000000,63.000000,0.000000,0.000000,0.742003,1.008350,0.503575,0.302145,0.246992,1083.000000,978.000000,105.000000,63.000000,0.000000,0.000000:
// measure 0
0000
0000
0000
0000
,  // measure 1
0000
0000
0000
0000
,  // measure 2
0000
0000
0000
0000
,  // measure 3
0000
0000
0000
0000
,  // measure 4
0000
0000
0000
0000
,  // measure 5
1001
0000
0100
0000
0010
0000
1000
0001
,  // measure 6
0000
0000
0001
0000
0010
0000
0100
0000
0010
0000
1000
0000
0010
0000
0100
0010
,  // measure 7
0100
0000
0000
1000
0000
0010
0100
0000
0000
0000
0100
0000
0001
0000
1000
0000
,  // measure 8
0000
0000
0010
0000
1000
0000
0001
0100
0010
0000
1000
0000
0100
0000
1000
0000
,  // measure 9
1001
0001
0100
0010
0000
1000
0000
0100
,  // measure 10
0000
0001
0010
0001
1000
0000
0100
0010
,  // measure 11
0001
0000
0010
1000
0000
0010
0000
0100
,  // measure 12
0000
1000
0001
0010
0100
0000
1000
0001
,  // measure 13
0100
0100
0010
1000
0000
0010
0000
0001
,  // measure 14
0000
0100
0001
0010
0000
0100
1000
0010
,  // measure 15
0200
0000
0000
1000
1300
0100
0001
0101
,  // measure 16
0000
0000
1001
0000
0000
0000
0011
0000
0001
0010
0100
0000
1000
0100
1000
0100
,  // measure 17
0010
0001
0010
0001
1000
0100
1000
0010
,  // measure 18
0000
0010
0100
0001
0100
0010
1000
0100
,  // measure 19
0001
0000
0001
0200
0000
2300
0000
3002
,  // measure 20
0000
0013
0001
1000
0010
0000
1000
0001
,  // measure 21
0100
0010
0100
0010
1000
0001
1000
0200
,  // measure 22
0000
0310
0001
0100
0000
0100
0010
1000
,  // measure 23
0020
0000
0000
0001
0031
0010
1000
1010
,  // measure 24
0000
0000
0101
0000
0000
0000
0011
0000
0000
0000
0100
1000
0001
0000
1001
0000
,  // measure 25
1001
0000
0000
1000
0010
0000
0100
0000
0010
0000
0010
0000
1000
0000
0001
0000
,  // measure 26
1000
0000
0000
0001
0010
0000
0100
0000
0010
0000
0010
0000
0010
0000
0000
0000
,  // measure 27
1001
0000
0000
0001
0100
0000
0010
0000
0000
0000
0100
0000
0001
0000
1000
0001
,  // measure 28
1000
0000
0000
0100
1000
0000
0100
0000
0010
0000
0100
0000
1000
0001
1000
0001
,  // measure 29
0100
0000
0010
0000
1000
0000
1000
0000
0100
0000
0010
0000
0001
0010
0001
0010
,  // measure 30
0100
0000
1000
0000
0001
0000
0001
0000
0100
0000
0010
0000
1000
0010
1000
0010
,  // measure 31
0100
0010
0100
0010
0100
0001
0100
0001
1000
0100
1000
0100
0010
0001
0010
0100
,  // measure 32
1000
0000
0000
0000
0000
0000
0000
0000
0000
0000
0010
0100
0001
0000
1001
0000
,  // measure 33
1002
0000
0000
0000
0000
0000
0000
0000
0103
0010
1000
0000
0100
0000
0220
0000
,  // measure 34
0000
0330
0110
0000
0010
0001
0010
0100
,  // measure 35
1100
0000
0000
0101
0000
0000
1001
0000
1000
0000
0010
0100
0001
0000
0100
0000
,  // measure 36
0101
0000
0000
0000
1010
0000
1000
0001
0100
0000
0010
0100
0000
0001
0100
0000
,  // measure 37
0210
0000
0000
0000
0310
1000
0010
0220
,  // measure 38
0000
0330
0110
0000
0002
0023
2030
3020
,  // measure 39
0031
0000
1000
1010
0000
0001
0011
1000
,  // measure 40
1010
0010
0000
0100
1000
0100
0002
1000
,  // measure 41
0203
0000
0000
0000
0001
0000
0000
0000
0310
1000
0001
0000
0010
0000
0200
0000
,  // measure 42
1000
0000
0310
0000
0110
0001
1000
0001
,  // measure 43
0100
0000
1000
0100
0000
0001
0200
0000
0000
0000
0310
0000
1000
0000
0001
0000
,  // measure 44
0011
0000
0000
0000
1100
0000
0000
0010
0100
0000
1000
0100
0000
0010
0100
0000
,  // measure 45
0120
0000
0001
0000
0130
1000
0010
0200
,  // measure 46
0001
0000
0310
0000
2000
3020
0032
0023
,  // measure 47
1030
0000
0001
0011
0000
1000
1010
0001
,  // measure 48
0011
0010
0000
0100
0001
0100
2000
0001
,  // measure 49
3010
0000
0010
1000
0000
0101
0000
0110
,  // measure 50
0000
0000
1000
0000
0100
0000
0010
0000
0001
1000
0000
0001
1000
0000
0010
0000
,  // measure 51
0010
0000
0100
0001
0000
1010
0000
0110
,  // measure 52
0000
0000
0001
0000
0010
0000
0100
0000
1000
0001
0000
1000
0001
0000
0100
0000
,  // measure 53
1000
0000
0100
0010
0000
1010
0000
0110
,  // measure 54
0000
0001
0010
2000
0000
3010
0100
1000
,  // measure 55
0010
0000
0001
0101
0000
1000
1100
0001
,  // measure 56
0101
0100
0001
0020
0000
0130
1000
0100
,  // measure 57
0010
0010
0001
2000
0000
0010
0000
3002
,  // measure 58
0000
0013
0010
0100
1000
0000
0001
1000
,  // measure 59
0200
0000
0010
0310
0000
1100
0000
0011
,  // measure 60
0000
0000
0001
0000
1000
0000
0010
0000
0100
0001
0000
0100
0001
0000
1000
0000
,  // measure 61
0200
0000
1300
0002
0000
0023
0000
0032
,  // measure 62
0000
1003
0010
0100
0110
0001
0100
0010
,  // measure 63
2000
0000
3001
0101
0000
1000
1100
0001
,  // measure 64
0101
0000
0100
0000
0010
0000
0001
0000
1000
0000
0100
0000
0010
0100
0010
0100
,  // measure 65
0001
0000
1000
0001
0000
0100
0000
0010
,  // measure 66
0000
0100
0001
0100
0001
0000
0000
0000
,  // measure 67
1000
0100
1000
0100
0001
0100
1000
0010
,  // measure 68
1000
0010
1000
0001
0100
0001
0100
0010
,  // measure 69
1000
0000
0001
1000
0000
0100
0000
0010
,  // measure 70
0000
0100
1000
0100
1000
0000
0000
0000
,  // measure 71
0001
0100
0001
0100
1000
0100
0001
1000
,  // measure 72
0100
0000
1000
0000
0100
0000
0010
0000
0001
0000
0010
0001
1000
0000
1001
0000
,  // measure 73
1001
0001
0200
0010
0000
0001
0000
2300
,  // measure 74
0000
3100
0001
1000
0010
0000
1000
0100
,  // measure 75
0010
0001
1000
0200
0000
0001
0000
0010
,  // measure 76
0000
1300
0100
0010
0001
0000
0100
0010
,  // measure 77
1000
0001
0100
0020
0000
0001
0000
0100
,  // measure 78
0000
0031
0010
2000
0000
3001
0010
0100
,  // measure 79
0020
0000
0000
0031
0000
1000
0010
1010
,  // measure 80
0000
0000
0011
0000
0000
0000
1001
0000
1000
0010
0100
0000
0001
0100
0001
0100
,  // measure 81
0010
1000
0010
1000
0001
0100
0001
0010
,  // measure 82
1000
0010
0100
1000
0100
0010
0001
0100
,  // measure 83
1000
0100
0010
0100
0001
0100
1000
0200
,  // measure 84
0000
0301
0010
0100
0010
0000
1000
0001
,  // measure 85
0100
0010
0100
0010
0001
1000
0001
0200
,  // measure 86
0000
0310
1000
0200
0000
0310
0001
0100
,  // measure 87
0020
0000
0000
0001
0031
0010
1000
1010
,  // measure 88
0000
0000
1100
0000
0000
0000
0011
0000
0000
0000
0100
1000
0001
0000
1001
0000
,  // measure 89
1001
0000
0000
0000
0110
0000
0000
0000
1001
0000
1000
0010
0000
1000
0010
0000
,  // measure 90
0100
0000
0010
0000
0110
0000
0000
0000
1001
0000
0001
0010
0000
0001
0010
0100
,  // measure 91
1000
0000
0001
0000
1001
0000
0000
0000
0110
0000
0100
0001
0000
0100
0001
0000
,  // measure 92
1000
0000
0100
0000
0001
0000
0100
0000
1000
0000
0100
0010
0000
0100
0010
0001
,  // measure 93
1000
0001
1000
0001
0100
0010
1000
0001
,  // measure 94
0010
0100
0010
0100
1000
0001
0100
0010
,  // measure 95
1000
0010
1000
0001
1000
0010
1000
0001
0100
0010
0100
0001
0100
0010
0100
0001
,  // measure 96
1000
0000
0100
1000
0001
0000
0100
0001
1000
0000
1001
0000
1001
0000
0100
0000
,  // measure 97
0010
0000
0001
0010
0001
0000
0010
0001
0010
0000
0001
0000
1000
0000
0010
0000
,  // measure 98
0100
0000
0001
0000
0010
0000
0001
0100
0010
0000
1000
0100
0010
0000
0001
0000
,  // measure 99
1001
0000
1000
0010
0000
0100
0001
0000
0010
0000
0001
0000
0100
0000
1000
0000
,  // measure 100
0100
0000
0010
0000
1000
0000
0100
0010
0001
0000
1001
0000
1001
0000
0000
0000
,  // measure 101
1000
0000
0010
1000
0010
0000
1000
0010
1000
0000
0001
0000
0010
0000
0100
0000
,  // measure 102
1000
0010
0100
0001
0020
1000
0100
0000
,  // measure 103
0031
0010
0011
0100
0000
1000
1010
0100
,  // measure 104
0101
0001
0000
1001
1001
0000
0110
1000
,  // measure 105
0010
0000
1000
0001
1000
0000
0001
0100
0001
0000
0100
0000
0010
0000
1000
0000
,  // measure 106
0100
0000
0001
0000
0100
0000
1000
0010
1000
0000
0100
0010
0001
0000
0100
0010
,  // measure 107
0100
0000
1000
0100
0000
0001
0100
0000
0010
0000
1000
0000
0100
0000
1000
0000
,  // measure 108
0001
0000
0100
0000
1000
0000
0100
0010
1000
0000
1001
0000
1001
0000
0000
0000
,  // measure 109
0010
0000
0001
1000
0001
0000
1000
0100
1000
0000
0010
0000
0100
0000
0001
0000
,  // measure 110
0010
1000
0010
0001
2000
0100
0001
0000
,  // measure 111
3001
0100
0101
0010
0000
1000
1100
0010
,  // measure 112
0011
0001
0000
1001
1001
0000
0110
0001
,  // measure 113
0200
0000
0010
0310
0000
1001
0000
0101
,  // measure 114
0000
0011
0001
1000
0100
0000
1000
0010
,  // measure 115
0002
0000
1003
0200
0000
0320
0000
0032
,  // measure 116
0000
0000
1003
0000
0100
0000
0001
0000
1000
0010
0000
1000
0010
0000
0100
0000
,  // measure 117
0200
0000
0010
0310
0000
1001
0000
1100
,  // measure 118
0000
1010
1000
0200
0000
0301
0100
1000
,  // measure 119
1100
0000
0001
0101
0000
1000
1100
0010
,  // measure 120
0011
0001
0010
1000
0010
0000
0010
0001
,  // measure 121
2000
0000
0010
0010
0000
0001
0000
3200
,  // measure 122
0000
0310
0001
1000
0100
0000
1000
0001
,  // measure 123
0100
0000
0001
0011
0000
1010
0000
1100
,  // measure 124
0000
0000
0001
0000
0100
0000
0001
0000
0010
0100
0000
0010
0100
0000
1000
0000
,  // measure 125
2000
0000
3001
0010
0000
1000
0000
0100
,  // measure 126
0000
0001
0100
0010
0000
1000
0010
0100
,  // measure 127
0101
0000
1000
1010
0000
0001
0011
0100
,  // measure 128
1100
0000
1000
0000
0000
0000
1001
0000
1001
0000
0000
0000
0010
1000
0001
0100
,  // measure 129
0010
0010
0100
0001
0000
0010
0000
1000
,  // measure 130
0000
0100
0010
0001
0010
0000
0000
0000
,  // measure 131
1000
0001
1000
0001
0100
0010
0100
0001
,  // measure 132
0010
0001
0010
0100
1000
0100
1000
0001
,  // measure 133
0100
0100
0010
1000
0000
0010
0000
0001
,  // measure 134
0000
0010
0100
1000
0100
0000
0000
0000
,  // measure 135
0001
0010
0001
0010
0100
0010
0001
1000
,  // measure 136
0010
0000
1000
0000
0010
0000
1000
0000
0001
0000
0100
0010
1000
0000
0100
0010
,  // measure 137
0002
0000
0100
0100
0000
1000
0000
0023
,  // measure 138
0000
0130
1000
0001
1000
0000
0000
0010
,  // measure 139
1010
0000
0100
0000
0001
0000
1000
0010
,  // measure 140
1000
0000
0001
0010
0001
0000
1000
0001
,  // measure 141
2001
0000
0010
0010
0000
0001
0000
3200
,  // measure 142
0000
0310
0001
1000
0001
0000
0000
0100
,  // measure 143
0101
0000
0010
0000
1000
0000
0001
0100
,  // measure 144
0001
0000
0000
0000
1000
0000
0100
0000
1000
0100
0010
0000
0001
0010
0001
0010
,  // measure 145
0100
0000
0000
0000
;
