#TITLE:Welcome to the Mosh Pit;
#SUBTITLE:;
#ARTIST:lapix;
#TITLETRANSLIT:;
#SUBTITLETRANSLIT:;
#ARTISTTRANSLIT:;
#GENRE:;
#CREDIT:;
#BANNER:;
#BACKGROUND:Welcome to the Mosh Pit-bg.png;
#LYRICSPATH:;
#CDTITLE:;
#MUSIC:Welcome to the Mosh Pit.ogg;
#OFFSET:-1.193000;
#SAMPLESTART:91.890999;
#SAMPLELENGTH:10.000000;
#SELECTABLE:YES;
#BPMS:0.000000=172.000000
;
#STOPS:
;
#BGCHANGES:;
#KEYSOUNDS:;
#ATTACKS:;

//---------------dance-single - ----------------
#NOTES:
     dance-single:
     :
     Hard:
     14:
     0.735071,0.887016,0.794702,0.120409,0.397351,641.000000,542.000000,99.000000,15.000000,0.000000,0.000000,0.735071,0.887016,0.794702,0.120409,0.397351,641.000000,542.000000,99.000000,15.000000,0.000000,0.000000:
0000
0000
0000
0000
,
0000
0000
0000
0000
,
0000
0000
0000
0000
,
0000
0000
0000
0000
,
0000
0000
0000
0000
,
1001
0000
0000
0000
0200
0000
0000
0000
0310
0001
0010
0000
0001
0000
0200
0000
,
0000
0310
1000
0200
0000
0310
0001
2000
,
0000
0000
3010
0000
0200
0000
0000
0000
0000
0000
0000
0000
0301
1000
0001
1000
,
0010
1000
0100
0010
0000
0001
1001
0000
,
0010
0001
0100
0001
0010
0000
1001
0000
,
0010
1000
0100
1000
0010
0000
1001
0000
,
0100
0001
0010
0001
0100
0000
1001
0000
,
0100
1000
0010
1000
0100
0000
1001
0000
,
0011
0001
0010
0000
1010
1000
0010
0000
,
0101
0001
0010
0000
1100
1000
0010
0000
,
1000
0100
0001
0100
1000
0100
0001
0100
,
1000
0010
1000
0010
0011
0000
1010
0000
,
1001
0000
0000
0110
0000
1000
0001
0000
0000
0011
0000
0000
,
0101
0000
0000
0110
0000
0001
1000
0000
0000
1010
0000
0000
,
1100
0000
0000
0000
0000
0000
0000
0000
0000
0000
0000
0000
0011
0000
0000
0000
0000
0000
0000
0000
1000
0000
0000
0000
0100
0000
0000
0000
0000
0000
0000
0000
0000
0000
0000
0000
1000
0000
0000
0010
0000
0000
1000
0000
0000
0000
0000
0000
,
0001
0100
0001
0100
1010
0000
0011
0000
,
0110
0000
1000
0010
0001
0000
1010
0000
,
1001
0000
0001
0010
1000
0000
0011
0000
,
2001
0000
3010
1000
0100
0001
0100
0000
,
0010
0000
0001
0010
0100
0000
1000
0000
0010
0000
0000
0000
0100
0001
1000
0001
,
1000
0100
0110
0000
0001
0100
0110
0000
,
1000
0100
0001
0010
1000
0100
0110
0000
,
0101
0100
0110
0000
1000
0100
0110
0000
,
0101
0000
0001
0000
0010
0000
0001
0000
0100
0001
1000
0001
0100
0000
0000
0000
,
1010
1000
0100
0011
0000
0001
0100
0001
,
0010
0001
0100
1010
0000
1000
0100
1000
,
0010
0000
0100
0000
0010
0000
0100
0000
0001
0010
0001
0010
0100
1000
0100
1000
,
0001
0100
0001
0100
1010
0000
0011
0000
,
1000
0000
0000
0100
0000
0000
0010
0000
0000
0100
0000
0000
1000
0001
1000
0000
,
0010
0000
0000
0100
0000
0000
0001
0000
0000
0100
0000
0000
0010
0100
0010
0000
,
1000
0000
0000
0100
0000
0000
0001
0000
0100
0000
0000
1000
0000
0000
0010
0000
,
0100
0000
0000
0001
0000
0000
0010
0000
0100
0000
1000
0000
0001
0000
0100
0000
,
0110
0000
0000
1010
0000
0000
1100
0000
0110
0000
0000
1100
0000
0000
0101
0000
,
0110
0000
0000
1010
0000
0000
1100
0000
0110
0000
0000
1100
0000
0000
0101
0000
,
1001
0000
0000
1100
0000
0000
0101
0000
0000
1100
0000
0000
0011
0000
0000
1010
,
0000
0000
0011
0000
0000
1010
0000
0000
0001
1000
0001
1000
0010
0000
0000
0000
,
1002
0103
0000
0000
,
0000
0000
0000
0000
,
2001
3100
0000
0000
,
0000
0000
0000
0000
,
0100
0000
0100
0000
1000
0000
0001
0100
0001
0000
1000
0000
0010
0000
0000
0000
,
0100
0000
0100
0000
0001
0000
1000
0100
1000
0000
0100
0000
0010
0000
0100
0000
,
0010
0000
0010
0000
0001
0000
0100
0010
0100
0000
0001
0000
0100
0000
0000
0000
,
0010
0000
0010
0000
1000
0000
0100
0010
0100
0000
1000
0000
0100
0000
1000
0000
,
0020
0000
0230
0000
0301
0010
0100
2000
,
0000
3010
0100
0002
0000
0013
0100
0020
,
0000
0000
0030
0000
0001
0100
1000
0200
,
0310
0000
0000
0000
,
1000
0100
1001
1001
,
0001
0010
1001
1001
,
1000
0010
0110
0110
,
0001
0100
0001
0100
0010
1000
1100
0000
,
0011
0001
0100
0010
0110
0000
1001
0000
,
1010
1000
0100
0010
0110
0000
1001
0000
,
1100
1000
1001
0001
1001
0000
0110
0000
,
0101
0001
1001
1000
1001
0000
0110
0000
,
1100
1000
1001
0000
0101
0001
1001
0000
,
0011
0010
0110
0000
1010
0010
0110
0000
,
0001
0010
1000
0010
0001
0010
1000
0010
,
0001
0010
0001
0010
1010
0000
0011
0000
,
1000
0000
0010
0100
0000
0010
0100
0000
0001
0000
0010
0100
0000
0010
0100
0000
,
1000
0000
0001
0100
0000
0001
0100
0000
0001
0000
1000
0100
0000
1000
0100
0000
,
1000
0000
0010
0100
0000
0100
0010
0000
1000
0000
0100
0010
0000
0010
0100
0000
,
1000
0000
0000
0010
0000
0000
0001
0000
0000
0010
0000
0000
1000
0001
1000
0000
,
0100
0000
0010
0001
0000
0010
0001
0000
0100
0000
0010
1000
0000
0010
1000
0000
,
0001
0000
0010
0100
0000
0100
1000
0000
0001
0000
1000
0010
0000
0010
0100
0000
,
0001
0000
1000
0010
0000
1000
0100
0000
1000
0000
0001
0010
0000
0001
0100
0000
,
0001
0000
0000
0010
0000
0000
2000
0000
0000
0000
3010
0000
0001
0000
0100
0000
,
0010
1000
0000
0001
1000
0000
0010
1000
0000
0001
1000
0000
0100
0000
0010
0000
,
0001
0100
0000
0001
1000
0000
0001
0100
0000
0001
1000
0000
0010
0000
0100
0000
,
0001
1000
0001
0000
1000
0100
1000
0000
0010
1000
0010
0000
0100
0010
0100
0000
,
0001
0010
0100
1000
0010
0100
0001
1000
,
0001
0010
0000
0010
0100
0000
0100
1000
0000
1000
0001
0000
0100
0000
0010
0000
,
1000
0010
0000
0010
0100
0000
0100
0001
0000
0001
1000
0000
0100
0000
0010
0000
,
0001
1000
0100
1000
0100
0000
0010
0000
0001
1000
0010
1000
0010
0000
0100
0000
,
0001
1000
0100
0000
1000
0100
0010
0000
0001
1000
0001
0000
0100
0001
1000
0000
,
0010
0100
0100
0100
,
0001
0010
0001
0010
1010
0000
0011
0000
,
1001
0000
0000
0101
0000
0010
1000
0000
0000
1100
0000
0000
,
0101
0000
0000
0000
0000
0000
0000
0000
0000
0000
0000
0000
0011
0000
0000
0000
0000
0000
0000
0000
0100
0000
0000
0000
1000
0000
0000
0000
0000
0000
0010
0000
0000
0000
0000
0000
1000
0000
0000
0001
0000
0000
1000
0000
0000
0001
0000
0000
,
0100
0000
0000
0000
;

//---------------dance-single - ----------------
#NOTES:
     dance-single:
     :
     Challenge:
     17:
     0.917405,1.057596,0.714429,0.152519,0.802729,800.000000,711.000000,89.000000,19.000000,20.000000,0.000000,0.917405,1.057596,0.714429,0.152519,0.802729,800.000000,711.000000,89.000000,19.000000,20.000000,0.000000:
0000
0000
0000
0000
,
0000
0000
0000
0000
,
0000
0000
0000
0000
,
0000
0000
0000
0000
,
0000
0000
0000
0000
,
0002
0000
0000
0000
0103
0000
0000
0000
0010
1000
0010
0000
0100
0000
0101
0000
,
0000
0001
0010
1100
0000
1010
0010
0110
,
0000
0000
0000
0000
0200
0000
0000
0000
0000
0000
0000
0000
0301
1000
0001
0010
,
0100
0000
1000
0010
1000
0000
0001
0000
0000
0000
0010
0100
1000
0000
0000
0000
,
1100
1000
1100
1000
1100
0000
0011
0000
,
0101
0001
0101
0001
0101
0000
1010
0000
,
1100
1000
1010
1000
1010
0000
0011
0000
,
0101
0000
0001
0000
0011
0000
0001
0000
0011
0000
0000
0000
1000
0010
1000
0000
,
0101
0001
1001
0000
1100
1000
1001
0000
,
1010
0001
1001
0000
0011
1000
1001
0000
,
0110
0100
0101
0001
2001
0100
0100
3100
,
0010
0001
0100
1000
0110
0000
1001
0000
,
1100
0000
0000
0011
0000
0100
1000
0000
0000
MMMM
0000
0000
,
0101
0000
0000
0000
0000
0000
0000
0000
0000
0000
0000
0000
1010
0000
0000
0000
0000
0000
0000
0000
0100
0000
0000
0000
0001
0000
0000
0000
0000
0000
1000
0000
0000
0000
0000
0000
0010
0000
0000
0100
0000
0000
0010
0000
0000
0100
0000
0000
,
0001
0000
0000
0101
0000
1000
0100
0000
0000
MMMM
0000
0000
,
0001
0100
1000
0010
1001
0100
0010
0001
,
1001
0000
0000
0000
1010
0000
0001
0100
0001
0000
0000
0000
MMMM
0000
0001
0000
,
1000
0000
0000
0000
0011
0000
1000
0100
1000
0000
0000
0000
MMMM
0000
1000
0000
,
0002
0000
0000
0000
1003
0010
1000
0001
0010
0001
1000
0010
1000
0000
0001
0000
,
1000
0100
1000
0001
0100
0000
0001
0000
0010
0000
0001
0010
0001
0010
0100
1000
,
0100
1000
1010
0010
0100
0001
0011
0010
,
0100
1000
0101
0100
0010
1000
1100
0100
,
0010
0000
0010
0000
1001
0000
0001
0000
1000
0010
1000
0000
0101
0000
0001
0000
,
0010
0100
0010
0000
0001
1000
0001
0000
0100
0001
1000
0010
0100
0000
0000
0000
,
1010
0000
0010
0000
0100
0001
0010
0000
0000
0000
0110
0000
0100
1000
0010
0000
,
0000
0000
0110
0000
0100
0001
1000
0000
0000
0000
0110
0000
0100
1000
0001
0000
,
0100
0000
0010
0000
0100
0000
0010
0000
1000
0001
1000
0100
1000
0001
1000
0100
,
1000
0010
0001
0100
0110
0000
1001
0000
,
0100
0000
0001
0100
0000
0010
0100
0000
0001
1000
0000
0001
0100
0001
1000
0000
,
0100
0000
0010
0001
0000
0010
0100
0000
1000
0001
0000
1000
0100
1000
0001
0000
,
1000
0000
0001
0010
0000
0001
1000
0000
0001
0010
0001
1000
0010
0100
0010
0000
,
1000
0000
0010
1000
0000
0010
0100
0000
0001
0000
0100
0010
0000
1000
0010
0000
,
1000
0000
0001
0010
0000
0010
1000
0000
0001
0000
1000
0100
0000
0100
0001
0000
,
1000
0000
0001
0010
0000
0010
1000
0000
0001
0000
1000
0100
0000
0100
0001
0000
,
1000
0000
0001
0100
0000
0100
0010
0000
0010
1000
0000
0001
0010
0000
0100
1000
,
0000
0001
0100
0000
0010
0100
0000
0001
1000
0100
1000
0100
0010
0000
0000
0000
,
1002
0000
0203
0000
1000
0000
0300
0001
,
0000
0000
0000
0000
0100
0000
0000
0001
,
2001
0000
3200
0000
0001
0000
0300
1000
,
0001
0100
0010
0100
0010
0100
0001
0100
0010
0100
0010
0100
0001
0100
0010
0000
,
1000
0000
1000
0000
0001
0000
1000
0010
0100
0010
0100
0000
0001
0000
0010
0001
,
0100
0000
0100
0000
0010
0000
0100
0001
1000
0100
0010
0001
1000
0000
0010
0100
,
0001
0000
0001
0000
1000
0000
0001
0010
0100
0010
0100
0000
1000
0000
0010
1000
,
0100
0000
0100
0000
1000
0100
1000
0000
0001
0010
0001
0000
1000
0010
1000
0010
,
0200
0000
0000
0000
0302
0000
0000
0000
1003
0100
1000
0000
0010
0000
0200
0000
,
0000
0301
1000
0020
0000
1030
0001
1000
,
0200
0000
0010
0000
0310
0001
0100
0001
,
2000
0000
0000
0000
0010
0000
0000
0000
0010
0000
0000
0000
3001
1000
0001
1000
,
0100
0010
0001
0100
1000
0100
0001
0010
,
0100
0010
0100
1000
0010
0001
0010
1000
,
0100
0010
0100
0010
0001
0100
1000
0100
,
0010
0100
0001
1000
0010
0100
0001
1000
0010
0100
0001
1000
0100
0010
0001
0000
,
0011
0001
0101
0001
0101
0000
1100
0000
,
1010
1000
1100
1000
1100
0000
0011
0000
,
0101
0001
0110
0010
1010
0000
1001
0000
,
1100
1000
0110
0010
0011
0000
1001
0000
,
1100
0000
1001
0000
0100
1000
0100
0000
0101
0000
1001
0000
0100
0001
0100
0000
,
1010
0000
1001
0000
0010
1000
0010
0000
0011
0000
1001
0000
0010
0001
0010
0000
,
0100
0000
0010
0000
0001
1000
0001
0000
0010
0100
0010
0100
0010
0100
0010
0100
,
0010
0001
0100
1000
0110
0000
1001
0000
,
1010
0000
0100
0001
0000
0100
0001
0000
0010
0000
0100
1000
0000
0100
1000
0000
,
0001
0000
0100
0001
0000
1000
0001
0000
0010
0000
0100
1000
0000
0001
1000
0000
,
0001
0000
0100
0001
0000
0100
0010
1000
0010
0000
1000
0100
0000
0010
0100
0010
,
0001
0000
1000
0010
0000
1000
0100
0000
1000
0001
0100
0010
0100
0001
1000
0100
,
0010
0000
0100
1000
0000
0001
0100
0000
0010
0000
0100
0001
0000
1000
0100
0000
,
1000
0000
0001
0100
0000
0001
1000
0100
0010
0000
0001
0100
0000
0001
1000
0100
,
1000
0000
0010
0100
0000
0001
1000
0001
0010
0000
0100
0010
0000
0100
1000
0001
,
2000
0000
0000
3020
0000
0000
0032
0000
0000
2003
0000
0000
3100
0010
0100
0001
,
1000
0001
1000
0000
0100
0000
0010
0001
0010
0001
0010
0000
0001
1000
0001
0000
,
0100
0010
0100
0000
0001
0000
0010
0100
1000
0100
1000
0000
0010
1000
0010
0000
,
0100
0001
1000
0001
0010
0000
0010
0000
0100
1000
0001
1000
0010
0000
0010
0000
,
1000
0010
1000
0010
0100
0001
0100
0001
1000
0100
1000
0100
0010
0001
0010
0001
,
1000
0010
0000
0010
0100
0000
0001
0100
0001
0000
1000
0000
0010
0100
0001
1000
,
0001
0010
0000
0010
0100
0000
1000
0100
1000
0000
0001
0000
0010
0100
1000
0001
,
1000
0001
0100
0010
0100
0001
0100
0000
0001
1000
0100
0010
0100
1000
0100
0000
,
1000
0001
0100
0010
1000
0001
0100
0010
1000
0001
0010
0100
1000
0001
0010
0100
,
1000
1020
0100
0130
,
0010
1000
0100
0001
0110
0000
1001
0000
,
0011
0000
0000
0110
0000
0001
0100
0000
0000
MMMM
0000
0000
,
1010
0000
0000
0000
0000
0000
0000
0000
0000
0000
0000
0000
0110
0000
0000
0000
0000
0000
0000
0000
1000
0000
0000
0000
0100
0000
0000
0000
0000
0000
1000
0000
0000
0000
0000
0000
0010
0000
0000
0100
0000
0000
0001
0000
0000
1000
0000
0000
,
0100
0000
0000
0000
;

//---------------dance-single - ----------------
#NOTES:
     dance-single:
     :
     Medium:
     12:
     0.572231,0.682320,0.465583,0.256873,0.164560,499.000000,441.000000,58.000000,32.000000,0.000000,0.000000,0.572231,0.682320,0.465583,0.256873,0.164560,499.000000,441.000000,58.000000,32.000000,0.000000,0.000000:
0000
0000
0000
0000
,
0000
0000
0000
0000
,
0000
0000
0000
0000
,
0000
0000
0000
0000
,
0000
0000
0000
0000
,
2001
0000
3100
0000
0001
0010
0100
2000
,
0000
3001
0100
0002
0000
1003
0100
2000
,
0000
0000
0002
0000
0000
3003
0110
0100
,
0001
1000
0010
0100
0000
0001
0101
0000
,
1000
0010
1000
0010
0200
0000
0300
0000
,
0001
0010
0001
0010
0200
0000
0300
0000
,
1000
0010
0100
0010
2000
0000
3000
0000
,
0001
0010
0100
0010
0002
0000
0003
0000
,
1000
1000
1000
0000
0001
0001
0001
0000
,
0100
0100
0100
0000
0010
0010
0010
0000
,
1000
0010
0100
0010
1000
0010
0100
0010
,
1000
0100
0010
0001
2002
0000
3003
0000
,
0110
0000
0000
0001
0000
0001
0100
0000
0000
0000
0000
0000
,
0110
0000
0000
1000
0000
1000
0100
0000
0000
0000
0000
0000
,
0110
0000
0000
1000
0000
1000
0010
0000
0000
0100
0000
0000
,
0010
0100
0010
0100
0001
0010
0100
0010
,
0110
0011
0100
1010
,
0100
0011
0100
1010
,
0002
0000
0013
0001
1000
0010
1000
0001
,
0010
0100
0001
0100
0000
0010
0100
1000
,
0010
0100
0010
0000
1000
0000
0001
0000
,
0010
0100
0010
0000
0001
0000
1000
0000
,
0010
0010
0110
0000
0001
0000
0010
0000
,
0100
0001
0100
1000
0001
0010
1000
0010
,
0001
0100
0010
0200
0000
0301
0100
0002
,
0000
1003
0100
2000
0000
3100
0010
0200
,
1300
0001
1000
0001
0100
0100
0010
0010
,
1000
0100
0010
0001
2002
0000
3003
0000
,
1000
0000
0000
0010
0000
0000
0100
0000
0000
0010
0000
0000
1000
0000
0100
0000
,
0010
0000
0000
0001
0000
0000
0010
0000
0000
0100
0000
0000
0010
0000
0001
0000
,
0100
0000
0000
0010
0000
0000
1000
0000
0000
0001
0000
0000
0100
0000
0010
0000
,
0100
0000
0000
0001
0000
0000
1000
0000
0000
0010
0000
0000
0100
0000
0001
0000
,
0010
0000
0000
0100
0000
0000
1000
0000
0010
0000
0000
0100
0000
0000
0001
0000
,
0010
0000
0000
0100
0000
0000
1000
0000
0010
0000
0000
0100
0000
0000
0001
0000
,
0010
0000
0000
0010
0000
0000
0001
0000
0000
0001
0000
0000
1001
0000
0000
1001
,
0000
0000
0110
0000
0000
0110
0000
0000
1000
0000
0010
0000
0100
0000
0000
0000
,
2002
3003
0000
0000
,
0000
0000
0000
0000
,
2002
3003
0000
0000
,
0000
0000
0000
0000
,
0010
0100
0010
1000
0100
0010
0001
0000
,
0100
0010
0100
0001
0010
0100
1000
0000
,
0010
0100
0010
1000
0100
0010
0001
0100
,
0010
1000
0010
1000
0001
0100
1000
0000
,
0220
0000
0030
0000
,
0302
0000
2003
0000
,
3200
0000
0000
0000
,
0010
0010
0010
0310
,
0001
0001
0010
0010
,
1000
1000
0100
0100
,
0001
0001
1000
1000
,
0010
0100
0010
0100
0010
0100
1001
0000
,
0011
0010
0100
0010
0001
0000
1001
0000
,
1010
0010
0100
0010
1000
0000
1001
0000
,
0011
0001
0010
0100
1100
0000
1001
0000
,
1010
0010
0100
0001
0101
0000
1001
0000
,
1000
0100
0010
0000
1000
0100
0010
0000
,
0001
0100
0010
0000
0001
0100
0010
0000
,
1000
1000
0001
0001
0100
0100
0010
0010
,
1000
0100
0010
0001
1001
0000
1001
0000
,
1010
0000
0000
0010
0000
0000
1000
0000
1010
0000
0000
0010
0000
0000
1000
0000
,
0001
0000
0000
0010
0000
0000
0100
0000
1000
0000
0000
0010
0000
0000
0100
0000
,
1000
0000
0000
0100
0000
0000
0001
0000
1000
0000
0000
0100
0000
0000
0001
0000
,
0100
0000
0000
1000
0000
0000
0020
0000
0030
0000
0010
0000
0100
0000
0001
0000
,
1001
0000
0000
1000
0000
0000
0001
0000
0101
0000
0000
0100
0000
0000
0001
0000
,
0011
0000
0000
0010
0000
0000
0100
0000
1100
0000
0000
1000
0000
0000
0010
0000
,
0110
0000
0000
0100
0000
0000
0001
0000
1001
0000
0000
1000
0000
0000
0100
0000
,
0010
0000
0000
0001
0000
0000
2000
0000
0000
0000
0000
0000
3010
0000
0100
0000
,
0001
1000
0000
0001
1000
0000
0001
0000
0011
0000
0010
0000
0100
0000
0000
0000
,
1000
0010
0000
1000
0010
0000
0100
0000
0101
0000
0001
0000
0100
0000
0000
0000
,
0010
1000
0020
0000
0130
0001
0200
0000
,
0301
0010
0001
0010
0100
1000
0100
0010
,
0011
0000
0000
1001
0000
0000
0011
0000
0001
0000
0010
0000
0100
0000
0000
0000
,
1100
0000
0000
1001
0000
0000
1100
0000
1000
0000
0010
0000
0100
0000
0000
0000
,
0101
0001
0010
0100
1100
1000
0010
0100
,
0001
0100
0010
1000
0001
0010
0100
1000
,
0002
1000
1000
1000
,
1003
0010
0100
0001
1001
0000
1001
0000
,
0110
0000
0000
0001
0000
0001
1000
0000
0000
1001
0000
0000
,
0110
0000
0000
0000
0000
0000
1000
0000
0000
0000
1000
0000
0001
0000
0000
0100
0000
0000
0010
0000
0000
1000
0000
0000
,
1001
0000
0000
0000
;

//---------------dance-single - ----------------
#NOTES:
     dance-single:
     :
     Easy:
     8:
     0.364668,0.443508,0.248846,0.224764,0.016055,318.000000,287.000000,31.000000,28.000000,0.000000,0.000000,0.364668,0.443508,0.248846,0.224764,0.016055,318.000000,287.000000,31.000000,28.000000,0.000000,0.000000:
// measure 0
0000
0000
0000
0000
,  // measure 1
0000
0000
0000
0000
,  // measure 2
0000
0000
0000
0000
,  // measure 3
0000
0000
0000
0000
,  // measure 4
0000
0000
0000
0000
,  // measure 5
0110
0000
0000
0000
0000
0000
0000
1001
,  // measure 6
0000
0000
0000
0001
0000
0010
0000
0100
,  // measure 7
0000
2000
0000
3010
,  // measure 8
0100
0000
0000
0001
0000
0000
0000
0000
,  // measure 9
1000
0100
0110
0000
,  // measure 10
0001
0010
0110
0000
,  // measure 11
1000
0010
0110
0000
,  // measure 12
0001
0100
0110
0000
,  // measure 13
1000
0010
0100
0001
,  // measure 14
1000
0010
0100
0001
,  // measure 15
0010
0100
0010
0100
,  // measure 16
1000
0010
0100
0101
,  // measure 17
0001
1000
1001
0000
,  // measure 18
1000
0001
1001
0000
,  // measure 19
0010
0100
0110
0000
,  // measure 20
0100
0000
0001
0000
0010
0001
0100
0000
,  // measure 21
0110
1000
0001
0100
,  // measure 22
1000
0100
0001
1000
,  // measure 23
2010
0000
3001
0100
0001
0100
0001
0000
,  // measure 24
0200
0000
0301
1000
,  // measure 25
0001
0010
0100
0010
,  // measure 26
0001
0010
0100
1000
,  // measure 27
0010
0100
0010
0000
1000
0000
0010
0000
,  // measure 28
0200
0001
0320
1000
,  // measure 29
0130
0101
0000
1010
,  // measure 30
0000
0011
0000
1100
,  // measure 31
1000
0100
0010
0010
,  // measure 32
0001
0100
0010
1010
,  // measure 33
0001
0001
0010
0010
,  // measure 34
1000
1000
0010
0010
,  // measure 35
0001
0100
0010
0100
,  // measure 36
0001
0010
0100
0010
,  // measure 37
0002
1003
2000
3001
,  // measure 38
0002
1003
2000
3001
,  // measure 39
0100
0000
0000
0100
0000
0000
0010
0000
0000
0010
0000
0000
1000
0000
0000
1000
,  // measure 40
0000
0000
0001
0000
0000
0001
0000
0000
0010
0000
0000
0000
0110
0000
0000
0000
,  // measure 41
2002
3003
0000
0000
,  // measure 42
0000
0000
0000
0000
,  // measure 43
2002
3003
0000
0000
,  // measure 44
0000
0000
0000
0000
,  // measure 45
1000
0000
1000
0000
0001
0010
0001
0000
,  // measure 46
1000
0000
1000
0000
0001
0100
0001
0000
,  // measure 47
0100
0000
0100
0000
0010
0100
0010
0000
,  // measure 48
1000
0001
0100
0010
,  // measure 49
2000
0000
0000
0000
,  // measure 50
3200
0000
0000
0000
,  // measure 51
0320
0000
0000
0000
,  // measure 52
0032
1000
1000
1003
,  // measure 53
0001
0100
0010
1000
,  // measure 54
1000
0100
0010
0001
,  // measure 55
0100
0010
1000
0001
,  // measure 56
0100
0000
0100
0000
0100
0010
0100
0000
,  // measure 57
0100
0001
0101
0000
,  // measure 58
0010
1000
1010
0000
,  // measure 59
1000
0100
1100
0000
,  // measure 60
0010
0001
0011
0000
,  // measure 61
0002
0010
0010
0010
,  // measure 62
2003
0010
0010
3010
,  // measure 63
0100
0100
0100
0100
,  // measure 64
0001
0010
0100
1100
,  // measure 65
0001
0100
0001
0100
,  // measure 66
0010
1000
0001
0010
,  // measure 67
0100
1000
0001
1000
,  // measure 68
0010
0100
0010
0100
,  // measure 69
0001
0010
0001
0100
,  // measure 70
0010
1000
0100
1000
,  // measure 71
0001
0100
1000
0100
,  // measure 72
0001
0001
1000
1000
,  // measure 73
1200
0310
0001
0001
,  // measure 74
0201
0310
1000
1000
,  // measure 75
0100
0010
0100
0001
,  // measure 76
0100
1000
0001
0100
,  // measure 77
0010
0000
0010
0000
0100
0001
1000
0000
,  // measure 78
0010
0000
0010
0000
0100
0001
1000
0000
,  // measure 79
0002
0013
0200
1300
,  // measure 80
0002
0203
0320
2030
,  // measure 81
3200
0010
0010
0310
,  // measure 82
1000
0010
0100
0101
,  // measure 83
0010
1000
1100
0000
,  // measure 84
0010
0001
0101
0100
,  // measure 85
0110
0000
0000
0000
;

//---------------dance-single - ----------------
#NOTES:
     dance-single:
     :
     Beginner:
     4:
     0.192655,0.341160,0.104355,0.096328,0.000000,168.000000,155.000000,13.000000,12.000000,0.000000,0.000000,0.192655,0.341160,0.104355,0.096328,0.000000,168.000000,155.000000,13.000000,12.000000,0.000000,0.000000:
0000
0000
0000
0000
,
0000
0000
0000
0000
,
0000
0000
0000
0000
,
0000
0000
0000
0000
,
0000
0000
0000
0000
,
0000
0000
0000
0000
,
0000
0000
0000
0000
,
0000
0000
0000
0000
,
0000
0000
0000
0000
,
0001
0001
0001
0000
,
1000
1000
1000
0000
,
0010
0010
0010
0000
,
0100
0100
0100
0000
,
0001
0000
0001
0000
,
1000
0000
1000
0000
,
0020
0000
0000
0000
,
1030
0000
0001
0000
,
1001
0000
0000
0000
,
0110
0000
0000
0000
,
1001
0000
0000
0000
,
0001
0000
0010
0000
,
0200
0000
0310
0000
,
0200
0000
0310
0000
,
0020
0000
0130
0000
,
1000
0000
0000
0000
,
1001
0001
0001
0000
,
1001
1000
1000
0000
,
1001
0001
0001
0000
,
0100
0000
0010
0000
,
1000
0001
0000
0001
,
1000
0001
0000
0001
,
0010
0000
0010
0000
,
0010
0010
0010
0000
,
1001
0001
0001
0000
,
0010
0010
0010
0000
,
1000
1000
1000
0000
,
0100
0100
0100
0000
,
0001
0000
0010
0000
,
1000
0000
0100
0000
,
0002
0000
0000
2003
,
0000
0000
3001
0001
,
1001
0000
0000
0000
,
0000
0000
0000
0000
,
1001
0000
0000
0000
,
0000
0000
0000
0000
,
0001
0000
0100
0000
,
0001
0000
0100
0100
,
0100
0000
0010
0000
,
1000
1000
1000
0000
,
2000
0000
0000
0000
,
3000
0000
0000
0000
,
0002
0000
0000
0000
,
0003
0000
0000
0000
,
0010
0000
0010
0000
,
1000
0000
1000
0000
,
0001
0000
0001
0000
,
0010
0010
0010
0000
,
0100
0100
0100
0000
,
1000
1000
1000
0000
,
0001
1000
0001
0000
,
0100
0010
0100
0000
,
0010
0000
1000
0000
,
0001
0000
0010
0000
,
0200
0000
0000
0000
,
0310
0000
0100
0000
,
0110
0000
0001
0000
,
0010
0000
0100
0000
,
1000
0000
0001
0000
,
0200
0000
0300
0000
,
1000
0000
0010
0000
,
0100
0000
0001
0000
,
1000
0000
0100
0000
,
0020
0000
0030
0000
,
1000
1000
1000
0000
,
0001
0001
0001
0000
,
0100
0000
0010
0000
,
1000
0000
0100
0000
,
0001
0000
0001
0001
,
1000
0000
1000
1000
,
0001
0000
1000
0000
,
0010
0000
0100
0000
,
0020
0000
0000
0000
,
1030
0000
0001
0000
,
1001
0000
0000
0000
,
0110
0000
0000
0000
,
1001
0000
0000
0000
;
