#TITLE:Tribal Trial;
#SUBTITLE:;
#ARTIST:Yooh;
#TITLETRANSLIT:;
#SUBTITLETRANSLIT:;
#ARTISTTRANSLIT:;
#GENRE:;
#CREDIT:;
#BANNER:;
#BACKGROUND:Tribal Trial-bg.png;
#LYRICSPATH:;
#CDTITLE:;
#MUSIC:Tribal Trial.ogg;
#OFFSET:-0.084000;
#SAMPLESTART:88.402000;
#SAMPLELENGTH:10.000000;
#SELECTABLE:YES;
#BPMS:0.000000=165.000000
;
#STOPS:
;
#BGCHANGES:;
#KEYSOUNDS:;
#ATTACKS:;

//---------------dance-single - ----------------
#NOTES:
     dance-single:
     :
     Hard:
     17:
     0.945876,1.077294,0.133929,0.000000,1.025396,791.000000,775.000000,16.000000,0.000000,0.000000,0.000000,0.945876,1.077294,0.133929,0.000000,1.025396,791.000000,775.000000,16.000000,0.000000,0.000000,0.000000:
// measure 0
0000
0000
0000
0000
,  // measure 1
1000
0000
0000
0000
,  // measure 2
0000
0000
0000
0000
,  // measure 3
0000
0000
0000
0000
,  // measure 4
0000
0000
0000
0000
,  // measure 5
0000
0000
0000
0000
,  // measure 6
0010
0000
0100
0001
0100
0000
0010
0000
1000
0001
0010
0000
0010
0000
0100
0000
,  // measure 7
0010
0000
0100
1000
0100
0000
0010
0000
0001
1000
0010
0000
0010
0000
0000
0000
,  // measure 8
0010
0000
1000
0001
1000
0000
0010
0000
1000
0100
0010
0000
0010
0000
0100
0000
,  // measure 9
1000
0100
1000
0001
0100
0001
0010
0000
0001
1000
0010
0000
0100
0000
0001
0000
,  // measure 10
0010
0000
0001
0010
0100
0000
0010
0000
0100
1000
0001
0000
0001
0000
0000
0000
,  // measure 11
0100
0000
0001
0100
0010
0000
0100
0000
0010
1000
0001
0000
0100
0000
0000
0000
,  // measure 12
0010
0000
1000
0010
0100
0000
0010
0000
0100
0001
1000
0000
1000
0000
0100
0000
,  // measure 13
0010
0001
0010
0100
1000
0100
0010
0000
0001
0100
0001
0000
0100
0000
0000
0000
,  // measure 14
1001
0000
1000
0100
0010
0000
0100
0000
0010
0001
1000
0000
1000
0000
0000
0000
,  // measure 15
1001
0000
0001
0100
0010
0000
0100
0000
0010
1000
0001
0000
0010
0000
0000
0000
,  // measure 16
1001
0000
1000
0100
0010
0000
0001
0000
1001
0000
0001
0100
0010
0000
1000
0000
,  // measure 17
0001
1000
0010
0100
0001
0100
0010
0000
1000
0001
0010
0100
1000
0100
0010
0000
,  // measure 18
0001
0010
0100
0010
0100
1000
0001
0100
0001
0010
0100
0010
0100
1000
0001
0010
,  // measure 19
0001
0100
0010
0100
0010
1000
0001
0010
0001
0100
0010
0100
0010
1000
0001
0010
,  // measure 20
0001
0100
0010
0100
0010
1000
0010
1000
0001
1000
0001
1000
0100
1000
0100
0010
,  // measure 21
0100
0100
0100
0100
,  // measure 22
0110
0000
0010
0001
0010
0001
0010
0000
0001
0000
0010
0100
0100
0000
1000
0100
,  // measure 23
0100
0000
1000
0001
1000
0001
1000
0000
0100
0000
0010
0001
0001
0000
1000
0001
,  // measure 24
0001
0000
1000
0010
1000
0010
1000
0000
0001
0000
0100
0010
0010
0000
0100
0000
,  // measure 25
0001
0100
0010
0000
0001
0100
0010
0000
0001
0100
0010
1000
0010
1000
0100
0000
,  // measure 26
0010
0000
0100
1000
0100
1000
0100
0000
1000
0000
0100
0010
0010
0000
0001
0010
,  // measure 27
0010
0000
0001
1000
0001
1000
0001
0000
0010
0000
0001
1000
1000
0000
0100
1000
,  // measure 28
1000
0000
0001
0100
0001
0100
0001
0000
1000
0000
0010
0100
0100
0000
0100
0000
,  // measure 29
0010
0000
1000
0001
1000
0000
0010
0000
0100
0001
1000
0000
1000
0001
1000
0001
,  // measure 30
1000
0000
0100
0010
0100
0000
0010
0001
0010
0000
0100
0001
0100
0000
0010
0001
,  // measure 31
0010
0000
0000
0000
0000
0000
0100
0000
0000
0010
0000
0000
0100
0000
0000
0010
0000
0000
0100
0000
0000
0010
0000
0000
0100
0000
0000
0000
0000
0000
1000
0000
0000
0010
0000
0000
1000
0000
0000
0000
0000
0000
0010
0000
0100
0000
0001
0000
,  // measure 32
1000
0000
0001
0100
0001
0000
0100
0010
0100
0000
0010
1000
0010
0000
0100
1000
,  // measure 33
0100
0010
1000
0000
0010
0100
1000
0000
0100
0010
1000
0001
1000
0100
0010
0001
,  // measure 34
0010
0000
0100
0010
0100
0010
0100
0010
0100
0000
1000
0010
1000
0000
0001
0100
,  // measure 35
0001
0000
0010
0100
0010
0100
0010
0100
0010
0000
0001
1000
0001
1000
0001
0000
,  // measure 36
1001
0000
0001
0010
0001
0000
1000
0000
1001
0000
1000
0010
1000
0000
0001
0000
,  // measure 37
1010
1000
0011
0001
1000
0100
0010
0001
,  // measure 38
1001
0000
0000
0000
,  // measure 39
0000
0000
0000
0000
,  // measure 40
1000
0010
1000
0001
0010
0001
1000
0010
,  // measure 41
0100
0001
0010
0100
1000
0001
0100
0100
,  // measure 42
0001
0010
0001
1000
0010
1000
0001
0010
,  // measure 43
0100
1000
0010
0100
0001
1000
0010
0010
,  // measure 44
1000
0100
1000
0001
0100
0001
1000
0100
,  // measure 45
0010
0001
1000
0100
0000
0010
0001
1000
0100
1000
0001
0100
0010
0000
0000
0000
,  // measure 46
1001
0000
0000
0000
0010
1000
0001
0100
0010
1000
0001
0100
0010
1000
0001
0100
,  // measure 47
0010
1000
0001
0000
0010
1000
0001
0000
0010
0100
0001
0000
0010
0100
0001
0000
,  // measure 48
0001
0010
0000
0010
1000
0000
1000
0000
0001
0010
0000
0010
1000
0000
1000
0000
,  // measure 49
0001
0000
0001
0010
0100
0000
1000
0010
0100
0010
1000
0010
0100
0001
1000
0001
,  // measure 50
1000
0000
0000
0000
0000
0000
0100
0010
0001
1000
0000
0000
0100
0010
0001
1000
0000
0000
0100
0010
0001
1000
0000
0000
,  // measure 51
0001
1000
0100
0010
0100
1000
0001
1000
0100
1000
0010
0100
0001
0100
0010
1000
,  // measure 52
0001
0010
0100
0010
0100
1000
0001
0000
1000
0010
0100
0010
0100
0001
1000
0000
,  // measure 53
0001
0000
0000
0000
0010
0000
0000
0000
0100
0000
0000
0000
1000
0000
0000
0000
0100
0000
0000
0000
0010
0000
0000
0000
0001
0000
0000
0000
0000
0000
0000
0000
0000
0001
0000
0000
0100
0000
0000
0010
0000
0000
0100
0000
0000
0000
0000
0000
,  // measure 54
0001
0001
0010
0010
0100
0100
1000
1000
,  // measure 55
0100
0010
0100
0000
0010
0001
0010
0000
0001
1000
0001
0000
0010
0100
1000
0000
,  // measure 56
0001
0001
0100
0100
0010
0010
1000
1000
,  // measure 57
0010
0100
0010
0000
0100
0001
0100
0000
0001
1000
0001
0000
0100
0010
1000
0000
,  // measure 58
0001
0100
0001
0100
0010
0100
0010
0100
0010
1000
0010
1000
0001
1000
0001
1000
,  // measure 59
0001
0010
0100
1000
0001
0100
0010
1000
0100
0010
0001
0100
0010
1000
0100
0010
,  // measure 60
0001
0001
1000
1000
0001
0001
1000
1000
,  // measure 61
0010
0000
0010
0010
0100
0000
0010
0010
1000
0100
0010
0001
0100
0000
0000
0000
,  // measure 62
1001
0000
0000
0001
0100
0000
1000
0000
0001
0000
0010
0000
0010
0000
1000
0000
,  // measure 63
0001
0000
0000
0100
1000
0000
0001
0000
0010
0000
1000
0100
0001
0000
1000
0010
,  // measure 64
0001
0000
0000
0100
1000
0000
0001
0000
0010
0000
1000
0000
1000
0000
0001
0000
,  // measure 65
0100
0000
1000
0100
0010
0000
1000
0100
0010
0000
1000
0010
0001
0000
1000
0100
,  // measure 66
0001
0000
0000
0001
0100
0000
1000
0000
0001
0000
0010
0000
0010
0000
1000
0000
,  // measure 67
0001
0000
0000
0100
1000
0000
0001
0000
0100
1000
0000
0001
0010
0000
1000
0100
,  // measure 68
0001
0000
0000
1000
0010
0000
0001
0000
1000
0000
0100
0000
0100
0000
0001
0000
,  // measure 69
0100
0000
0000
0000
0000
0000
1000
0000
0000
0001
0000
0000
1000
0000
0000
0001
0000
0000
1000
0000
0000
0001
0000
0000
1000
0000
0000
0000
0000
0000
0010
0000
1000
0000
0001
0000
0100
0000
0000
0000
0000
0000
0001
0000
0000
0000
0000
0000
,  // measure 70
0010
0000
0000
0010
0100
0000
1000
0000
0001
0000
0010
0000
1000
0000
0001
0000
,  // measure 71
0100
0000
0000
1000
0010
0000
0100
0000
0001
0000
1000
0010
0001
0010
1000
0010
,  // measure 72
0001
0000
0000
0010
1000
0000
0001
0000
0010
0000
1000
0000
0001
0000
0100
0000
,  // measure 73
1000
0000
0001
0100
1000
0000
0001
0010
1000
0000
0001
0010
1000
0000
0001
0100
,  // measure 74
1000
0010
1000
0010
1000
0010
1000
0010
0100
0010
0100
0010
0100
0000
0000
0000
,  // measure 75
0001
0010
0001
0010
0001
0010
0001
0010
0100
0010
0100
0010
0100
0000
0000
0000
,  // measure 76
1001
0000
1000
0100
0010
0000
0001
0000
1001
0000
0001
0100
0010
0000
1000
0000
,  // measure 77
1001
0000
0001
0010
0000
0001
0010
0000
0100
0000
1000
0000
0010
0000
0100
0000
,  // measure 78
1001
0000
0000
0000
;

//---------------dance-single - ----------------
#NOTES:
     dance-single:
     :
     Medium:
     13:
     0.651710,0.652905,0.602682,0.000000,0.129744,545.000000,473.000000,72.000000,0.000000,0.000000,0.000000,0.651710,0.652905,0.602682,0.000000,0.129744,545.000000,473.000000,72.000000,0.000000,0.000000,0.000000:
0000
0000
0000
0000
,
0000
0000
0000
0000
,
0000
0000
0000
0000
,
0000
0000
0000
0000
,
0000
0000
0000
0000
,
0000
0000
0000
0000
,
0001
0100
0100
0001
0010
0100
1000
0000
,
1000
0100
0100
1000
0010
0100
0001
0000
,
0100
0010
0010
1000
0001
0010
0100
0000
,
0010
0000
0000
0010
0000
0000
0010
0000
0001
0000
1000
0000
0001
0000
0000
0000
,
1000
0010
0100
1000
0010
0100
0001
0000
,
0001
0010
0100
0001
0010
0100
1000
0000
,
0001
0100
0010
0001
0100
0010
1000
0000
,
1000
0000
0000
0100
0000
0000
0010
0000
0001
0000
1000
0000
0001
0000
0000
0000
,
1000
0001
0100
1000
0001
0100
0010
0000
,
0001
1000
0100
0001
1000
0100
0010
0000
,
0001
0100
0010
0000
1000
0100
0010
0000
,
0001
0000
0000
0001
0000
0000
0010
0000
1000
0000
0000
1000
0000
0000
0010
0000
,
0011
0011
1100
1100
,
1010
0000
1010
0000
0101
0000
0101
0001
,
1000
0001
1000
0001
0100
0010
1000
0100
,
0010
0010
0010
0010
,
0110
0000
1100
0000
0001
0010
0001
0010
,
1100
0000
0110
0000
1000
0100
1000
0100
,
0011
0000
1001
0000
0010
1000
0010
1000
,
0110
0000
0110
0000
0001
0010
1000
0010
,
0110
0000
1100
0000
0001
0100
0001
0100
,
1010
0000
0110
0000
1000
0010
1000
0010
,
0101
0000
1001
0000
0100
1000
0100
1000
,
0010
0001
0010
1000
0001
0100
0100
0000
,
1001
0000
1100
0100
0001
1000
0100
0010
,
0110
0000
0101
0100
1000
0001
0100
0010
,
0110
0000
1001
1000
0100
0001
0010
0100
,
0110
0000
0110
0000
1000
0010
0001
0010
,
0110
0000
1010
0010
0001
1000
0010
0100
,
0110
0000
0011
0010
1000
0001
0010
0100
,
0110
0000
1000
0010
1010
0000
0001
0010
,
0011
0001
1000
1000
0010
0100
0001
0010
,
0110
0000
0000
0000
,
0000
0000
0000
0000
,
1000
0100
0010
0000
0001
0100
0000
0100
,
0010
0000
1000
0100
0000
1000
0010
0100
,
0001
0010
0100
0000
1000
0010
0000
0010
,
0100
0000
0001
0010
0000
0001
0100
0010
,
1000
0100
0010
0000
0001
0100
0000
0100
,
0010
0000
0000
0010
0000
0000
0010
0000
1000
0000
0001
0000
1000
0000
0000
0000
,
1001
0000
0000
0000
0100
0000
0000
0010
0100
0000
0000
0010
0100
0000
0000
0010
,
1000
0100
0001
0100
1000
0100
0001
0100
,
1000
0010
0000
0100
0001
0000
0000
0000
1000
0010
0000
0100
0001
0000
0000
0001
,
1000
0000
0000
0100
0010
0000
0000
0100
0010
0000
0001
0000
0100
0000
0010
0000
,
0110
1010
0101
1010
,
0101
0100
0100
1000
0100
0100
0100
0001
,
0010
0100
1100
0000
0010
0100
0101
0000
,
0001
0000
0000
0000
0100
0000
0000
0000
0001
0000
0000
0000
1000
0000
0000
0000
0010
0000
0000
0000
0100
0000
0000
0000
0001
0000
0000
0000
0000
0000
0000
0000
0000
0001
0000
0000
0010
0000
0000
0000
0000
0000
0100
0000
0000
0000
0000
0000
,
1000
1000
0100
0100
0010
0010
0001
0001
,
0100
0010
0100
0010
1000
0001
0010
0100
,
1000
1000
0010
0010
0100
0100
0001
0001
,
0010
0100
0010
0100
1000
0001
0100
0010
,
1000
0100
0010
0100
0010
0001
1000
0010
,
0110
0100
0001
1000
1001
0001
0010
0100
,
1000
1000
0001
0001
,
0010
0010
0100
0100
1000
0010
0110
0000
,
1001
0000
0000
0001
0100
0000
0010
0000
0001
0000
0100
0000
0010
0000
1000
0000
,
0100
0000
0000
1000
0100
0000
0010
0000
1000
0000
0100
0000
0100
0000
0010
0000
,
0001
0000
0000
1000
0010
0000
0100
0000
1000
0000
0010
0000
0100
0000
0001
0000
,
0011
1010
1100
0101
,
0110
0000
0000
1000
0010
0000
0001
0000
1000
0000
0010
0000
0100
0000
0010
0000
,
0110
0000
0000
0001
0010
0000
1000
0000
0001
0000
0000
0010
0100
0000
0000
0100
,
1000
0000
0000
0001
0100
0000
1000
0000
0001
0000
0100
0000
0100
0000
0010
0000
,
1000
0000
0000
0000
0000
0110
0110
0000
,
1001
0000
0000
0001
0010
0000
1000
0000
0001
0000
0100
0000
1000
0000
0001
0000
,
1001
0000
0000
1000
0010
0000
0001
0000
1000
0000
0100
0000
0010
0000
0100
0000
,
0101
0000
0000
1000
0100
0000
0001
0000
1000
0000
0010
0000
0001
0000
0100
0000
,
1100
0000
0101
0000
0011
0000
1010
0010
,
1000
0100
1000
0100
0010
0100
1001
0000
,
0001
0100
0001
0100
0010
0100
0110
0000
,
1001
1000
1100
0000
1001
0001
0101
0000
,
0001
0010
0001
0010
0100
1000
0010
0000
,
1001
0000
0000
0000
;

//---------------dance-single - ----------------
#NOTES:
     dance-single:
     :
     Easy:
     8:
     0.359935,0.457034,0.209265,0.000000,0.000000,301.000000,276.000000,25.000000,0.000000,0.000000,0.000000,0.359935,0.457034,0.209265,0.000000,0.000000,301.000000,276.000000,25.000000,0.000000,0.000000,0.000000:
0000
0000
0000
0000
,
0000
0000
0000
0000
,
0000
0000
0000
0000
,
0000
0000
0000
0000
,
0000
0000
0000
0000
,
0000
0000
0000
0000
,
0001
0100
0001
0001
,
1000
0100
1000
0000
,
1000
0010
1000
1000
,
0001
0001
0010
0001
,
0010
0100
1000
0000
,
0010
0100
0001
0000
,
0010
0100
1000
1000
,
0010
0100
0001
0000
,
1000
0010
0100
0000
,
0001
0010
0100
0000
,
1000
1000
0010
0010
,
0100
0001
1000
0010
,
0110
0000
0110
0000
,
1001
0000
1001
0000
,
0001
0001
1000
1000
,
0100
0100
0100
0100
,
0110
0010
0100
0010
,
0100
0000
0100
0000
0010
0000
0100
0100
,
0100
1000
0001
1000
,
0001
0000
0001
0000
1000
1000
1000
0000
,
0010
0100
0010
0100
,
0100
0000
0010
0000
0100
0000
0010
0010
,
0010
1000
0001
1000
,
1001
0000
0000
0000
,
1001
0000
0001
0000
0100
0100
0100
0000
,
1000
0000
1000
0000
0100
0100
0100
0000
,
0001
0000
0001
0000
0010
0010
0010
0000
,
1000
0000
1000
0000
0001
0001
0001
0000
,
1001
0000
1000
0000
0100
0010
0100
0000
,
1000
0000
0001
0000
0100
0010
0100
0000
,
0110
0000
1001
0000
,
0100
0100
0010
0010
,
1001
0000
0000
0000
,
0000
0000
0000
0000
,
1000
0100
0010
1000
,
0100
0010
0001
0000
,
0001
0100
0010
0001
,
0100
0010
1000
0000
,
0100
0010
0001
0100
,
0010
0000
0000
0000
,
1001
0100
0100
0100
,
1000
0001
1000
0001
,
0100
0000
0010
0010
0100
0000
0010
0010
,
0100
0001
1000
0100
,
0110
1001
1001
1001
,
0010
0010
0100
1000
,
0001
0100
1000
0100
,
0001
0001
0001
0000
,
1001
1000
0100
0100
,
0010
0010
0001
0001
,
0100
0100
1000
1000
,
0010
0010
0001
0001
,
0100
0010
0100
0010
,
1000
1000
0001
0001
,
0100
0000
0000
0000
,
0010
0000
0010
0000
1000
0001
1000
0000
,
1001
0000
0001
0000
0010
0001
0010
0000
,
0100
0000
1000
0000
0010
1000
0010
0000
,
0100
0000
0001
0000
0010
0001
0010
0000
,
0100
0100
1000
0001
,
1001
0000
1000
0000
0001
0100
0001
0000
,
0010
0000
0100
0000
1000
0100
1000
0000
,
0010
0000
0100
0000
0001
0100
0001
0000
,
1001
0000
0000
0110
,
1001
0000
1000
0000
0100
0010
0001
0000
,
1000
0000
0001
0000
0100
0010
1000
0000
,
0001
0000
1000
0000
0010
0100
0001
0000
,
0010
0010
0100
1000
,
1001
0000
0001
0000
0100
0001
0000
0000
,
1001
0000
1000
0000
0100
1000
0000
0000
,
0001
0001
1000
1000
,
0010
0100
0010
0000
,
1001
0000
0000
0000
;

//---------------dance-single - ----------------
#NOTES:
     dance-single:
     :
     Beginner:
     4:
     0.185349,0.326453,0.276229,0.000000,0.000000,155.000000,122.000000,33.000000,0.000000,0.000000,0.000000,0.185349,0.326453,0.276229,0.000000,0.000000,155.000000,122.000000,33.000000,0.000000,0.000000,0.000000:
0000
0000
0000
0000
,
0000
0000
0000
0000
,
0000
0000
0000
0000
,
0000
0000
0000
0000
,
0000
0000
0000
0000
,
0000
0000
0000
0000
,
0001
0000
0000
0000
,
0001
0000
0000
0000
,
1000
0000
0000
0000
,
1000
0000
0000
0000
,
1001
0000
0000
0000
,
0100
0000
0000
0000
,
1001
0000
0000
0000
,
0100
0000
0000
0000
,
1000
0000
0000
0000
,
0001
0000
0000
0000
,
1000
0000
0001
0000
,
1000
0000
1000
0000
,
0010
0000
0010
0000
,
0100
0000
0100
0000
,
0001
0000
1000
0000
,
0100
0000
0000
0000
,
0110
0000
0000
0000
,
0110
0000
0000
0000
,
1001
0000
0000
0000
,
1001
0000
0000
0000
,
1000
0000
0001
0000
,
1000
0000
0001
0000
,
0010
0000
0100
0000
,
0010
0000
0000
0000
,
0110
0000
0010
0000
,
0110
0000
0100
0000
,
1001
0000
1000
0000
,
1001
0000
0000
0000
,
0001
0000
1000
0000
,
0001
0000
1000
0000
,
0010
0000
0010
0000
,
0100
0000
0000
0000
,
1001
0000
0000
0000
,
0000
0000
0000
0000
,
1000
0000
0010
0000
,
1000
1000
1000
0000
,
0001
0000
0010
0000
,
0001
0001
0001
0000
,
1000
0000
0100
0000
,
0010
0000
0000
0000
,
1001
1000
0001
1000
,
0001
0000
1000
0000
,
0001
0000
0001
0000
,
1000
0000
1000
0000
,
0110
0010
0010
0010
,
0100
0000
0010
0000
,
0100
0000
0100
0000
,
0010
0000
0010
0000
,
0110
0000
0000
0000
,
1001
0000
0000
0000
,
0110
0000
0000
0000
,
1001
0000
0000
0000
,
0001
0000
0010
0000
,
0100
0000
1000
0000
,
0001
0000
0000
0000
,
0001
0000
0001
1000
,
1001
0000
0000
0000
,
1001
0000
0000
0000
,
0110
0000
0000
0000
,
0110
0000
0000
0000
,
1001
0000
0001
0000
,
1001
0000
1000
0000
,
0110
0000
0010
0000
,
0110
0000
0000
0000
,
1001
0001
1000
0000
,
1001
1000
0001
0000
,
0110
0010
0100
0000
,
0110
0000
0110
0000
,
1001
0000
0000
0000
,
1001
0000
0000
0000
,
0001
0000
0001
0000
,
1000
1000
1000
0000
,
1001
0000
0000
0000
;
