#TITLE:Stylus;
#SUBTITLE:;
#ARTIST:BEMANI Sound Team "HuΣeR";
#TITLETRANSLIT:;
#SUBTITLETRANSLIT:;
#ARTISTTRANSLIT:;
#GENRE:STYLISH ELECTRO;
#CREDIT:;
#BANNER:;
#BACKGROUND:Stylus-bg.png;
#LYRICSPATH:;
#CDTITLE:;
#MUSIC:Stylus.ogg;
#OFFSET:0.412000;
#SAMPLESTART:50.497002;
#SAMPLELENGTH:10.000000;
#SELECTABLE:YES;
#BPMS:0.000000=165.000000
;
#STOPS:
;
#BGCHANGES:;
#KEYSOUNDS:;
#ATTACKS:;

//---------------dance-single - ----------------
#NOTES:
     dance-single:
     :
     Hard:
     16:
     0.871921,1.066810,0.405172,0.370690,0.939655,708.000000,661.000000,47.000000,43.000000,0.000000,0.000000,0.871921,1.066810,0.405172,0.370690,0.939655,708.000000,661.000000,47.000000,43.000000,0.000000,0.000000:
// measure 0
0000
0000
0000
0000
,  // measure 1
0000
0000
0000
0000
,  // measure 2
0000
0000
0000
0000
,  // measure 3
0210
0000
0001
0000
1300
0000
1000
0010
,  // measure 4
0100
0010
1000
0000
1000
0100
0001
0100
,  // measure 5
2000
0000
3010
0100
0010
0100
0002
0000
,  // measure 6
0013
0000
0010
0000
1000
0001
1001
0000
,  // measure 7
0210
0000
1000
0000
0301
0000
0001
0010
,  // measure 8
0100
0010
0001
0000
0001
0100
1000
0100
,  // measure 9
0002
0000
0013
0100
0010
0100
0002
0000
,  // measure 10
0203
0000
0000
0000
2300
0000
0000
0000
3010
0100
0010
0000
0200
0000
0300
0000
,  // measure 11
0101
0000
1010
0000
1002
0000
0013
0100
,  // measure 12
1000
0100
0010
0000
0010
0001
0100
0001
,  // measure 13
0020
0000
1030
0010
0001
0010
2000
0000
,  // measure 14
3020
0000
0000
0000
0032
0000
0000
0000
0103
0010
1000
0000
1001
0000
0000
0000
,  // measure 15
1100
0000
0011
0000
2001
0000
3010
0100
,  // measure 16
0001
0100
0010
0000
0010
1000
0100
1000
,  // measure 17
0020
0000
0031
0010
1000
0010
0002
0000
,  // measure 18
0023
0000
0000
0000
2030
0000
0000
0000
3001
1000
0100
0000
1000
0100
0010
0000
,  // measure 19
0011
0000
0000
1100
0000
0000
0011
0000
0000
0000
0011
0000
0000
1001
0000
0000
,  // measure 20
0001
0100
0010
1000
0001
1000
0001
0100
0010
1000
0001
0010
0100
1000
0100
1000
,  // measure 21
0100
0000
0000
0011
0000
0000
1100
0000
0000
0000
1100
0000
0000
1001
0000
0000
,  // measure 22
1000
0010
0100
0001
1000
0001
1000
0010
0100
0001
1000
0100
0010
0001
1000
0010
,  // measure 23
0100
0001
0100
0001
1000
0010
1000
0010
0100
0001
0100
0001
1000
0001
1000
0001
,  // measure 24
0010
0001
0010
0001
1000
0100
1000
0100
0010
0001
0010
0001
1000
0001
1000
0001
,  // measure 25
2000
3020
0230
0302
,  // measure 26
0013
0000
0000
0000
0010
0000
0000
0000
0001
0100
0001
0100
0010
0000
0010
1000
,  // measure 27
0002
0000
0000
0000
1003
0100
0000
0100
1000
0000
0001
0000
1001
0000
0000
0000
,  // measure 28
1000
0000
0100
0000
0010
0000
0100
0000
1000
0001
1000
0000
0020
0000
0030
0000
,  // measure 29
2001
0000
0000
0000
3001
0010
0000
0010
0001
0000
1000
0000
1001
0000
0000
0000
,  // measure 30
0001
0000
0100
0000
0010
0000
1000
0010
1000
0010
1000
0000
0001
0010
0001
0000
,  // measure 31
1002
0000
0000
0000
1003
0010
0000
0010
1000
0000
0001
0000
0101
0000
0000
0000
,  // measure 32
1000
0010
0002
0000
0023
0000
1030
0000
,  // measure 33
1010
0000
0000
0010
0100
0000
0001
0000
0100
0000
0001
0000
0010
0000
0000
0000
,  // measure 34
0011
0000
0000
0010
0100
0000
0000
0010
0100
1000
0010
0000
0110
0000
0000
0000
,  // measure 35
2001
0000
0000
0000
3001
0100
0000
0100
0001
0000
1000
0000
1010
0000
0000
0000
,  // measure 36
0001
0000
0010
0000
0100
0000
0010
0000
0001
0010
0001
0000
0010
0100
1000
0000
,  // measure 37
1002
0000
0000
0000
0013
0100
0000
0100
0010
0000
0001
0000
1001
0000
0000
0000
,  // measure 38
1000
0000
0010
0000
0100
0000
0001
0000
0010
0100
0010
0100
1000
0010
0100
0001
,  // measure 39
1000
0000
0100
0000
0010
0001
0010
0001
0010
0000
0100
0000
1000
0010
1000
0010
,  // measure 40
1000
0000
0001
0000
0010
0100
0010
0100
0010
0000
0001
0000
0200
0000
0000
0000
,  // measure 41
0301
0000
0001
1000
0100
1000
0010
0000
,  // measure 42
0011
0000
0000
0000
1010
0000
0000
0000
1001
0000
0000
0000
0001
1000
0001
1000
,  // measure 43
0010
0000
0100
0001
0000
1000
0010
0000
0100
0001
0000
1000
0001
0010
0100
0010
,  // measure 44
0100
0000
0010
0001
0000
1000
0100
0000
0010
0001
0000
1000
0010
0100
0010
0100
,  // measure 45
0001
0000
1000
0100
0000
1000
0010
0100
0001
0000
1000
0100
0000
1000
0010
0100
,  // measure 46
0001
0000
0010
0001
0000
1000
0010
0000
0010
0100
0000
0010
1000
0001
1000
0001
,  // measure 47
0010
0000
0100
1000
0000
0001
0010
0000
0100
1000
0000
0001
1000
0010
0100
0010
,  // measure 48
0100
0000
0010
1000
0000
0001
0100
0000
0010
1000
0000
0001
0010
0100
0010
0100
,  // measure 49
1000
0000
1001
0000
0010
0100
0010
0100
0010
0000
1001
0000
0100
0000
0010
0000
,  // measure 50
0201
0000
0000
0000
1000
0000
0000
0000
0001
0000
0000
0000
0310
1000
0010
1000
,  // measure 51
0100
0000
0100
0010
0000
0010
0001
0000
0001
1000
0000
1000
0001
0100
0001
0100
,  // measure 52
0010
0000
0010
1000
0000
1000
0100
0000
0100
0010
0000
0010
0001
1000
0001
1000
,  // measure 53
0010
0000
0100
0001
1000
0001
1000
0001
0010
0000
0001
1000
0010
1000
0010
1000
,  // measure 54
0100
0000
0100
1000
0000
1000
0010
0000
0100
0001
0000
0001
0010
0001
0010
0001
,  // measure 55
0100
0000
0100
0010
0000
0010
1000
0000
1000
0001
0000
0001
1000
0100
1000
0100
,  // measure 56
0010
0000
0010
0001
0000
0001
0100
0000
0100
0010
0000
0010
1000
0001
1000
0001
,  // measure 57
0010
0000
0001
0100
0000
0010
1000
0100
0010
0000
0001
0100
0000
0010
1000
0100
,  // measure 58
0010
0000
0001
0100
0000
0100
0010
0000
2000
0000
0000
0000
3001
0000
0000
0000
,  // measure 59
1002
0000
0000
0000
0013
0100
0000
0100
0010
0000
0001
0000
1000
0000
0010
0000
,  // measure 60
0001
0000
0010
0000
1000
0010
1000
0000
0001
0010
0001
0000
1000
0010
0100
0000
,  // measure 61
0001
0100
0010
0000
1000
0100
0010
0000
0001
0010
0100
0000
1000
0010
0100
0000
,  // measure 62
0001
0010
0100
0000
1000
0010
0100
0000
0001
1000
0100
0010
0100
0010
0001
0100
,  // measure 63
0001
0000
1000
0000
0100
0010
0000
0010
0100
0000
1000
0000
0001
0000
0100
0000
,  // measure 64
1000
0000
0100
0000
0001
1000
0001
0000
0010
0000
0100
0000
1000
0000
0100
0000
,  // measure 65
0020
0000
1030
0010
0001
0010
2000
0000
,  // measure 66
3020
0000
0000
0000
0032
0000
0000
0000
1003
0001
0100
0000
0001
0100
0010
0000
,  // measure 67
1010
0000
0000
0101
0000
0000
1010
0000
0000
0000
1010
0000
0000
1001
0000
0000
,  // measure 68
1000
0100
0010
0001
0100
0010
0100
0010
1000
0100
0010
0001
0010
0100
1000
0001
,  // measure 69
0100
0000
0000
1010
0000
0000
0101
0000
0000
0000
0101
0000
0000
1001
0000
0000
,  // measure 70
0001
0010
0100
1000
0010
0100
0010
0100
0001
0010
0100
1000
0100
0010
0001
0100
,  // measure 71
0010
1000
0010
1000
0001
0100
0001
0100
0010
1000
0010
1000
0001
0100
0010
1000
,  // measure 72
0100
1000
0100
1000
0001
0010
0001
0010
0100
1000
0100
1000
0001
0100
0010
1000
,  // measure 73
0200
0320
0032
2003
,  // measure 74
3010
0000
0000
0000
0010
0000
0000
0000
1000
0100
1000
0100
0010
0000
0010
0001
,  // measure 75
1000
0000
0000
0000
;
