#TITLE:Stepper;
#SUBTITLE:;
#ARTIST:PSYQUI;
#TITLETRANSLIT:;
#SUBTITLETRANSLIT:;
#ARTISTTRANSLIT:;
#GENRE:;
#CREDIT:;
#BANNER:;
#BACKGROUND:Stepper-bg.png;
#LYRICSPATH:;
#CDTITLE:;
#MUSIC:Stepper.ogg;
#OFFSET:-0.059000;
#SAMPLESTART:61.933998;
#SAMPLELENGTH:10.000000;
#SELECTABLE:YES;
#BPMS:0.000000=128.000000
;
#STOPS:
;
#BGCHANGES:;
#KEYSOUNDS:;
#ATTACKS:;

//---------------dance-single - ----------------
#NOTES:
     dance-single:
     :
     Hard:
     11:
     0.438232,0.470132,0.101030,0.486779,0.022961,334.000000,323.000000,11.000000,53.000000,0.000000,0.000000,0.438232,0.470132,0.101030,0.486779,0.022961,334.000000,323.000000,11.000000,53.000000,0.000000,0.000000:
0000
0000
0000
0000
,
0000
0000
0000
0000
,
0000
0000
0000
0000
,
0000
0000
0000
0000
,
0000
0000
0000
0000
,
0001
1000
0001
1000
0001
0010
1000
0010
,
0001
1000
0010
0001
0010
1000
0001
1000
,
0100
0010
0100
0010
0100
0010
0100
0100
,
0200
0000
0000
0000
0000
0000
0000
0000
1300
0000
1000
0000
0001
1000
0001
0000
,
2001
0000
3001
0010
1000
0010
0001
0010
,
1000
0001
1000
0010
0001
0100
0002
0000
,
0023
0000
0230
0000
1300
0010
0200
0000
,
0302
0000
0013
0100
0001
0100
1000
0001
,
1002
0000
1003
0010
0001
0010
1000
0010
,
0001
1000
0001
0010
1000
0100
2000
0000
,
3020
0000
0230
0000
0301
0010
0200
0000
,
2300
0000
3001
0100
0010
1000
1100
0000
,
0021
0000
1030
0010
0001
0010
1000
0010
,
0001
0100
0001
0010
1000
0001
2000
0000
,
3020
0000
0230
0000
1300
0001
0200
0000
,
0320
0000
0031
0010
0100
0001
1000
0100
,
1200
0000
0301
0100
1000
0100
0001
0100
,
1000
0010
1000
0100
0001
1000
0002
0000
,
0203
0000
0320
0000
0031
1000
0020
0000
,
0230
0000
1300
0100
0010
0000
0010
0100
,
0102
0000
0010
0000
,
2003
3002
2003
3001
,
2100
0000
0020
0030
,
3002
2003
3002
1003
,
0001
0100
1000
0000
0001
0010
1000
0000
,
1000
0100
0001
0000
1000
0010
0001
0000
,
0001
0100
1000
0100
0001
0010
1000
0010
,
0001
1000
0010
0001
0010
0010
0010
0010
,
0100
0000
0001
0100
1000
0001
0010
1000
,
0001
1000
0100
0001
0100
1000
0020
0000
,
0130
0010
0100
0001
0010
0001
0200
0000
,
1300
0100
0001
0100
0010
1000
0100
0000
,
0210
0000
1300
0100
0001
1000
0010
0001
,
1000
0001
0100
1000
0100
0001
0020
0000
,
0130
0010
0100
1000
0010
1000
0200
0000
,
0302
0000
0000
0000
0203
0000
0000
0000
1300
0000
0001
0000
1000
0001
1000
0000
,
1002
0000
0103
1000
0001
0010
1000
0010
,
0001
1000
0100
0001
0010
0001
0200
0000
,
0310
0100
1000
0100
0001
0010
2000
0000
,
3020
0000
0000
0000
0130
0000
1000
0000
0010
0000
0100
0000
0001
1000
0001
0000
,
2001
0000
3100
0001
1000
0010
0001
0010
,
1000
0001
0100
1000
0010
1000
0200
0000
,
0310
0100
0001
0100
1000
0010
0002
0000
,
0023
0000
0000
0000
0130
0000
0001
0000
0010
0000
0100
0000
1000
0001
1000
0000
,
1002
0100
0000
0100
,
2003
0100
0000
0100
,
3020
1000
0000
1000
,
0230
0001
0000
0001
,
0310
0010
1000
1000
,
0100
0100
0001
0001
,
0010
0100
0010
0100
1000
0010
0001
0010
,
1000
0000
0100
0000
0001
0000
0100
0000
0010
0000
0010
0000
0001
1000
0100
0000
;

//---------------dance-single - ----------------
#NOTES:
     dance-single:
     :
     Medium:
     8:
     0.312273,0.365658,0.064292,0.174506,0.000000,238.000000,231.000000,7.000000,19.000000,0.000000,0.000000,0.312273,0.365658,0.064292,0.174506,0.000000,238.000000,231.000000,7.000000,19.000000,0.000000,0.000000:
0000
0000
0000
0000
,
0000
0000
0000
0000
,
0000
0000
0000
0000
,
0000
0000
0000
0000
,
0000
0000
0000
0000
,
0001
0001
0010
0010
,
1000
1000
0100
0100
,
0001
0010
0001
0000
1000
0100
0001
0000
,
0200
0000
0310
0000
,
1001
0000
0001
0010
0001
0000
0001
0000
,
1000
0000
1000
0010
1000
0000
0001
0000
,
0010
0000
0100
0000
1000
0100
1000
0000
,
0010
0000
1000
0000
0001
0100
0010
0000
,
0010
0000
1000
0010
1000
0000
1000
0000
,
0001
0000
0001
0010
0001
0000
1000
0000
,
0010
0000
0100
0000
0001
0100
1000
0000
,
0100
0001
0010
1000
,
1001
0000
0001
0100
0001
0100
0001
0000
,
1000
0000
1000
0100
1000
0100
0010
0000
,
0001
0000
1000
0000
0100
1000
0010
0000
,
1000
0000
0001
0000
0100
0001
0010
0000
,
0001
0000
1000
0010
1000
0010
1000
0000
,
0001
0000
0001
0010
0001
0010
0100
0000
,
1000
0000
0001
0000
0100
0001
0010
0000
,
0001
1000
0200
0310
,
0002
0100
0000
0100
,
0000
0100
0000
0100
,
2003
0100
0000
0100
,
0000
0100
0000
0100
,
3001
0100
1000
0100
,
0001
0100
1000
0100
,
0001
0100
0001
0000
1000
0010
0001
0000
,
0020
0000
0130
0000
,
0110
0000
0001
0100
0001
0100
0001
0000
,
1000
0000
1000
0100
1000
0100
0020
0000
,
0030
0000
0001
0000
0001
0100
0001
0000
,
1000
0000
0001
0100
0020
0000
0030
0000
,
0110
0000
1000
0100
1000
0100
1000
0000
,
0001
0000
0001
0100
0001
0100
0020
0000
,
0030
0000
1000
0000
1000
0100
1000
0000
,
0001
0100
1000
0010
,
1001
0000
0001
0100
0010
0100
0001
0000
,
1000
0000
1000
0010
0100
0010
2000
0000
,
3000
0000
0001
1000
0001
1000
0001
0000
,
0010
0000
0001
1000
0200
0000
0300
0000
,
0110
0000
1000
0100
0010
0100
1000
0000
,
0001
0000
0001
0010
0100
0010
0002
0000
,
0003
0000
1000
0001
1000
0001
1000
0000
,
0010
0001
0100
1000
,
1002
0000
0023
0000
,
0230
0000
2300
0000
,
0000
0000
3200
0320
,
0032
0000
0000
0003
,
1000
1000
0010
0010
,
0001
0001
0100
0100
,
1000
0010
1000
0000
0001
0100
1000
0000
,
0200
0000
0000
0000
0310
0000
1000
0001
;

//---------------dance-single - ----------------
#NOTES:
     dance-single:
     :
     Easy:
     4:
     0.204683,0.234549,0.073476,0.165321,0.000000,156.000000,148.000000,8.000000,18.000000,0.000000,0.000000,0.204683,0.234549,0.073476,0.165321,0.000000,156.000000,148.000000,8.000000,18.000000,0.000000,0.000000:
// measure 0
0000
0000
0000
0000
,  // measure 1
0000
0000
0000
0000
,  // measure 2
0000
0000
0000
0000
,  // measure 3
0000
0000
0000
0000
,  // measure 4
0000
0000
0000
0000
,  // measure 5
1000
0000
0010
0000
,  // measure 6
0001
0000
0100
0000
,  // measure 7
1000
0010
0001
0100
,  // measure 8
2000
0000
3000
0000
,  // measure 9
1001
1000
1000
0000
,  // measure 10
0001
0001
0001
0000
,  // measure 11
0010
0001
0100
0010
,  // measure 12
1000
0100
1000
0000
,  // measure 13
1001
0001
0001
0000
,  // measure 14
1000
1000
1000
0000
,  // measure 15
0010
1000
0100
0010
,  // measure 16
0001
0100
0001
0000
,  // measure 17
0110
0100
0100
0001
,  // measure 18
1000
0010
0010
0000
,  // measure 19
1000
0100
1000
0001
,  // measure 20
1000
0100
0010
0000
,  // measure 21
0110
0100
0100
1000
,  // measure 22
0001
0010
0010
0000
,  // measure 23
0001
0100
0001
1000
,  // measure 24
0001
0100
0010
0000
,  // measure 25
0020
0000
0000
0000
,  // measure 26
2030
0000
3002
0000
,  // measure 27
0023
0000
0000
0000
,  // measure 28
0032
0000
2003
0000
,  // measure 29
3010
0000
0010
0000
,  // measure 30
0010
0000
0010
0000
,  // measure 31
0010
0010
0010
0010
,  // measure 32
0020
0000
0030
0000
,  // measure 33
1001
1000
0100
1000
,  // measure 34
0100
0010
0001
0020
,  // measure 35
0030
0001
1000
0010
,  // measure 36
1000
0001
0010
0000
,  // measure 37
1001
0001
0100
0001
,  // measure 38
0100
0010
1000
0020
,  // measure 39
0030
1000
0001
0010
,  // measure 40
0011
0000
1001
0000
,  // measure 41
0000
1000
0010
0100
,  // measure 42
0010
1000
0010
0200
,  // measure 43
0300
0001
0010
1000
,  // measure 44
0010
0100
1000
0000
,  // measure 45
2000
3001
0010
0100
,  // measure 46
0010
0001
0010
0200
,  // measure 47
0300
1000
0010
0001
,  // measure 48
0010
1000
0001
0100
,  // measure 49
0020
0000
0000
0000
,  // measure 50
2030
0000
0000
0000
,  // measure 51
3002
0000
0000
0000
,  // measure 52
0023
0000
0000
0000
,  // measure 53
0130
0000
1000
0000
,  // measure 54
0010
0000
0001
0000
,  // measure 55
0100
1000
0010
0001
,  // measure 56
0200
0000
0310
0001
;

//---------------dance-single - ----------------
#NOTES:
     dance-single:
     :
     Beginner:
     2:
     0.098405,0.130305,0.000000,0.064292,0.000000,75.000000,75.000000,0.000000,7.000000,0.000000,0.000000,0.098405,0.130305,0.000000,0.064292,0.000000,75.000000,75.000000,0.000000,7.000000,0.000000,0.000000:
// measure 0
0000
0000
0000
0000
,  // measure 1
0000
0000
0000
0000
,  // measure 2
0000
0000
0000
0000
,  // measure 3
0000
0000
0000
0000
,  // measure 4
0000
0000
0000
0000
,  // measure 5
1000
0000
0000
0000
,  // measure 6
1000
0000
0000
0000
,  // measure 7
0001
0000
0001
0000
,  // measure 8
2000
0000
3000
0000
,  // measure 9
0001
0000
0001
0000
,  // measure 10
0001
0000
0000
0000
,  // measure 11
1000
0000
1000
0000
,  // measure 12
1000
0000
0000
0000
,  // measure 13
0100
0000
0100
0000
,  // measure 14
0100
0000
0000
0000
,  // measure 15
0010
0000
0010
0000
,  // measure 16
0010
0000
0000
0000
,  // measure 17
0001
0000
0010
0000
,  // measure 18
0001
0000
0000
0000
,  // measure 19
1000
0000
0100
0000
,  // measure 20
1000
0000
0000
0000
,  // measure 21
0001
0000
0100
0000
,  // measure 22
0001
0000
0000
0000
,  // measure 23
1000
0000
0010
0000
,  // measure 24
1000
0000
0000
0000
,  // measure 25
0020
0000
0000
0000
,  // measure 26
0030
0000
0000
0000
,  // measure 27
0200
0000
0000
0000
,  // measure 28
0300
0000
0000
0000
,  // measure 29
0001
0000
0001
0000
,  // measure 30
0001
0000
0001
0000
,  // measure 31
1000
0000
1000
0000
,  // measure 32
2000
0000
3000
0000
,  // measure 33
0001
0000
0010
0000
,  // measure 34
0100
0000
1000
0000
,  // measure 35
0000
1000
0000
0100
,  // measure 36
0000
0010
0000
0000
,  // measure 37
1000
0000
0010
0000
,  // measure 38
0100
0000
0001
0000
,  // measure 39
0000
0001
0000
0100
,  // measure 40
0000
0010
0000
0000
,  // measure 41
0001
0000
0100
0000
,  // measure 42
1000
0000
0100
0000
,  // measure 43
0000
0001
0000
1000
,  // measure 44
0000
0010
0000
0000
,  // measure 45
1000
0000
0100
0000
,  // measure 46
0001
0000
0100
0000
,  // measure 47
0000
1000
0000
0001
,  // measure 48
0000
0010
0000
0000
,  // measure 49
0200
0000
0000
0000
,  // measure 50
0300
0000
0000
0000
,  // measure 51
0020
0000
0000
0000
,  // measure 52
0030
0000
0000
0000
,  // measure 53
0001
0000
0001
0000
,  // measure 54
0001
0000
0001
0000
,  // measure 55
1000
0000
1000
0000
,  // measure 56
2000
0000
0000
3000
;
