#TITLE:Shera;
#SUBTITLE:;
#ARTIST:MYUKKE.;
#TITLETRANSLIT:;
#SUBTITLETRANSLIT:;
#ARTISTTRANSLIT:;
#GENRE:;
#CREDIT:;
#BANNER:;
#BACKGROUND:Shera-bg.png;
#LYRICSPATH:;
#CDTITLE:;
#MUSIC:Shera.ogg;
#OFFSET:0.000000;
#SAMPLESTART:65.599998;
#SAMPLELENGTH:10.000000;
#SELECTABLE:YES;
#BPMS:0.000000=150.000000
;
#STOPS:60.000000=1.600000
;
#BGCHANGES:;
#KEYSOUNDS:;
#ATTACKS:;

//---------------dance-single - ----------------
#NOTES:
     dance-single:
     :
     Hard:
     15:
     0.660513,0.871365,0.008361,0.426407,0.451490,553.000000,552.000000,1.000000,51.000000,0.000000,0.000000,0.660513,0.871365,0.008361,0.426407,0.451490,553.000000,552.000000,1.000000,51.000000,0.000000,0.000000:
// measure 0
0000
0000
0000
0000
,  // measure 1
0000
0000
0000
0000
,  // measure 2
0000
0000
0000
0000
,  // measure 3
0000
0000
0000
0000
,  // measure 4
0000
0000
0100
0100
,  // measure 5
1000
0100
0010
0000
0001
0010
0100
0000
,  // measure 6
1000
0001
0100
0000
0001
1000
0010
0010
,  // measure 7
0100
0001
1000
0000
0100
1000
0001
0000
,  // measure 8
0100
0000
0010
0000
1000
0000
0000
0000
0010
0000
0100
0000
0001
0000
0001
0010
,  // measure 9
0100
1000
0001
1000
0010
0100
1000
0100
,  // measure 10
0010
1000
0001
1000
0100
0010
1000
0000
,  // measure 11
0010
0001
1000
0001
0100
0010
0001
0010
,  // measure 12
0100
0001
1000
0000
0010
1000
0001
0000
,  // measure 13
0010
0001
0010
0001
0100
0001
1000
0100
,  // measure 14
1000
0010
1000
0000
0001
0010
0001
0000
,  // measure 15
2002
0000
0000
0000
0000
0000
0000
0000
0000
0000
0000
0000
3003
0000
1000
0100
,  // measure 16
0020
0000
0000
0000
0000
0000
0031
1000
0001
0000
1000
0000
0010
0000
0200
0000
,  // measure 17
0000
0000
0310
0000
0010
1000
0100
0002
,  // measure 18
0000
0000
0000
0000
0103
1000
0001
0100
,  // measure 19
0020
0000
0000
0000
0000
0000
1030
0001
2000
0000
0000
0000
0100
0000
0000
0000
,  // measure 20
3002
0000
0000
0013
1000
0010
0001
0200
,  // measure 21
0000
0000
0001
0000
0310
1000
0001
0020
,  // measure 22
0000
0000
0000
0130
1000
0001
0010
1000
,  // measure 23
0020
0000
0000
0000
0001
0000
0130
0000
2000
0000
0000
0001
0000
0000
3001
0000
,  // measure 24
0200
0000
0000
0000
1300
0100
0001
2000
,  // measure 25
0000
0000
0000
0000
0000
0000
3100
0000
0010
0001
0010
0001
1000
0000
0200
0000
,  // measure 26
0000
0000
0310
0000
0001
1000
0010
1000
,  // measure 27
0002
0000
0023
0000
0031
2000
0000
3001
,  // measure 28
0200
0000
0310
0100
0001
1000
0010
0200
,  // measure 29
0000
0000
0301
0010
0200
2300
3020
0230
,  // measure 30
0000
0000
0301
0010
2000
0000
3001
0100
,  // measure 31
2000
0000
0000
0000
0000
0000
3100
0010
0002
0000
0000
1000
0000
0000
1000
0000
,  // measure 32
2003
3100
0200
0310
,  // measure 33
0020
0000
0031
0000
0001
1000
0001
1000
,  // measure 34
0020
0130
0200
0301
,  // measure 35
0002
0000
1003
0000
0001
0010
0000
1000
,  // measure 36
0100
0000
0010
0001
0010
0000
0100
0010
0100
0000
1000
0100
1000
0000
0001
1000
,  // measure 37
0010
0000
1000
0010
1000
0000
0010
0100
0010
0000
0100
0001
0100
0000
0001
1000
,  // measure 38
0001
1000
0001
1000
0001
1000
0001
1000
0100
0010
0100
0010
0100
0010
0100
0010
,  // measure 39
0200
0000
0000
0000
2300
0000
3001
0100
,  // measure 40
0010
1000
0010
1000
0001
0100
0001
0000
0010
0000
0100
0000
2000
0000
3100
0010
,  // measure 41
0100
0000
1000
0100
0010
0000
0100
0010
0002
0000
0010
0000
1003
0000
0010
0000
,  // measure 42
0100
0001
0100
0001
1000
0010
1000
0000
0001
0000
0010
0100
0000
0010
0100
0000
,  // measure 43
1000
0000
0010
1000
0000
0001
1000
0000
0100
0010
0100
0000
1000
0000
0001
0000
,  // measure 44
0010
0100
1000
0000
1000
0000
0010
0100
0001
0000
0001
0000
0010
0100
1000
0000
,  // measure 45
1000
0000
0010
0100
0001
0000
0100
0000
0010
1000
0010
1000
0001
0000
0010
0000
,  // measure 46
0100
1000
0100
0000
0010
0001
0010
0000
0001
0100
0001
0000
1000
0010
1000
0000
,  // measure 47
0001
1000
0001
0000
0010
0100
0010
0100
2000
0000
3200
0000
0320
0000
0032
0000
,  // measure 48
0013
0001
0010
0001
1000
0100
1000
0000
0010
0000
0100
0000
0002
0000
0103
0010
,  // measure 49
0100
0000
0001
0100
0010
0000
0100
0010
2000
0000
0010
0000
3001
0000
0010
0000
,  // measure 50
0100
1000
0100
0010
0001
0010
0001
0000
1000
0000
0010
1000
0000
0010
1000
0001
,  // measure 51
0010
0000
0001
0010
0100
0000
0010
0100
1000
0000
0100
1000
0001
0000
1000
0001
,  // measure 52
1000
0010
1000
0010
1000
0000
0001
0010
0001
0010
0001
0000
1000
0010
1000
0010
,  // measure 53
1000
0000
0001
0010
0001
0010
0001
0000
1000
0010
1000
0001
0100
0010
1000
0000
,  // measure 54
0001
0010
0001
0000
1000
0100
1000
0000
0001
0100
0001
0000
1000
0010
1000
0000
,  // measure 55
0010
0100
0001
0000
0010
0100
1000
0000
0020
0000
0000
0000
0000
0000
0000
0000
,  // measure 56
0230
0000
0301
1000
0000
0001
1000
0000
0100
0000
0010
0000
0001
0000
0010
0000
,  // measure 57
0200
0000
1300
0001
0000
1000
0001
0000
0100
0000
0010
0000
1000
0000
0010
0000
,  // measure 58
0200
0000
0301
0010
0000
0001
0010
0000
0100
0000
1000
0000
0001
0000
1000
0000
,  // measure 59
0200
0000
1300
0010
0000
1000
0010
0000
0100
0000
0001
0000
1000
0000
0001
0000
,  // measure 60
0200
0000
0310
1000
0000
0001
0100
0000
0001
0000
0010
0000
0100
0000
1000
0000
,  // measure 61
0200
0000
0310
0001
0000
1000
0100
0000
1000
0000
0010
0000
0100
0000
0001
0000
,  // measure 62
0020
0000
0130
1000
0000
0001
0100
0000
0010
0000
0100
0001
0000
1000
0100
0000
,  // measure 63
1000
0000
1000
0100
0010
0000
0100
0010
0001
0000
0010
0000
0001
1000
0001
1000
,  // measure 64
0100
1000
0001
1000
0100
1000
0001
1000
,  // measure 65
0100
0000
0010
0000
0001
0000
0010
0000
0100
0000
0010
0000
0001
0000
0001
1000
,  // measure 66
0010
1000
0001
1000
0010
1000
0001
1000
,  // measure 67
0010
0000
0100
0000
0001
0000
0100
0000
0010
0000
0100
0000
0001
0000
0010
0100
,  // measure 68
1000
0100
0001
0100
1000
0100
0001
0100
,  // measure 69
1000
0000
0010
0000
1000
0000
0100
0000
1000
0000
0010
0000
1000
0000
0100
0010
,  // measure 70
0001
0100
1000
0100
0001
0100
1000
0100
,  // measure 71
0001
0010
0001
0100
1000
0010
0001
0100
;

//---------------dance-single - ----------------
#NOTES:
     dance-single:
     :
     Challenge:
     16:
     0.837287,0.991553,0.125414,0.326076,0.944784,701.000000,686.000000,15.000000,39.000000,0.000000,0.000000,0.837287,0.991553,0.125414,0.326076,0.944784,701.000000,686.000000,15.000000,39.000000,0.000000,0.000000:
// measure 0
0000
0000
0000
0000
,  // measure 1
0000
0000
0000
0000
,  // measure 2
0000
0000
0000
0000
,  // measure 3
0000
0000
0000
0000
,  // measure 4
0000
0000
0000
0000
0000
0000
0000
0000
0110
0000
0000
0000
0110
0000
0010
1000
,  // measure 5
0001
0100
0010
0100
0001
0100
0010
0100
,  // measure 6
0001
0000
0010
0000
0100
0000
0010
0000
0001
0000
0010
0000
0100
0000
0010
0001
,  // measure 7
1000
0010
0100
0010
1000
0010
0100
0010
,  // measure 8
1000
0000
0100
0000
0010
0000
0100
0000
1000
0000
0100
0000
0010
0000
0100
1000
,  // measure 9
0001
0100
0010
0001
0010
1000
0001
0010
,  // measure 10
0100
0000
0010
0000
1000
0000
0001
0000
0100
0000
1000
0000
0100
0000
0010
0001
,  // measure 11
1000
0100
0010
1000
0010
0001
1000
0010
,  // measure 12
0100
0000
0010
0000
0001
0000
1000
0000
0100
0000
0001
0000
0100
0000
0010
1000
,  // measure 13
0001
0000
0010
0000
0100
0000
1000
0001
1000
0001
1000
0000
0010
0000
0100
0001
,  // measure 14
1000
0000
0100
1000
0001
0000
0100
0001
1000
0000
0100
0000
0010
0000
0000
0000
,  // measure 15
2002
0000
0000
0000
0000
0000
0000
0000
0000
0000
0000
0000
3003
0000
0001
0100
,  // measure 16
0020
0000
0000
0000
0000
0000
1030
0001
1000
0000
0100
0000
0001
0000
0200
0000
,  // measure 17
0000
0000
1000
0000
0310
0001
0100
0020
,  // measure 18
0000
0000
0000
0000
0000
0000
1030
0001
1000
0000
0100
0000
0010
0000
1000
0000
,  // measure 19
0020
0000
0000
0000
0031
0000
0001
1000
0020
0000
0000
0000
0130
0000
0000
0000
,  // measure 20
1002
0000
0000
0000
0000
0000
0013
0100
1000
0000
0010
0000
0001
0000
0020
0000
,  // measure 21
0000
0000
0000
0000
1000
0000
1030
0001
0010
0000
1000
0000
0010
0000
0200
0000
,  // measure 22
0000
0000
0000
0301
1000
0010
0001
1000
,  // measure 23
0200
0000
0000
0000
2300
0000
0100
0000
3001
0000
0000
0101
0000
0000
1100
0000
,  // measure 24
2001
0000
3100
1000
0010
1000
0100
0002
,  // measure 25
0000
0000
0000
0000
0000
0000
1003
0000
0010
0001
1000
0010
0100
0000
0002
0000
,  // measure 26
0000
0000
1000
0000
0103
0110
0010
1000
,  // measure 27
0200
0300
1001
0000
0100
1001
0000
0010
,  // measure 28
2001
0000
0000
0000
3100
0000
1000
0000
0100
0010
0001
1000
0010
0000
0200
0000
,  // measure 29
0000
0000
0301
0010
0001
0100
1000
0200
,  // measure 30
0000
0000
0310
1000
0020
0000
0031
0010
,  // measure 31
2000
0000
0000
0000
0000
0000
3001
0010
0100
0000
0000
1100
0000
0000
0101
0000
,  // measure 32
0001
0100
0001
0100
0001
0000
1000
0000
0100
1000
0100
1000
0100
0000
1000
0000
,  // measure 33
0001
0100
0001
0100
0001
0000
0010
0000
0100
1000
0100
1000
0100
0000
0110
0000
,  // measure 34
0010
0001
0010
0001
0010
0000
0001
0000
1000
0010
1000
0010
1000
0000
0001
0000
,  // measure 35
0010
0001
0010
0001
0010
0000
0100
0000
1000
0010
1000
0010
1000
0000
1001
0000
,  // measure 36
0001
0100
0001
1000
0010
0100
0010
1000
0100
1000
0100
1000
0010
0100
0010
1000
,  // measure 37
0001
0010
0100
1000
0001
0100
0010
1000
0001
0010
0100
1000
0001
0100
0010
1000
,  // measure 38
0001
0010
0001
0010
0001
1000
0001
1000
0001
0100
0001
0100
0001
0010
0100
0010
,  // measure 39
0200
0000
0000
0000
0000
0000
0000
0000
2300
0000
0000
0000
3100
1000
0010
0100
,  // measure 40
0001
0010
0100
1000
0001
0010
0100
1000
0001
1000
0010
1000
0002
0000
0013
0100
,  // measure 41
1000
0001
1000
0010
1000
0001
1000
0010
0200
0000
0310
1000
0001
1000
0020
0000
,  // measure 42
0130
0001
1000
0001
1000
0100
1000
0100
0010
0100
0010
0002
0000
0013
0100
1000
,  // measure 43
0001
0100
0010
1000
0100
0010
0001
0100
0010
1000
0100
0010
0002
0000
0203
0000
,  // measure 44
0310
0100
0010
1000
0100
1000
0010
0100
0010
1000
0100
1000
0010
0100
0010
1000
,  // measure 45
0100
1000
0010
0100
0010
1000
0100
1000
0001
0100
0001
1000
0100
0010
0100
0010
,  // measure 46
0001
0100
0010
0100
0001
1000
0010
1000
0001
0010
0100
1000
0001
0100
0010
1000
,  // measure 47
0100
0010
0001
1000
0010
1000
0001
0010
0002
0000
0023
0000
0230
0000
2300
0000
,  // measure 48
3001
0100
0010
1000
0001
0100
0010
1000
0001
1000
0100
1000
0002
0000
0103
0010
,  // measure 49
1000
0001
1000
0100
1000
0001
1000
0100
0020
0000
0130
1000
0001
1000
0200
0000
,  // measure 50
0310
0001
1000
0001
1000
0010
1000
0010
0100
0010
0100
0002
0000
1003
0010
1000
,  // measure 51
0001
0000
0001
0001
0010
0000
0010
0010
0100
0000
0100
0100
1000
0000
1000
1000
,  // measure 52
0001
0100
0010
1000
0100
0000
0001
0100
0010
1000
0100
0000
0001
0010
0100
1000
,  // measure 53
0010
0000
0001
0010
0100
1000
0010
0000
0001
0100
0010
1000
0100
0010
0001
0100
,  // measure 54
0010
1000
0010
1000
0010
0100
0010
0100
0001
0100
0001
1000
0001
1000
0100
0010
,  // measure 55
0001
1000
0010
0100
0001
0010
0100
1000
0020
0000
0000
0000
0000
0000
0000
0000
,  // measure 56
0130
0000
0001
0100
0000
0100
0001
0100
0001
1000
0100
0010
0100
1000
0100
0010
,  // measure 57
0001
0000
1000
0100
0000
0100
1000
0100
1000
0001
0100
0010
0100
0001
0100
0010
,  // measure 58
1000
0000
0100
0010
0000
0010
0001
0010
0001
1000
0010
1000
0001
0010
0100
1000
,  // measure 59
0001
0000
0100
0010
0000
0010
1000
0010
1000
0001
0010
0001
1000
0010
0100
0001
,  // measure 60
0010
0000
0100
1000
0000
1000
0100
0010
0001
0100
0010
0100
0001
0010
0001
1000
,  // measure 61
0010
0000
0100
0001
0000
0001
0100
0010
1000
0100
0010
0100
1000
0010
1000
0001
,  // measure 62
0010
0000
0100
0010
0000
0010
0100
1000
0010
0000
0100
0010
0000
0010
0100
0001
,  // measure 63
1000
0000
1000
1000
0100
0000
0100
0100
0010
0001
0010
0001
1000
0010
0100
0001
,  // measure 64
0200
0000
0000
0000
,  // measure 65
0000
0000
0000
0000
0000
0000
0000
0000
0000
0000
0000
0000
0300
0000
0010
1000
,  // measure 66
0001
0100
1000
0100
0001
0100
1000
0100
,  // measure 67
0001
0000
0010
0000
1000
0000
0010
0000
0001
0000
0010
0000
0100
0000
1000
0010
,  // measure 68
0100
0001
0010
1000
0100
0001
0010
1000
,  // measure 69
0100
0000
0001
0000
0010
0000
1000
0000
0100
0000
0010
0000
0001
0000
1000
0100
,  // measure 70
0010
0001
0100
1000
0010
0001
0100
1000
,  // measure 71
0010
0001
0100
1000
0010
0100
0001
0010
;

//---------------dance-single - ----------------
#NOTES:
     dance-single:
     :
     Medium:
     11:
     0.464629,0.510800,0.016722,0.275911,0.075248,389.000000,387.000000,2.000000,33.000000,0.000000,0.000000,0.464629,0.510800,0.016722,0.275911,0.075248,389.000000,387.000000,2.000000,33.000000,0.000000,0.000000:
0000
0000
0000
0000
,
0000
0000
0000
0000
,
0000
0000
0000
0000
,
0000
0000
0000
0000
,
0000
0000
0000
0000
,
1000
0100
0010
0001
,
1000
0000
0100
0000
0010
0000
0001
1000
,
0001
0100
0010
1000
,
0001
0000
0100
0000
0010
0000
1000
0001
,
1000
0000
0100
0000
0010
0100
0010
0000
,
0001
0000
1000
0000
0010
0100
0010
0000
,
1000
0000
0001
0000
0100
0010
0100
0000
,
0001
0000
1000
0000
0100
0010
0100
0000
,
1000
0001
0010
0000
0001
1000
0010
0000
,
0100
0010
0100
0000
,
0110
0000
0000
0000
0000
0000
0000
0001
,
0020
0000
0000
0000
0130
1000
1000
0002
,
0000
0000
0103
0000
0010
1000
0001
0020
,
0000
0000
0000
0000
0130
1000
0001
1000
,
0020
0000
0000
0130
0001
0000
1001
0000
,
2000
0000
0000
3100
0010
0001
0001
0020
,
0000
0000
0130
0000
1000
0001
0100
0002
,
0000
0000
0000
1003
0010
0100
0010
1000
,
0002
0000
0000
0000
1003
0000
0001
0000
0010
0000
0000
0010
0000
0000
0010
0000
,
0200
0000
0000
1300
0010
0100
0001
0200
,
0000
0000
0000
0310
0100
0001
1000
0200
,
0000
0000
0310
0000
0001
0010
0001
1000
,
0002
0000
0203
0000
0310
2000
0000
3001
,
0200
0000
0310
1000
0010
0100
0001
2000
,
0000
0000
3100
0010
0001
1000
0100
0020
,
0000
0000
0031
1000
0020
0000
1030
0001
,
0200
0000
0000
0000
0000
0000
0301
0000
1000
0000
0000
1000
0000
0000
1000
0000
,
0200
1000
0010
0010
,
0001
0000
0001
0000
1300
0010
0100
0001
,
0200
0001
0010
0010
,
1000
0000
1000
0000
0301
1000
0000
1000
,
0001
0000
0000
0001
0010
0000
0000
0010
0100
0000
0000
0100
1000
0000
0000
1000
,
0001
0000
0000
0001
0100
0000
0000
0100
0010
0000
0000
0010
1000
0000
0000
1000
,
0001
1000
0001
1000
0001
0001
1000
1000
,
0020
0000
0230
0300
,
0001
0100
0010
0100
0001
1000
0020
0030
,
0100
0001
1000
0001
0010
1000
0010
0001
,
1000
0100
0010
0001
0100
0010
1000
0000
,
0001
0100
0010
0100
1000
0100
0002
0003
,
1000
0100
0010
1000
0100
0010
1000
0100
,
0010
1000
0100
0010
0001
1000
0002
0003
,
0010
0001
0010
0100
1000
0001
1000
0100
,
0010
0001
0100
0000
0020
0230
0302
2003
,
3001
0100
0010
0100
0001
1000
0020
0030
,
0100
0001
1000
0001
0010
1000
0010
0001
,
1000
0100
0010
0001
0100
0010
1000
0000
,
0001
0100
1000
0100
0001
0010
1000
0010
,
0001
0100
0010
0001
0100
0010
0001
0100
,
0010
0001
0100
0010
1000
0100
0010
0001
,
0100
0001
0100
0001
1000
0010
1000
0010
,
0100
0001
1000
0100
0020
0000
0030
0000
,
0001
0000
0000
0001
0000
0000
0001
0000
1000
0000
0100
0000
0010
0000
0001
0000
,
1000
0000
0000
1000
0000
0000
1000
0000
0001
0000
0100
0000
0010
0000
1000
0000
,
0001
0000
0000
0001
0000
0000
0001
0000
0010
0000
0001
0000
0100
0000
0010
0000
,
1000
0000
0000
1000
0000
0000
1000
0000
0010
0000
1000
0000
0100
0000
0010
0000
,
0001
0000
0000
0001
0000
0000
0001
0000
0010
0000
0001
0000
0100
0000
0001
0000
,
1000
0000
0000
1000
0000
0000
1000
0000
0010
0000
1000
0000
0100
0000
1000
0000
,
0001
0000
0000
0001
0000
0000
0010
0000
0100
0000
0000
0100
0000
0000
1000
0000
,
0001
0100
1000
0100
0002
0000
0013
0100
,
1000
0100
0010
0001
,
1000
0000
0100
0000
0010
0000
0001
0010
,
0001
0100
0010
1000
,
0001
0000
0100
0000
0010
0000
1000
0010
,
1000
0001
0010
1000
,
0010
0000
0001
0000
0010
0000
1000
0010
,
0001
0100
1000
0100
,
0001
0000
0100
0000
1000
0000
0100
0001
;

//---------------dance-single - ----------------
#NOTES:
     dance-single:
     :
     Easy:
     6:
     0.250828,0.269953,0.016722,0.267550,0.000000,210.000000,208.000000,2.000000,32.000000,0.000000,0.000000,0.250828,0.269953,0.016722,0.267550,0.000000,210.000000,208.000000,2.000000,32.000000,0.000000,0.000000:
0000
0000
0000
0000
,
0000
0000
0000
0000
,
0000
0000
0000
0000
,
0000
0000
0000
0000
,
0000
0000
0000
0000
,
0001
0100
0001
0100
,
0010
1000
0010
1000
,
0100
1000
0100
1000
,
0001
0010
0001
0010
,
0001
0100
0010
1000
,
0001
0000
0010
0000
,
1000
0100
0010
0001
,
1000
0000
0100
0000
,
0001
0100
0010
1000
,
0100
0000
0010
0000
,
0110
0000
0000
0000
,
0010
0000
0000
0000
0100
0000
0002
0003
,
0000
0000
0100
0000
0010
0000
2000
3000
,
0000
0000
0100
1000
,
0001
0000
0100
0110
,
0010
0000
0000
0000
1000
0000
0002
0003
,
0000
0000
1000
0000
0001
0000
0020
0030
,
0000
0000
0010
0001
,
1000
0100
0010
0001
,
0100
0000
0000
0000
0010
0000
2000
3000
,
0000
0000
0000
0000
0010
0000
0200
0300
,
0000
0001
0010
0001
,
0100
0000
0010
0000
0000
1000
0000
0000
,
0001
0000
0010
0000
0100
0000
2000
3000
,
0000
0000
0100
0000
1000
0000
0002
0003
,
0000
0100
0010
1000
,
0010
0000
0100
0000
,
0002
0003
0020
0030
,
0200
0300
1000
0001
,
2000
3000
0020
0030
,
0200
0300
0001
1000
,
0001
0001
0010
0010
,
1000
1000
0100
0100
,
0001
0010
1000
0100
,
0002
0000
0003
0000
,
1000
0010
0100
0001
,
0010
0100
0020
0030
,
0001
1000
0200
0300
,
1000
0001
0200
0300
,
0010
0100
0001
0010
,
0100
0001
0010
0100
,
1000
0010
0100
0001
,
0010
0100
2000
3000
,
0001
0010
0100
1000
,
0010
0100
0020
0030
,
1000
0001
0200
0300
,
0001
0001
1000
1000
,
0100
0010
1000
0100
,
0010
1000
0100
0010
,
0001
0100
0010
1000
,
0100
0010
0002
0003
,
2000
3000
0100
0100
,
2000
3000
0001
0001
,
2000
3000
0010
0010
,
2000
3000
0001
1000
,
0002
0003
0100
0100
,
0002
0003
1000
1000
,
0002
0003
2000
3000
,
0001
0010
0002
0003
,
1000
0100
1000
0100
,
0010
0001
0010
0001
,
0100
0001
0100
0001
,
1000
0010
1000
0010
,
0100
0000
0100
0000
,
0001
0000
0001
0000
,
1000
0000
1000
0000
,
0100
0000
0200
0300
;

//---------------dance-single - ----------------
#NOTES:
     dance-single:
     :
     Beginner:
     3:
     0.143330,0.179342,0.016722,0.100331,0.000000,120.000000,118.000000,2.000000,12.000000,0.000000,0.000000,0.143330,0.179342,0.016722,0.100331,0.000000,120.000000,118.000000,2.000000,12.000000,0.000000,0.000000:
0000
0000
0000
0000
,
0000
0000
0000
0000
,
0000
0000
0000
0000
,
0000
0000
0000
0000
,
0000
0000
0000
0000
,
1000
0000
0100
0000
,
0010
0000
0001
0000
,
1000
0000
0100
0000
,
0010
0000
0001
0000
,
0100
0000
0010
0000
,
1000
0000
0001
0000
,
0010
0000
0100
0000
,
1000
0000
0001
0000
,
0200
0000
0300
0000
,
0020
0000
0030
0000
,
0100
0000
0000
0000
,
1001
0000
1000
1000
,
0000
0000
0001
0001
,
0000
0000
0100
0000
,
0100
0000
0010
0000
,
1000
0000
0001
0001
,
0000
0000
0010
0010
,
0000
0000
0100
0000
,
1000
0000
0001
0000
,
0100
0000
0001
0001
,
0000
0000
1000
1000
,
0000
0000
0010
0000
,
0010
0000
0100
0000
,
0001
0000
0100
0100
,
0000
0000
0010
0010
,
0000
0000
1000
0000
,
0001
0000
0100
0000
,
0002
0000
0003
0000
,
0200
0000
0300
0000
,
2000
0000
3000
0000
,
0020
0000
0030
0000
,
0001
0000
0100
0000
,
1000
0000
0010
0000
,
2002
0000
0000
0000
,
3003
0000
0000
0000
,
1000
0000
0100
0000
,
0010
0010
0010
0000
,
0001
0000
0100
0000
,
0020
0000
0030
0000
,
1000
0000
0000
1000
,
0000
0000
1000
0001
,
1000
0000
0100
0000
,
0010
0000
0001
0000
,
0001
0000
0100
0000
,
0020
0000
0030
0000
,
1000
0000
0100
0000
,
0020
0000
0030
0000
,
0001
0000
0000
0001
,
0000
0000
0001
0000
,
0001
0000
0100
0000
,
0010
0000
0000
0000
,
0001
0000
0100
0000
,
1000
0000
0100
0000
,
0001
0000
0010
0000
,
1000
0000
0000
0000
,
1000
0000
0100
0000
,
0001
0000
0100
0000
,
1000
0000
1000
0000
,
0002
0000
0003
0000
,
1000
0000
0100
0000
,
0010
0000
0001
0000
,
1000
0000
0100
0000
,
0010
0000
0001
0000
,
0100
0000
0010
0000
,
1000
0000
0001
0000
,
0010
0000
0100
0000
,
1000
0000
0100
0000
;
