#TITLE:Shamshir;
#SUBTITLE:;
#ARTIST:Blacklolita;
#TITLETRANSLIT:;
#SUBTITLETRANSLIT:;
#ARTISTTRANSLIT:;
#GENRE:;
#CREDIT:;
#BANNER:;
#BACKGROUND:Shamshir-bg.png;
#LYRICSPATH:;
#CDTITLE:;
#MUSIC:Shamshir.ogg;
#OFFSET:-2.194000;
#SAMPLESTART:25.305000;
#SAMPLELENGTH:10.000000;
#SELECTABLE:YES;
#BPMS:0.000000=135.000000
;
#STOPS:11.000000=0.222000,
18.500000=0.222000,
34.000000=0.222000,
201.000000=0.444000,
208.500000=0.111000,
208.750000=0.111000
;
#BGCHANGES:;
#KEYSOUNDS:;
#ATTACKS:;

//---------------dance-single - ----------------
#NOTES:
     dance-single:
     :
     Challenge:
     15:
     0.716076,0.788314,0.182418,0.206212,0.816916,632.000000,609.000000,23.000000,26.000000,0.000000,0.000000,0.716076,0.788314,0.182418,0.206212,0.816916,632.000000,609.000000,23.000000,26.000000,0.000000,0.000000:
// measure 0
0000
0000
0000
0000
,  // measure 1
0000
0000
0000
0000
,  // measure 2
0000
0000
0000
0000
,  // measure 3
0000
0000
0000
0000
,  // measure 4
0000
0000
0000
0000
0000
0000
0002
0100
,  // measure 5
1003
0000
0000
0002
0000
0000
0100
0000
0000
1003
0000
0000
0001
0000
1000
0001
0000
0000
2000
0000
0000
0100
0000
0000
,  // measure 6
3001
2000
0100
3001
1001
0000
1000
0100
,  // measure 7
0001
0000
0100
0000
1000
0000
0100
0000
0001
0000
0100
0000
1000
0000
0100
1000
,  // measure 8
0001
0000
0001
0000
0100
0001
1000
0000
0010
0000
1000
0000
0100
1000
0100
0000
,  // measure 9
0010
0000
0001
0010
0001
0000
2000
0000
3000
0000
0001
0000
0100
0001
0100
0000
,  // measure 10
0010
0000
1000
0010
1000
0000
0002
0000
0003
0000
1000
0000
0100
0010
0100
0000
,  // measure 11
1000
0000
0001
1000
0001
0000
0100
0010
0100
0010
0100
0000
0000
0001
0000
0001
,  // measure 12
0010
0000
0100
1000
0000
1000
0010
0000
0010
0000
0110
0000
0000
0001
0100
0000
,  // measure 13
0010
0000
1000
0001
0000
1000
0001
0000
0010
0001
0010
0001
0000
1000
0100
0000
,  // measure 14
1000
0000
0010
0000
0100
0010
2000
0000
3000
0000
0001
0010
0000
0100
1000
0000
,  // measure 15
0100
0000
1000
0001
0000
1000
0001
0000
0100
0000
0010
1000
0010
1000
0010
0000
,  // measure 16
0100
0001
0000
0100
0001
0000
0011
0000
1010
0000
1000
0000
0000
1000
0100
0000
,  // measure 17
0010
0000
0001
1000
0000
0001
1000
0000
0010
1000
0010
1000
0000
0001
0100
0000
,  // measure 18
0001
0000
0010
0000
0100
0010
0002
0000
0003
0000
1000
0010
0000
0100
0001
0000
,  // measure 19
0100
0000
0010
0000
0010
0000
0010
0000
1000
0000
0001
0000
0010
0001
1000
0000
,  // measure 20
0010
0000
0010
1000
0001
0000
0200
0000
0300
0000
1001
0000
0000
1000
0100
0000
,  // measure 21
0010
0000
0001
0100
0000
0001
0100
0000
0010
1000
0001
0010
0000
0100
1000
0000
,  // measure 22
0001
0000
1000
0000
0100
0010
0001
0000
0001
0100
0010
1000
0000
0001
0100
0000
,  // measure 23
0010
0000
1000
0100
0000
1000
0100
0000
0010
0000
0001
0100
0001
0100
0001
0000
,  // measure 24
1000
0100
1000
0100
1000
0000
1100
0000
0101
0000
0001
0000
0000
0010
0001
0000
,  // measure 25
1000
0000
0010
1000
0000
0010
1000
0000
0010
0100
0001
1000
0000
0100
0010
0000
,  // measure 26
0001
0000
0000
0000
0000
0000
0100
0000
0000
0000
0000
0000
0010
0000
0000
0100
0000
0000
0002
0000
0000
0000
0000
0000
0003
0000
0000
0000
0000
0000
0010
0000
0000
0000
0100
0000
1000
0000
0000
0000
0100
0000
1000
0000
0000
0000
0001
0000
,  // measure 27
1000
0000
0000
0000
0001
0000
1000
0000
0000
0000
0010
0000
1000
0000
0000
0000
0010
0000
0100
0000
0000
0000
0001
0000
0100
0000
0000
0000
0001
0000
0010
0000
0000
0000
0000
0000
0000
0000
0000
1100
0000
0000
0000
0000
0000
0000
0000
0000
,  // measure 28
0101
0000
0000
1100
0000
0000
2002
0000
3003
0000
0001
0000
1000
0100
1000
0000
,  // measure 29
0001
0000
1000
0100
1000
0000
0020
0000
0030
0000
1000
0000
0001
0100
0001
0000
,  // measure 30
1000
0000
0001
0100
0001
0000
0020
0000
0030
0000
0001
0000
1000
0010
1000
0000
,  // measure 31
0001
0000
0010
0001
0010
0000
0200
0000
0300
0000
1000
0000
0000
0100
0000
0000
,  // measure 32
0001
0000
0010
0100
0000
0000
1000
0100
1000
0100
0010
0000
0001
0100
0001
0000
,  // measure 33
1001
0000
1000
0100
1000
0000
0020
0000
0030
0000
1001
0000
0001
0010
0001
0000
,  // measure 34
1001
0000
1000
0010
1000
0000
0200
0000
0300
0000
0110
0000
0001
0010
0001
0000
,  // measure 35
0110
0000
1000
0100
1000
0000
0002
0000
0003
0000
0001
0000
0000
0100
0000
0000
,  // measure 36
1000
0000
0010
0100
0000
0000
0001
0100
0001
0100
0010
0000
1000
0010
1000
0000
,  // measure 37
0001
0000
1000
0010
1000
0000
0100
1000
0100
0000
0010
0000
0001
0010
0001
0000
,  // measure 38
1000
0000
0001
0010
0001
0000
0200
0000
0300
0000
0010
0000
1000
0001
1000
0000
,  // measure 39
0001
0000
0100
0010
0100
0000
0001
1000
0001
0000
1000
0000
0100
0010
0100
0000
,  // measure 40
0010
0000
0001
1000
0001
0000
0200
0000
0320
0000
1030
0000
0100
1000
0000
0100
,  // measure 41
1000
0001
1000
0001
0100
0000
0001
1000
0100
0000
0010
0100
0000
1000
0100
0000
,  // measure 42
1000
0000
0001
0010
0001
0000
0200
0000
0300
0000
0010
1000
0001
0000
0010
0001
,  // measure 43
1000
0000
0010
1000
0001
0000
0010
0001
1000
0000
0010
0100
0001
0100
0001
0000
,  // measure 44
0010
0100
1000
0100
1000
0000
0000
0000
0000
0000
0110
0000
0010
0001
0010
0000
,  // measure 45
0001
0000
0100
0001
0100
0000
0010
0000
0001
0010
1000
0000
0010
1000
0010
0000
,  // measure 46
1000
0000
0100
1000
0100
0000
1000
0100
0001
0000
0100
0000
1000
0001
1000
0000
,  // measure 47
0010
0000
0100
0010
0100
0000
0001
1000
0001
1000
0010
0000
0100
0000
0010
1000
,  // measure 48
0000
0001
0010
1000
0010
0001
0010
1000
0010
0001
0010
0000
0000
0001
1000
0010
,  // measure 49
1000
0010
0100
0000
0010
0100
0000
0010
0100
0000
0001
0010
0100
1000
0010
0000
,  // measure 50
0001
0000
0010
0000
0100
0000
1000
0000
0020
0030
0000
0000
1000
0000
0010
0000
0000
0000
1000
0000
0010
0000
0000
0000
0100
0000
0000
0000
0001
0000
0010
0000
,  // measure 51
0000
0001
0010
0000
0100
0000
1000
0010
0100
0001
0010
0000
1000
0010
0000
0100
,  // measure 52
0001
0000
0010
0010
0110
0000
0000
0100
1000
0000
0010
0000
0100
0001
0000
0100
,  // measure 53
0001
0000
1000
0100
0010
0001
0000
0100
0001
0000
1000
0000
0001
0000
0010
0001
,  // measure 54
0200
0000
0300
0000
0010
1000
0000
0001
0100
0000
0001
0000
0010
0000
0010
0000
,  // measure 55
0010
0000
0100
1000
0001
0000
0100
0001
1000
0000
0010
0000
1000
0001
0010
0000
,  // measure 56
0100
0010
0100
0010
0100
0000
0000
1000
0010
0000
0100
0000
0001
0010
0000
0100
,  // measure 57
1000
0000
0001
0010
0100
1000
0000
0010
0100
0000
0001
0000
0100
0000
0100
0001
,  // measure 58
0010
0000
0010
0100
1000
0010
0000
0100
0001
0000
1000
0000
0001
0010
0000
0100
,  // measure 59
1000
0000
0001
0100
0010
0100
0010
1000
0001
0000
0010
0100
0010
0001
1000
0000
,  // measure 60
0010
0000
0000
1000
0000
0000
0100
0000
0000
0000
0000
0000
0020
0000
0000
0000
0000
0000
0030
0000
0000
0000
0010
0000
0001
0000
0000
0000
0010
0000
0001
0000
0000
0000
1000
0000
0001
0000
0000
0000
1000
0000
0001
0000
0000
0000
0100
0000
,  // measure 61
0001
0000
0100
0001
0000
0100
0010
0000
1000
0010
0000
1000
0001
0000
1000
0001
0000
1000
0100
0000
1000
0100
0000
0010
,  // measure 62
0100
0000
1000
0001
1000
0000
0000
0101
0000
0000
1100
0000
0000
0101
0000
0000
,  // measure 63
1100
0000
1001
0000
0001
0100
1000
0100
0001
0000
1000
0100
0001
0100
1000
0000
,  // measure 64
0200
0300
0000
0000
0000
0000
0000
0000
;

//---------------dance-single - ----------------
#NOTES:
     dance-single:
     :
     Hard:
     14:
     0.616369,0.686596,0.412423,0.428286,0.448114,544.000000,492.000000,52.000000,54.000000,0.000000,0.000000,0.616369,0.686596,0.412423,0.428286,0.448114,544.000000,492.000000,52.000000,54.000000,0.000000,0.000000:
0000
0000
0000
0000
,
0000
0000
0000
0000
,
0000
0000
0000
0000
,
0000
0000
0000
0000
,
0000
0000
0000
0000
0000
0000
2000
0100
,
3001
2000
0100
3001
0001
0010
0002
0100
,
1003
0002
0100
1003
1001
0000
0001
0100
,
0010
0100
0001
0100
0010
0100
0101
0001
,
0010
1100
1000
0020
0030
0101
1000
0010
,
0101
1000
0010
2000
3000
1100
0001
0010
,
1100
0001
0010
0002
0003
0101
0010
1000
,
1100
0000
0010
0000
0001
0000
0200
0000
0300
0000
0110
0000
0000
0010
0000
0010
,
0100
0000
0100
0001
0000
0001
1000
0000
1000
0000
1001
0000
0000
0001
0010
0000
,
0001
0000
1000
0010
0000
0010
1000
0000
0001
0000
1000
0001
0000
1000
0001
0000
,
1000
0000
0100
0000
0010
0001
0020
0000
0030
0000
0001
1000
0000
1000
0100
0000
,
1000
0000
0001
0100
0000
0100
0001
0000
1000
0000
0100
0010
0100
0010
0100
0000
,
1000
0001
0000
1000
0001
0000
0200
0000
0300
0000
0110
0000
0000
0100
0001
0000
,
0100
0000
0010
1000
0000
1000
0010
0000
0100
0000
0001
1000
0000
0001
1000
0000
,
0010
0000
0100
0000
0001
0010
0002
0000
0003
0000
0010
0100
0000
0100
1000
0000
,
0010
0100
0100
0100
0001
2000
0010
3001
,
2000
0000
0010
0000
3001
0000
2002
0000
3003
0000
0110
0000
0000
0001
0010
0000
,
0100
0000
1000
0100
0000
0100
1000
0000
0001
0000
0100
0010
0000
0100
0010
0000
,
1000
0000
0010
0000
0100
0001
2000
0000
3000
0000
0100
1000
0000
1000
0001
0000
,
0100
0000
0001
0100
0000
0100
0001
0000
1000
0000
0010
0100
0010
0100
0010
0000
,
1000
0001
1000
0001
1000
0000
0200
0000
0300
0000
0110
0000
0000
1000
0100
0000
,
0010
0000
0001
0010
0000
0010
0001
0000
1000
0000
0010
0100
0000
0010
0100
0000
,
0001
0000
0100
0000
0010
1000
0002
0000
0003
0000
0010
0000
1000
0000
0010
0000
,
0001
0000
0010
0000
1000
0000
0010
0000
0001
0000
0100
0000
0000
0101
0000
0000
,
1001
0000
0000
1100
0000
0000
2002
0000
3003
0000
0101
0000
0000
0010
1000
0000
,
0101
0000
0000
0010
1000
0000
0200
0000
0300
0000
1100
0000
0000
0010
0001
0000
,
1100
0000
0000
0010
0001
0000
0200
0000
0300
0000
1010
0000
0000
0100
0001
0000
,
0011
0000
0000
0100
1000
0000
0020
0000
0030
0000
0100
0000
0000
0001
0000
0000
,
0100
0000
0000
1000
0000
0000
0100
0010
1000
0000
1010
0000
0000
0100
0001
0000
,
1010
0000
0000
0100
0001
0000
0020
0000
0030
0000
0011
0000
0000
0100
1000
0000
,
0011
0000
0000
0100
1000
0000
0020
0000
0030
0000
0101
0000
0000
0010
1000
0000
,
1100
0000
0000
0010
0001
0000
0200
0000
0300
0000
0010
0000
0000
1000
0000
0000
,
0010
0000
0000
0001
0000
0000
0010
0100
0002
0000
2003
0000
0100
0000
3001
0000
,
2000
0100
3001
1000
0001
0002
0010
1003
,
0002
0010
1003
2002
3003
2000
0010
3001
,
2000
0010
3001
1000
0001
0002
0100
1003
,
0002
0100
1003
0200
0320
0031
0100
1000
,
0001
0010
1000
0100
1000
0001
0010
1000
,
0001
0100
1000
0200
0300
1000
0100
0010
,
0100
1000
0100
0010
0100
1100
1000
0010
,
0101
0001
0010
0200
0300
1100
1000
0010
,
0101
0001
0010
0200
0300
0011
0001
0100
,
1010
1000
0100
0020
0030
0011
0001
1000
,
1010
0000
1000
0000
0001
0000
0020
0000
0030
0000
0001
0000
1000
0000
1000
0001
,
0000
1000
0001
1000
0001
0100
0010
0100
0010
1000
0001
0000
0000
0010
0100
0000
,
1100
0000
1001
0000
0000
0101
0000
0000
1001
0000
1000
0100
1000
0100
1000
0000
,
0100
1000
0000
0100
1000
0000
0001
0100
0000
0001
0100
0000
0001
0000
1000
0100
,
0000
1000
0100
0000
1000
0000
0001
0100
0001
0100
0001
0000
0100
0001
0000
0100
,
0001
0000
0100
0100
0100
0000
0000
0001
1000
0000
0100
0000
0010
0001
0000
0001
,
0010
0000
0100
0000
1000
0010
0000
1000
0010
0000
0100
0000
1000
0000
0100
0001
,
0200
0000
0300
0000
0100
0001
0000
1000
0001
0000
0010
0000
0100
0000
0100
0000
,
0100
1000
0002
0100
1003
0002
0100
1003
,
2002
0000
3003
0000
0110
0000
0000
0100
0001
0000
1000
0000
0010
0100
0000
0001
,
1000
0000
0100
0000
0010
0001
0000
1000
0100
0000
0010
0000
0001
0000
1000
0001
,
0020
0000
0030
0000
0001
1000
0000
0100
1000
0000
0001
0000
0010
0100
0000
1000
,
0001
0000
0100
0000
0010
0100
0010
0100
0010
0000
1000
0001
1000
0001
1000
0000
,
0100
0010
0220
0330
1000
0010
0001
0010
,
1000
0100
0001
0100
1000
0010
0001
0010
,
2000
0000
3000
0000
1100
0000
0000
1001
0000
0000
0101
0000
0000
1001
0000
0000
,
1100
0000
0100
0000
1000
0000
0100
1000
0001
0000
0100
0000
0100
0001
1000
0000
,
0020
0030
0000
0000
0000
0000
0000
0000
;

//---------------dance-single - ----------------
#NOTES:
     dance-single:
     :
     Medium:
     11:
     0.482671,0.534019,0.277593,0.333111,0.067415,426.000000,391.000000,35.000000,42.000000,0.000000,0.000000,0.482671,0.534019,0.277593,0.333111,0.067415,426.000000,391.000000,35.000000,42.000000,0.000000,0.000000:
0000
0000
0000
0000
,
0000
0000
0000
0000
,
0000
0000
0000
0000
,
0000
0000
0000
0000
,
0000
0000
0000
0000
0000
0000
1000
0100
,
1000
0001
0100
0001
1000
1000
0001
0010
,
0001
1000
0010
1000
0002
0003
0010
0001
,
0010
0001
1000
0100
1000
0100
0010
0001
,
0100
0010
1000
0200
0300
1000
0100
0100
,
1000
0010
0010
2000
3000
0001
0010
0010
,
0001
0100
0100
0002
0003
1000
0100
0100
,
0010
0000
0001
0000
0001
0000
0200
0000
0300
0000
0110
0000
0000
0010
0000
0000
,
1000
0000
0000
0001
0000
0000
0101
0000
0100
0000
0110
0000
0000
1000
0001
0000
,
0000
0100
0001
0100
0000
0010
1000
0010
,
0000
1001
0001
0020
0030
0110
0000
1001
,
0000
1000
0010
1000
0000
0001
0100
0100
,
0010
0000
1000
0000
1000
0000
0200
0000
0300
0000
0110
0000
0000
1000
0001
0000
,
0000
0010
0001
0010
0000
0100
1000
0100
,
0000
1001
1000
0020
0030
0110
0000
1001
,
0000
0001
0010
0001
0000
1000
0010
0010
,
0100
0000
0001
0000
0001
0000
0020
0000
0030
0000
0110
0000
0000
1000
0100
0000
,
0000
1000
0001
1000
0000
0010
0100
0010
,
0000
0001
0010
2000
3000
1001
0000
1010
,
0000
0001
1000
0001
0000
0100
0010
0010
,
1000
0000
0100
0000
0100
0000
0020
0000
0030
0000
0110
0000
0000
0001
0100
0000
,
0000
0001
1000
0001
0000
0010
0100
0010
,
0000
1000
0010
0002
0003
1000
0100
1000
,
0100
0000
0010
0000
0001
0000
0010
0000
0001
0000
0100
0000
0000
0110
0000
0000
,
1000
0000
0000
1001
0000
0000
0220
0000
0330
0000
0001
0000
0010
0000
0010
0000
,
0001
1000
1000
0020
0030
1000
0010
0010
,
1000
0001
0001
0020
0030
0100
1000
1000
,
0001
0000
0010
0000
0010
0000
0002
0000
0003
0000
1000
0000
0000
0100
0000
0000
,
0010
0000
0000
0001
0000
0000
2000
0000
0000
0000
3001
0000
0100
0000
0100
0000
,
0001
1000
1000
0200
0300
1000
0100
0100
,
1000
0001
0001
0200
0300
0010
1000
1000
,
0001
0000
0100
0000
0100
0000
0002
0000
0003
0000
1000
0000
0000
0010
0000
0000
,
0100
0000
0000
0001
0000
0000
0020
0000
0000
0000
0130
0000
1000
0000
0100
0000
,
1000
0001
1000
0010
0010
0100
0001
0100
,
0001
1000
0001
0020
0030
0100
1000
0100
,
1000
0001
0010
0001
0001
0100
0001
0100
,
0001
1000
0010
2000
3200
0310
0001
0010
,
0001
0100
0001
1000
1000
0010
1000
0010
,
1000
0100
1000
0002
0003
0001
0100
0001
,
0100
0010
1000
0010
1000
0100
0010
0001
,
0100
0010
2000
3000
0000
0001
0010
0010
,
1000
0010
0010
0002
0003
1000
0010
0010
,
0001
0010
0010
2000
3000
1000
0100
0100
,
0001
0100
0100
2000
3000
0010
0100
0020
,
0030
0000
0100
0000
0010
0000
0010
0000
0010
0000
0110
0000
0000
1000
0001
0000
,
0100
0000
0110
0000
0000
0110
0000
0000
0110
0000
0001
0000
0010
0000
0010
0000
,
0100
1000
1000
0110
0000
1001
0000
0001
,
1000
0100
0000
1000
0010
0010
0100
0001
,
0001
0000
0010
0010
0010
0000
0000
0000
0110
0000
0000
0000
0001
0000
1000
0000
,
0001
0000
0100
0010
0100
0000
1000
0100
,
0002
0003
1001
0000
1010
0000
0010
0100
,
0010
0000
0100
0001
0001
0010
0100
0100
,
2000
3000
1100
0000
1010
0000
1000
0001
,
1000
0000
0100
0001
0100
0000
0010
0001
,
0200
0300
0101
0000
0011
0000
0001
1000
,
0001
0000
0100
0010
0010
1000
0100
0100
,
0020
0030
0110
0000
0001
0010
0001
0010
,
0100
1000
0100
1000
0001
0100
0001
0100
,
0020
0000
0030
0000
0010
0000
0000
0110
0000
0000
0001
0000
0000
1001
0000
0000
,
0220
0330
0002
0100
1003
2000
0100
3001
,
2002
3003
0000
0000
0000
0000
0000
0000
;

//---------------dance-single - ----------------
#NOTES:
     dance-single:
     :
     Easy:
     6:
     0.250400,0.279724,0.103106,0.380699,0.003966,221.000000,208.000000,13.000000,48.000000,0.000000,0.000000,0.250400,0.279724,0.103106,0.380699,0.003966,221.000000,208.000000,13.000000,48.000000,0.000000,0.000000:
0000
0000
0000
0000
,
0000
0000
0000
0000
,
0000
0000
0000
0000
,
0000
0000
0000
0000
,
0000
0000
0000
1000
,
0100
0010
0010
0001
,
0010
0100
0000
1000
,
0010
0100
0010
1010
,
0000
0101
0000
0000
0000
1000
0000
0100
,
0000
0200
0000
0300
0000
0001
0000
0100
,
0000
0200
0000
0300
0000
1000
0000
0010
,
0000
0020
0000
0030
0000
0110
0000
0000
,
1001
0000
0000
0100
0100
0100
0000
0001
,
0000
0010
0000
0001
0000
0100
0000
0001
,
0000
1000
0000
0020
0000
0030
0000
1000
,
0000
0100
0000
1000
0000
0020
0000
0130
,
0000
0002
0000
1003
0000
1001
0000
1000
,
0000
0100
0000
0010
0000
0100
0000
1000
,
0000
0200
0000
0300
0000
0010
0000
0001
,
0000
1000
0000
1000
0000
0002
0000
0000
,
2000
0000
3003
0000
0000
0100
0000
1000
,
0000
0010
0000
1000
0000
0100
0000
1000
,
0000
0001
0000
0020
0000
0030
0000
0001
,
0000
0100
0000
0001
0000
0020
0000
0130
,
0000
2000
0000
3001
0000
1001
0000
0001
,
0000
0100
0000
0010
0000
0100
0000
0001
,
0000
0200
0000
0300
0000
0010
0000
1000
,
0000
0001
0000
0100
0000
0020
0000
0000
,
0200
0000
0330
0000
0000
0001
0000
0001
,
0010
0000
0100
2000
3000
1000
0000
1000
,
0010
0000
0100
0002
0003
0010
0000
0010
,
0100
0000
0000
0000
1000
0000
0002
0000
0003
0000
0200
0000
0000
0300
0000
0000
,
0020
0000
0000
0030
0000
0000
2000
0000
0000
0000
3001
0000
0000
0000
0001
0000
,
0100
0000
0100
2000
3000
1000
0000
1000
,
0010
0000
0010
0002
0003
1000
0000
1000
,
0100
0000
0000
0000
0100
0000
0002
0000
0003
0000
0020
0000
0000
0030
0000
0000
,
0200
0000
0000
0300
0000
0000
2000
0000
0000
0000
3001
0000
0000
0000
0100
0000
,
0000
0100
0000
0010
0000
1000
0000
0010
,
0000
0100
0000
0000
0000
0001
0000
0010
,
0000
0010
0000
0100
0000
1000
0000
0100
,
0000
0010
0000
0000
0000
1000
0000
0010
,
0000
0100
0000
0100
0000
0001
0000
0100
,
0000
0010
0000
0000
0000
1000
0000
0100
,
0000
0010
0000
0100
0000
2000
0000
0000
,
0002
0000
0000
3003
0000
1000
0000
0100
,
0000
0200
0000
0300
0000
0001
0000
0010
,
0000
0020
0000
0030
0000
0001
0000
0100
,
0000
0200
0000
0300
0000
0220
0000
0330
,
0000
2002
0000
3003
0000
1001
0000
0001
,
0000
0000
0010
0000
0000
0010
0000
0000
0010
0000
0200
0000
0000
0000
0000
0000
,
2000
0000
3300
0000
0000
1001
0000
1000
,
0000
0010
0000
0200
0000
0000
0002
0000
,
0303
0000
0100
0001
,
0010
0001
1000
0200
,
0300
0100
1000
0001
,
0001
0000
2000
0000
0000
0002
0000
3003
,
0000
1001
0001
0010
,
1000
0010
0001
0010
,
0100
1000
0010
0001
,
0010
0000
2000
0000
0000
0002
0000
3003
,
0000
1001
0001
0010
,
0100
1000
0001
0010
,
0000
0000
2000
0000
0000
0002
0000
3003
,
0000
0000
1001
0000
0001
1000
0000
0001
,
2000
3000
0000
0000
0000
0000
0000
0000
;

//---------------dance-single - ----------------
#NOTES:
     dance-single:
     :
     Beginner:
     3:
     0.132565,0.253799,0.055519,0.111037,0.000000,117.000000,110.000000,7.000000,14.000000,0.000000,0.000000,0.132565,0.253799,0.055519,0.111037,0.000000,117.000000,110.000000,7.000000,14.000000,0.000000,0.000000:
0000
0000
0000
0000
,
0000
0000
0000
0000
,
0000
0000
0000
0000
,
0000
0000
0000
0000
,
0000
0000
0000
0000
,
0001
0000
0100
0000
,
0001
0000
0000
0010
,
0000
0010
0000
0200
,
0000
0300
0000
0000
0000
0000
0000
1000
,
0000
1000
0000
0000
0000
0000
0000
0001
,
0000
0001
0000
0000
0000
0000
0000
0100
,
0000
0100
0000
0000
0000
0020
0000
0000
,
0030
0000
0000
0000
0000
0100
0000
0000
,
0000
0001
0000
0000
0000
0100
0000
0000
,
0000
0001
0000
0000
0000
1000
0000
0000
,
0000
0100
0000
0000
0000
2000
0000
0000
,
0000
3000
0000
0000
0000
0010
0000
0000
,
0000
1000
0000
0000
0000
0010
0000
0000
,
0000
1000
0000
0000
0000
0001
0000
0000
,
0000
0010
0000
0010
0000
0020
0000
0000
,
0030
0000
0000
0000
0000
0001
0000
0000
,
0000
0100
0000
0000
0000
0001
0000
0000
,
0000
1000
0000
0000
0000
0010
0000
0000
,
0000
1000
0000
0000
0000
0002
0000
0000
,
0003
0000
0000
0000
0000
1000
0000
0000
,
0000
0100
0000
0000
0000
1000
0000
0000
,
0000
0001
0000
0000
0000
0020
0000
0000
,
0000
0030
0000
0000
0000
0220
0000
0000
,
0330
0000
0000
0000
0000
0001
0000
0000
,
0010
0000
0000
0000
0000
1000
0000
0000
,
0010
0000
0000
0000
0000
0001
0000
0000
,
0100
0000
0000
0000
0000
0010
0000
0000
,
1000
0000
0000
0000
0000
1000
0000
0000
,
0100
0000
0000
0000
0000
0001
0000
0000
,
0100
0000
0000
0000
0000
1000
0000
0000
,
0010
0000
0000
0000
0000
0100
0000
0000
,
0001
0000
0000
0000
0000
1000
0000
0000
,
0000
0100
0000
0000
0000
0010
0000
0000
,
0000
0001
0000
0000
0000
0001
0000
0000
,
0000
0100
0000
0000
0000
0010
0000
0000
,
0000
1000
0000
0000
0000
1000
0000
0000
,
0000
0100
0000
0000
0000
0001
0000
0000
,
0000
0100
0000
0000
0000
1000
0000
0000
,
0000
1000
0000
0000
0000
0002
0000
0000
,
0003
0000
0000
0000
0000
0000
0000
0001
,
0000
0001
0000
0000
0000
0000
0000
1000
,
0000
1000
0000
0000
0000
0000
0000
0010
,
0000
0010
0000
0000
0000
0100
0000
0000
,
0000
0100
0000
0100
0000
0110
0000
0000
,
0000
1001
0000
0000
0000
0001
0000
1000
,
0000
0001
0000
0110
0000
0000
0000
1001
,
0000
0000
0000
1000
0000
0001
0000
1000
,
0000
0000
0000
0001
,
0000
0100
0000
0001
,
0000
1000
0000
0010
,
0000
2000
0000
3000
,
0000
1001
0000
0001
,
0000
0010
0000
0100
,
0000
1000
0000
0010
,
0000
0000
0200
0000
0000
0300
0000
0000
,
0000
0000
0010
0000
,
0010
0000
0010
0000
,
0010
0000
0200
0000
0000
0000
0000
0300
,
0000
2002
0000
0000
,
3003
0000
0000
0000
;
