#TITLE:Set Me Free;
#SUBTITLE:;
#ARTIST:kors k vs BEMANI Sound Team "L.E.D.";
#TITLETRANSLIT:;
#SUBTITLETRANSLIT:;
#ARTISTTRANSLIT:;
#GENRE:;
#CREDIT:;
#BANNER:;
#BACKGROUND:Set Me Free-bg.png;
#LYRICSPATH:;
#CDTITLE:;
#MUSIC:Set Me Free.ogg;
#OFFSET:-0.087000;
#SAMPLESTART:57.028999;
#SAMPLELENGTH:15.000000;
#SELECTABLE:YES;
#BPMS:0.000000=152.000000
;
#STOPS:
;
#BGCHANGES:;
#KEYSOUNDS:;
#ATTACKS:;

//---------------dance-single - ----------------
#NOTES:
     dance-single:
     :
     Hard:
     16:
     0.780064,0.885330,0.712593,0.232007,0.530302,659.000000,573.000000,86.000000,28.000000,0.000000,0.000000,0.780064,0.885330,0.712593,0.232007,0.530302,659.000000,573.000000,86.000000,28.000000,0.000000,0.000000:
// measure 0
0000
0000
0000
0000
,  // measure 1
0000
0000
0000
0000
,  // measure 2
0000
0000
0000
0000
,  // measure 3
0000
0000
0000
0000
,  // measure 4
0000
0000
0011
1100
,  // measure 5
0110
0000
0110
0000
0000
0000
0000
0001
,  // measure 6
2100
0000
3001
0000
0102
0000
1003
0100
,  // measure 7
0000
0000
0010
0100
0000
0000
0010
0100
0000
0000
1000
0010
0000
0000
0100
0001
,  // measure 8
0100
0000
0010
1000
0010
1000
0010
0000
1010
0000
0000
0000
0011
0000
0000
0000
,  // measure 9
0110
0000
0000
0000
1001
0000
1000
0010
0100
0000
0000
0000
1001
0000
0001
0010
,  // measure 10
0100
0000
0000
0000
1010
0000
0010
0100
0001
0000
0000
0000
0011
0000
0010
0100
,  // measure 11
1000
0000
0010
0100
0001
0000
0010
0100
1000
0001
0100
0001
1000
0001
0100
0001
,  // measure 12
0000
0000
0011
0000
0000
1100
0000
0000
0110
0000
0000
0000
0011
0000
1001
0000
,  // measure 13
1010
0000
0010
0100
0010
0000
1000
0001
1000
0000
0001
0100
0010
0000
1000
0000
,  // measure 14
0100
0000
0010
0100
0010
0000
0001
1000
0001
0000
1000
0100
0010
0000
0001
0000
,  // measure 15
0100
0000
0010
1000
0010
0000
1000
0100
1000
0000
0001
1000
0010
0000
0100
0000
,  // measure 16
0001
0000
0010
0001
0000
0010
0001
0000
1000
0000
0010
0000
0001
0000
0010
0000
,  // measure 17
1000
0000
1000
0001
1000
0000
0001
0010
0100
1000
0000
0010
0100
0000
0001
0000
,  // measure 18
0010
0000
0001
1000
0001
0000
1000
0010
0100
0001
0000
0010
0100
0000
0100
0000
,  // measure 19
1000
0000
0010
0100
0010
0000
1000
0010
0100
0001
0000
0010
1000
0000
0010
0000
,  // measure 20
0011
0001
1010
1000
0100
0001
0100
1000
,  // measure 21
1010
0101
1010
1100
,  // measure 22
0011
0000
1100
0000
1001
1001
0101
0000
,  // measure 23
1010
0000
1100
0000
0011
0000
0101
0101
,  // measure 24
0110
0000
1000
0010
0000
1000
0010
0000
0100
0001
0010
0001
0010
0000
0100
0000
,  // measure 25
1100
0110
0110
0000
0101
0000
1100
0000
,  // measure 26
0011
0000
0110
0000
1010
1001
0000
1001
,  // measure 27
0001
0100
0001
0100
0001
0000
0110
0000
1000
0100
1000
0100
0010
0000
0001
0100
,  // measure 28
0010
1000
1100
0000
0101
0100
1010
0010
,  // measure 29
0200
0302
0023
2030
,  // measure 30
3200
0302
0023
2030
,  // measure 31
3200
0320
0032
0203
,  // measure 32
2300
3020
0032
0203
,  // measure 33
0301
0010
0001
0010
0100
1000
0001
0100
,  // measure 34
0010
0100
0010
1000
0001
1000
0100
0010
,  // measure 35
0011
0000
1000
0100
0010
0000
0001
0000
1010
0000
1000
0000
0011
0000
0001
0100
,  // measure 36
0010
0000
0000
0110
0000
0000
0100
0000
0000
0010
0100
0010
0100
0000
0000
0000
0000
0000
0110
0000
0000
1001
0000
0000
,  // measure 37
1001
1000
0100
0001
0100
1000
0010
0200
,  // measure 38
0000
0000
1000
0000
0000
0000
0310
0100
0010
0000
1000
0000
0100
0000
0020
0000
,  // measure 39
0000
0000
1000
0000
0000
0000
0130
0010
0100
0000
1000
0000
0010
0000
0002
0000
,  // measure 40
0000
1000
0000
0013
1000
0001
0010
0100
,  // measure 41
1000
0001
0100
1000
0100
0001
0010
0200
,  // measure 42
0000
0000
0001
0000
0000
0000
1300
0100
1000
0000
0001
0000
0100
0000
0020
0000
,  // measure 43
0000
0000
0001
0000
0000
0000
1030
0010
1000
0000
0001
0000
0010
0000
2000
0000
,  // measure 44
0000
0001
0000
3010
0001
1000
0010
0100
,  // measure 45
0110
0010
1000
0100
1000
0010
0100
1000
,  // measure 46
0100
0000
0001
0000
0100
0000
1000
0100
0010
0000
0100
0000
0010
0000
1000
0000
,  // measure 47
0100
0000
0001
0000
0100
0000
1000
0100
0010
0000
0100
0000
0010
0000
0001
0000
,  // measure 48
0100
1000
0100
0001
0010
1000
0100
0001
,  // measure 49
1001
1000
0001
0100
0001
0010
0100
0001
,  // measure 50
0100
0000
1000
0000
0100
0000
0001
0100
0010
0000
0100
0000
0010
0000
0001
0000
,  // measure 51
0100
0000
1000
0000
0100
0000
0001
0100
0010
0000
0100
0000
0010
0000
1000
0000
,  // measure 52
0100
0001
0100
1000
0010
0001
0100
1000
,  // measure 53
1001
0000
0000
0000
1001
0000
0001
0010
1000
0000
0000
0000
1001
0000
1000
0010
,  // measure 54
0001
0000
0000
0000
1001
0000
0001
0010
1000
0000
0000
0000
1001
0000
1000
0010
,  // measure 55
0001
0000
1000
0100
0001
0000
1000
0010
0100
0010
1000
0001
0010
0100
0010
0001
,  // measure 56
0000
0000
1010
0000
0000
0101
0000
0000
0110
0000
0000
0000
1000
0100
1000
0100
,  // measure 57
0020
0000
0000
0000
0031
0000
1000
0000
0010
1000
0000
0001
0100
0000
0010
0000
,  // measure 58
0100
0000
0001
1000
0000
0100
1000
0000
0010
1000
0000
0001
0010
0100
1000
0000
,  // measure 59
0000
0000
0010
0000
0100
0010
0001
0010
0100
0000
0010
1000
0000
0100
0000
1000
,  // measure 60
0010
0000
0001
0000
1000
0100
0001
0100
1000
0000
0000
0100
0001
0000
0001
0000
,  // measure 61
1000
0000
0100
0010
0000
0001
1000
0000
0100
0010
0000
0001
1000
0000
0010
0000
,  // measure 62
0100
0000
0001
1000
0000
0001
0100
0000
0001
0010
0000
0001
0100
0010
1000
0000
,  // measure 63
0001
0100
0001
0000
1000
0100
1000
0000
0001
0100
0010
0000
1000
0100
0010
0100
,  // measure 64
1000
0000
1100
0000
0000
0011
0000
0000
0210
0000
0000
0000
1300
0010
1000
0010
,  // measure 65
0100
0000
0001
1000
0000
0001
1000
0000
0100
0000
0010
0001
0010
0000
0001
0000
,  // measure 66
1001
0000
1100
0000
1001
0000
0001
0000
0100
0001
0000
0100
0010
0100
0010
0000
,  // measure 67
1000
0000
0100
0001
0000
0100
1000
0000
0001
0100
1000
0100
0001
0000
1000
0000
,  // measure 68
1001
0000
0001
0010
1000
0000
0001
0100
1000
0000
0010
0000
0001
0000
0010
0000
,  // measure 69
1000
0000
1000
0100
0010
0000
0010
0000
1001
0000
0001
0100
0010
0000
0010
0000
,  // measure 70
1001
0000
0000
0000
0000
0000
0101
0000
0000
0000
0000
0000
1001
0000
0000
0000
0000
0000
1000
0000
0000
0000
0000
0000
0100
0000
0010
0000
0100
0000
0010
0000
0000
0001
0000
0000
0000
0000
0000
0010
0000
0000
0001
0000
0000
0000
0000
0000
,  // measure 71
1001
0000
1000
0100
0010
0000
0110
0000
1001
0000
0001
0100
0010
0000
1000
0100
,  // measure 72
0010
0000
0011
0000
0000
1010
0000
0000
0101
0000
0010
0000
1010
0000
0100
0000
,  // measure 73
2002
0000
0000
0000
0000
0000
0000
0000
0000
0000
0000
3003
0000
0000
0000
0000
;

//---------------dance-single - ----------------
#NOTES:
     dance-single:
     :
     Medium:
     13:
     0.578834,0.610572,0.621447,0.215435,0.087003,489.000000,414.000000,75.000000,26.000000,0.000000,0.000000,0.578834,0.610572,0.621447,0.215435,0.087003,489.000000,414.000000,75.000000,26.000000,0.000000,0.000000:
0000
0000
0000
0000
,
0000
0000
0000
0000
,
0000
0000
0000
0000
,
0000
0000
0000
0000
,
0000
0000
1000
0010
,
0110
0000
0110
0000
0000
0000
0000
0001
,
0020
0000
1030
0000
0020
0000
0031
0100
,
0000
0000
0010
1000
0000
0000
0010
1000
0000
0000
0100
0010
0000
0000
0100
0010
,
0001
0001
0100
0010
1010
0000
1001
0000
,
0110
0000
0001
0010
0011
0000
0001
0010
,
0110
0000
1000
0010
1010
0000
1000
0010
,
0110
0001
0010
1000
0010
0001
0010
1000
,
0000
0000
1010
0000
0000
0011
0000
0000
1001
0000
0000
0000
0010
0000
0010
0000
,
0100
0001
0100
0010
0100
0001
1000
0000
,
0100
1000
0100
0010
0100
1000
0001
0000
,
0100
0010
1000
0100
0010
0001
0100
0010
,
0110
0000
0010
0100
0110
0000
1001
0000
,
1100
0100
0110
0000
0001
1000
0010
0000
,
1000
0001
0010
0001
0100
0001
2000
3002
,
0103
0100
0110
0000
1000
0001
0010
0000
,
0100
0001
0100
0100
1000
0100
0010
0000
,
0011
0011
1100
1100
,
0011
0000
1100
0000
1001
1000
1010
0000
,
1010
0000
0101
0000
0101
0000
1010
0010
,
0101
0000
0001
0000
0010
0000
0000
0000
0100
1000
0000
0010
2000
0000
0000
0000
,
3001
0001
0101
0000
0011
0000
0101
0000
,
1010
0000
1100
0000
1010
0010
0000
0100
,
0101
0001
0010
0000
0001
0100
1000
0000
,
0110
0000
1001
0000
0110
0010
0110
0010
,
0200
0001
0010
0001
,
2300
0010
0001
0010
,
3002
0010
1000
0010
,
0203
1000
0010
1000
,
0310
0000
0010
0000
0001
0010
1000
0010
,
0100
0000
0100
0000
1000
0010
0001
0010
,
0100
0001
0101
0000
1000
0100
0010
0100
,
1100
0000
0101
0100
1000
0000
0110
0000
,
0001
0010
0100
1000
0100
0010
0001
0100
,
0000
0100
0000
0200
0000
0310
1000
0100
,
0000
0100
0000
0200
0000
0310
0001
0100
,
0000
0100
0000
0100
0001
0010
0001
0100
,
1000
0100
0010
1000
0100
0010
0001
0010
,
0000
0010
0000
0020
0000
0130
1000
0010
,
0000
0010
0000
0020
0000
0130
0001
0010
,
0000
0010
0000
0001
0010
0100
1000
0100
,
0000
0100
1000
0100
0001
0100
0010
0002
,
0000
0010
0000
2003
0000
3010
0100
0002
,
0000
1000
0000
0023
0000
0130
1000
0002
,
0000
0100
0000
1003
0010
0001
0010
1000
,
0000
1000
0001
0100
1000
0100
0010
2000
,
0000
0010
0000
3002
0000
0013
0100
2000
,
0000
0001
0000
3020
0000
0130
0001
2000
,
0000
0100
0000
3001
0010
1000
0010
0001
,
1001
0000
1000
0010
0110
0000
0001
0010
,
0110
0000
1000
0010
0101
0000
0001
0010
,
1100
0001
0100
1000
0100
0001
0100
1000
,
0000
0000
1100
0000
0000
0101
0000
0000
1001
0000
0000
0000
0010
0000
0010
0000
,
0200
0000
0000
0000
1300
0000
0001
0000
0100
0010
0000
0010
0100
0000
0001
0000
,
1000
0000
0100
0010
0000
0000
0001
0000
0100
0010
0000
0000
0100
0000
0100
0000
,
0000
0001
0100
1000
0100
0001
0010
0001
,
1000
0100
0001
0100
1000
0000
0100
0000
,
0001
0000
1000
0100
0000
0000
1000
0000
0001
0100
0000
0000
0010
0000
0100
0000
,
0001
0000
0010
0001
0000
0000
1000
0000
0010
1000
0000
0000
0010
0000
0100
0000
,
0101
1100
0101
1100
,
0001
0000
0011
0000
0000
1010
0000
0000
1001
0000
0000
0000
0010
0000
0010
0000
,
0100
1000
0001
0100
0010
1000
0001
0001
,
0010
1000
1000
0010
0001
1000
0100
1000
,
0001
0000
0100
0010
0000
0000
0010
0000
1000
0000
0100
0010
0000
0000
0010
0000
,
0011
1010
0011
1100
,
1001
0001
0100
0000
1001
1000
0100
0100
,
0010
0000
0001
0000
1000
0000
0010
0000
0011
0000
0000
1010
0000
0000
1001
0000
,
0001
0010
1000
0000
1000
0010
0001
0000
,
1000
0000
1010
0000
0000
0011
0000
0000
1001
0000
0000
0000
0110
0000
0000
0000
,
2002
0000
0000
0000
0000
0000
0000
0000
0000
0000
0000
3003
0000
0000
0000
0000
;

//---------------dance-single - ----------------
#NOTES:
     dance-single:
     :
     Easy:
     8:
     0.298295,0.427763,0.273437,0.207149,0.008286,252.000000,219.000000,33.000000,25.000000,0.000000,0.000000,0.298295,0.427763,0.273437,0.207149,0.008286,252.000000,219.000000,33.000000,25.000000,0.000000,0.000000:
0000
0000
0000
0000
,
0000
0000
0000
0000
,
0000
0000
0000
0000
,
0000
0000
0000
0000
,
0000
0000
0000
0000
,
0110
0110
0000
0001
,
0010
0010
1000
0000
,
0001
0001
1000
1000
,
0010
0001
0010
0100
,
0101
0000
0001
0000
,
1100
0000
1000
0000
,
0101
1100
0101
1100
,
0000
0000
0010
0000
0000
0010
0000
0000
0110
0000
0000
0000
0000
0000
0000
0000
,
0001
0010
0100
1000
,
1000
0010
0100
0001
,
0010
0001
1000
0010
,
1000
0000
1000
0000
0010
0100
0010
0000
,
1000
0100
0010
0001
,
0001
0100
0010
2000
,
3001
0010
0001
0001
,
1000
0000
1000
0000
0100
0010
0100
0000
,
1000
1000
0001
0001
,
0100
0100
0010
1000
,
0001
0001
1000
1000
,
0100
0010
0001
0000
,
1001
1001
0001
0100
,
0010
0010
1000
0000
,
1000
0100
0001
0100
,
1000
1000
0001
0001
,
0200
0000
0000
0300
,
0020
0000
0000
0030
,
2000
0000
0000
3000
,
0002
0000
0000
0003
,
0010
0001
0010
0001
,
1000
0100
1000
0100
,
0010
0000
0001
0000
,
1001
0000
1001
0000
,
0100
1000
0100
0010
,
0002
0000
0103
0010
,
2000
0000
3100
0010
,
0002
0000
0103
0010
,
0000
0001
0010
0100
,
2000
0000
3010
0100
,
0002
0000
0013
0100
,
2000
0000
3010
0001
,
0000
0010
0100
0001
,
0020
0000
0130
1000
,
0020
0000
0130
0001
,
0020
0000
0130
1000
,
0000
1000
0010
0100
,
0020
0000
0130
0001
,
0020
0000
0130
1000
,
0020
0000
0130
0001
,
0101
0000
0101
0000
,
1100
0000
1100
0000
,
0101
1100
0101
1100
,
0000
0000
0100
0000
0000
0100
0000
0000
0110
0000
0000
0000
0000
0000
0000
0000
,
1001
1000
0010
0001
,
0010
1000
0100
0100
,
0000
1000
0100
0001
,
0010
0001
0100
1000
,
0001
1000
0010
0001
,
0010
1000
0100
0000
,
0001
1000
0001
1000
,
0200
0000
0300
0000
,
0011
0001
0010
0001
,
1010
1000
0010
1000
,
2200
3300
0022
0033
,
1001
1001
1000
0001
,
0100
0100
0010
0010
,
1000
0001
0020
0030
,
0011
0000
1010
0000
,
0110
0000
0001
1000
,
2002
0000
0000
3003
;

//---------------dance-single - ----------------
#NOTES:
     dance-single:
     :
     Beginner:
     3:
     0.160984,0.244436,0.049716,0.124289,0.000000,136.000000,130.000000,6.000000,15.000000,0.000000,0.000000,0.160984,0.244436,0.049716,0.124289,0.000000,136.000000,130.000000,6.000000,15.000000,0.000000,0.000000:
0000
0000
0000
0000
,
0000
0000
0000
0000
,
0000
0000
0000
0000
,
0000
0000
0000
0000
,
0000
0000
0000
0000
,
0100
0100
0000
0000
,
0001
0000
1000
0000
,
0010
0010
0100
0100
,
0000
0001
0000
1000
,
1001
0000
0001
0000
,
0001
0000
0001
0000
,
1000
1000
0001
0001
,
0000
0000
0000
0000
,
0110
0000
0100
0000
,
0010
0000
0100
0000
,
0001
0000
1000
0000
,
0100
0000
0000
0000
,
0110
0000
0010
0000
,
0100
0000
0010
0000
,
0001
0000
1000
0000
,
0020
0000
0030
0000
,
0010
0010
0010
0000
,
1000
1000
1000
0000
,
0001
0001
0001
0000
,
0100
0100
0100
0000
,
0001
0001
0001
0000
,
0010
0010
0010
0000
,
1000
1000
1000
0000
,
0100
0100
0100
0000
,
0020
0000
0000
0000
,
0030
0000
0000
0000
,
0002
0000
0000
0000
,
0003
0000
0000
0000
,
2000
0000
3000
0000
,
0020
0000
0030
0000
,
0100
0000
0100
0000
,
0001
0000
0000
0000
,
0001
0000
0010
0000
,
2000
0000
3000
0000
,
2000
0000
3000
0000
,
1000
0000
0010
0000
,
0001
0000
0100
0000
,
2000
0000
3000
0000
,
2000
0000
3000
0000
,
1000
0000
0100
0000
,
0001
0000
1000
0000
,
0020
0000
0030
0000
,
0020
0000
0030
0000
,
0010
0000
1000
0000
,
0001
0000
1000
0000
,
0200
0000
0300
0000
,
0200
0000
0300
0000
,
0100
0000
1000
0000
,
0001
0000
1000
0000
,
0001
0000
1000
0000
,
0001
1000
0001
1000
,
0000
0000
0000
0000
,
1001
0000
0001
0000
,
0010
0000
0100
0000
,
0000
0001
0000
0100
,
0000
1000
0000
0000
,
1001
0000
1000
0000
,
0010
0000
0001
0000
,
0001
1000
0001
1000
,
0000
0000
0000
0000
,
0010
0010
0010
0000
,
0100
0100
0100
0000
,
0001
0000
1000
0000
,
0100
0100
0100
0100
,
0000
1000
0000
0100
,
0000
0010
0000
0000
,
0001
0000
0001
0000
,
1000
0000
0001
0000
,
2002
0000
0000
3003
;
