#TITLE:SUPER REACTOR;
#SUBTITLE:;
#ARTIST:Kobaryo feat. HiTNEX-X;
#TITLETRANSLIT:;
#SUBTITLETRANSLIT:;
#ARTISTTRANSLIT:;
#GENRE:;
#CREDIT:;
#BANNER:;
#BACKGROUND:SUPER REACTOR-bg.png;
#LYRICSPATH:;
#CDTITLE:;
#MUSIC:SUPER REACTOR.ogg;
#OFFSET:-0.172000;
#SAMPLESTART:96.487999;
#SAMPLELENGTH:10.000000;
#SELECTABLE:YES;
#BPMS:0.000000=152.000000
,44.000000=76.000000
,52.000000=152.000000
,58.000000=76.000000
,59.000000=152.000000
,73.000000=76.000000
,74.000000=152.000000
,80.000000=76.000000
,81.000000=152.000000
,87.000000=76.000000
,88.000000=152.000000
,142.000000=76.000000
,143.000000=152.000000
,157.000000=76.000000
,158.000000=152.000000
;
#STOPS:310.000000=0.197000
;
#BGCHANGES:;
#KEYSOUNDS:;
#ATTACKS:;

//---------------dance-single - ----------------
#NOTES:
     dance-single:
     :
     Hard:
     15:
     0.608223,0.806629,0.388384,0.337088,0.553264,581.000000,528.000000,53.000000,46.000000,0.000000,0.000000,0.608223,0.806629,0.388384,0.337088,0.553264,581.000000,528.000000,53.000000,46.000000,0.000000,0.000000:
0000
0000
0000
0000
,
0000
0000
0000
0000
,
0000
0000
0000
0000
,
0000
0000
0000
0000
,
0000
0000
0000
0000
,
1000
1000
0001
0001
,
0010
0000
0001
1000
0000
0010
0000
1000
0001
0000
1000
0001
0200
0000
0320
0000
,
1030
0001
1000
0000
0001
0100
0001
0000
1000
0100
1000
0000
0002
0000
0000
0013
,
0100
1000
0020
0000
0130
0100
0001
0001
,
2000
0000
0000
0000
,
0001
0000
0001
0000
3001
0010
0100
1000
,
2001
0000
0000
0000
3020
0000
0000
0000
0130
0000
1000
0100
0000
0100
0001
0000
0200
0000
0000
0000
0000
0000
0000
0000
0310
0000
1000
0000
0001
0000
1000
0000
,
0100
0000
0100
0010
0002
0000
0203
0000
0320
0000
0000
0000
1030
0100
0001
0100
,
1000
0011
1100
0011
,
0101
0000
0000
0000
1010
0000
0000
0000
0001
0100
0010
0100
0001
0000
1001
0000
,
0000
1100
0000
0000
0101
0000
0000
0110
0000
0000
1002
0000
0000
0000
0000
0000
,
0000
0000
0000
0000
0013
0000
1000
0000
0010
0000
0000
0000
0110
0000
0100
1000
,
0000
0100
1000
0000
0001
0000
1000
0010
0000
0010
1000
0000
0100
0000
0010
0001
,
0000
0010
0001
0000
0100
0100
0010
0010
1000
0000
0010
1000
0000
0010
1000
0000
,
0001
0000
0010
0001
0000
0001
0010
0000
0001
0000
0100
0001
0000
0100
0001
0000
,
0010
1000
0010
0001
0010
0000
0001
0010
0001
0000
0010
0100
0010
0000
0100
1000
,
0100
0000
1000
0010
1000
0000
0010
0100
0010
0000
0100
0001
0100
0100
0010
0010
,
1000
0000
1001
0000
0000
0101
0000
0000
1100
0000
0000
0110
0000
0000
2001
0000
,
0000
0000
0000
0000
3010
0001
0010
0000
,
0210
0001
1000
0010
,
0302
1000
0010
0100
,
2003
0100
0001
0010
,
3200
1000
0001
0310
,
0001
0100
1000
0010
,
0001
0010
1000
0100
,
0110
0110
1001
1001
,
0200
0000
0020
0000
,
0330
0000
0000
0000
,
0000
0000
0000
0000
0000
0000
0000
1001
0000
0000
0011
0000
0000
1010
0000
0000
,
0110
0000
0100
0000
0002
0000
0000
1003
0000
0000
0010
0100
0001
0100
0001
0100
,
0010
0000
0000
1000
0000
0000
1000
0000
0000
0001
0000
0000
0020
0000
0000
0000
0000
0000
0130
0000
1000
0000
0100
0000
,
1000
0000
0000
0000
0010
0000
0000
0000
1000
0000
0000
0000
0001
0000
0000
0000
0010
0000
0000
0000
0001
0000
0000
0000
0100
0000
0000
0000
0001
0000
0000
0000
0100
0000
0000
0000
0010
0000
0000
0000
0000
0000
1000
0000
0000
0010
0000
0000
,
0000
1000
0001
0000
1000
0010
0000
0100
0001
0000
0010
0000
0110
0000
0100
0000
,
2000
0000
0000
3001
0000
0000
0010
0100
1000
0100
1000
0100
0010
0000
0001
0000
,
0001
0000
0000
1000
0000
0000
0020
0000
0000
0000
0000
0000
0130
0000
0001
0000
0100
0000
0001
0000
0010
0000
0001
0000
,
1000
0000
0010
0000
1000
0000
0100
0000
1000
0000
0100
0000
0020
0000
0000
0000
0000
0000
0001
0000
0000
0031
0000
0000
,
1000
0010
0100
0001
2002
0000
0000
0000
,
0000
0000
0000
0000
,
3003
0000
0000
0000
0000
1000
0010
0100
,
0010
0000
0000
1000
0000
0000
0002
0000
0000
0000
1003
0000
0100
0000
0000
0020
,
0000
0000
0000
0000
0030
0000
0000
0000
0110
0000
0000
0000
0001
0000
0010
0100
,
0000
0010
0100
0000
1000
0000
0001
0000
0000
0100
0010
0000
1000
0000
0010
0100
,
0000
0010
0100
0000
0001
0000
1000
0000
0010
0000
1000
0000
0100
0000
0010
0000
,
0100
0000
0000
1000
0000
0000
0020
0000
0000
0000
0130
0000
0001
0000
0000
2000
,
0000
0000
0000
0000
3000
0000
0000
0000
2010
0000
0000
0000
3001
0000
1000
0010
,
0000
1000
0010
0000
0100
0000
0001
0000
0000
0000
0001
0010
0001
0000
1000
0100
,
0000
1000
0001
0000
1000
0000
0010
0000
0200
0000
0000
0000
1000
0000
0000
0000
,
0010
0000
0000
0000
0301
0000
0000
0000
0001
0000
0001
0000
1000
0100
0010
0100
,
0010
0000
0001
0000
0010
0000
0000
0000
0012
0000
0000
0000
1003
0000
0001
0010
,
0000
0001
0010
0000
0100
0000
1000
0000
0000
0000
1000
0010
1000
0000
0001
0100
,
0000
0001
1000
0000
0001
0000
0010
0000
0001
0100
0001
0000
1000
0100
1000
0000
,
0001
0010
0001
0000
1000
0010
1000
0000
0020
0000
0000
0000
0100
0000
0000
0000
,
0130
0000
0010
0000
0110
0000
0000
0000
0001
0100
0001
0000
1000
0000
0010
0100
,
0000
0100
0001
0000
0010
0000
0100
0000
0000
0000
0100
0010
0100
0000
1000
0001
,
0000
0100
0001
0000
1000
0000
0010
0000
0200
0000
0000
0000
0001
0000
0000
0000
,
0310
1000
1010
0000
1000
0100
1100
0000
,
0001
0000
0010
0000
0011
0000
0000
0000
1000
0100
1000
0000
0001
0000
0010
0100
,
0000
0100
1000
0000
0010
0000
0100
0000
0000
0000
0100
0010
0100
0000
0001
1000
,
0000
0100
1000
0000
0001
0000
0010
0000
0200
0000
0000
0000
1000
0000
0000
0000
,
0310
0000
0001
0000
0011
0000
0000
0000
0001
0000
0010
0000
1000
0010
0001
0010
,
0001
0000
1000
0000
1001
0000
0000
0000
0001
0000
0101
0000
0000
1100
0000
0000
,
1010
0000
0000
1001
0000
0000
0011
0000
0010
0000
0001
1000
0000
0010
0000
1000
,
0001
0000
1000
0001
0200
0000
0320
0000
1030
0000
1100
0000
0000
0101
0000
0000
,
0011
0000
0000
1001
0000
0000
1010
0000
0010
0000
1000
0010
0000
1000
0100
0000
,
1000
0000
0001
1000
0020
0000
0230
0000
0301
0010
0001
0000
1000
0000
0100
0010
,
0000
0010
0001
0000
1000
0000
0010
0000
0001
0100
0001
0000
1000
0000
0010
0100
,
0000
0100
0001
0000
0010
0000
0100
0000
2000
0000
0000
0000
0010
0000
0002
0000
,
0000
3003
0201
0010
,
0310
0000
1000
0000
1001
0000
0000
0000
1000
0100
1000
0000
0100
0010
0100
0000
,
0010
0001
0010
0000
0001
1000
0001
0000
1000
0010
1000
0000
0010
0100
0010
0000
,
0100
0001
0100
0001
1000
0010
1000
0010
0200
0000
0301
0000
1001
0000
1000
0000
,
1100
0000
0100
0000
0110
0000
0010
0000
0001
0010
0001
0010
0001
0100
0010
1000
,
0010
1000
0100
0010
0001
0100
0010
1000
0000
0000
2002
0000
0000
0000
0000
0000
,
0000
0000
0000
0000
0000
3003
0000
0000
;

//---------------dance-single - ----------------
#NOTES:
     dance-single:
     :
     Challenge:
     16:
     0.710815,0.921862,0.351744,0.344416,0.824399,679.000000,631.000000,48.000000,47.000000,36.000000,0.000000,0.710815,0.921862,0.351744,0.344416,0.824399,679.000000,631.000000,48.000000,47.000000,36.000000,0.000000:
// measure 0
0000
0000
0000
0000
,  // measure 1
0000
0000
0000
0000
,  // measure 2
0000
0000
0000
0000
,  // measure 3
0000
0000
0000
0000
,  // measure 4
0000
0000
0000
0000
,  // measure 5
0001
0001
1000
1000
,  // measure 6
0010
0000
0010
0100
0000
0010
0000
0100
0010
0000
1000
0100
0020
0000
0001
0000
,  // measure 7
0130
1000
0100
1000
0001
0010
0001
0010
0100
1000
0100
0010
0002
0000
0000
0103
,  // measure 8
0010
0000
0100
0000
0020
0000
0000
0000
1030
0001
1000
0001
0100
0010
0100
0010
,  // measure 9
2000
0000
0000
0000
,  // measure 10
0001
0000
0001
0000
3001
0010
0100
1000
,  // measure 11
1002
0000
0000
0000
0203
0000
0000
0000
0310
0000
0001
0010
0000
0100
0010
0000
2000
0000
0000
0000
0000
0000
0000
0000
3100
0000
0001
0000
0100
0000
1000
0000
,  // measure 12
1100
0000
0000
0000
0000
0000
0000
0000
0000
0000
0000
0000
0000
0000
0000
0000
0000
0000
0000
0000
0000
0000
0000
0000
0101
0000
0000
0000
0000
0000
0000
0000
0000
0000
0000
0000
0100
0000
0000
0000
0000
0000
0000
0000
0000
0000
0000
0000
0002
0000
0000
0000
0000
0000
0000
0000
0000
0000
0000
0000
0000
0000
0000
0000
0000
0000
0000
0000
0000
0000
0000
0000
0023
0000
0000
0000
0000
0000
0000
0000
0000
0000
0000
0000
0000
0000
0000
0000
0000
0000
0000
0000
0000
0000
0000
0000
0031
0000
0000
0000
0000
0000
0100
0000
0000
0000
0000
0000
0010
0000
0000
0000
0000
0000
1000
0000
0000
0000
0000
0000
0100
0000
0000
0000
0000
0000
0000
0000
0010
0000
0000
0000
0000
0000
0000
0000
0001
0000
0000
0000
0000
0000
0000
0000
0200
0000
0000
0000
0000
0000
0000
0000
0000
0000
0000
0000
0000
0000
0000
0000
0000
0000
0000
0000
0000
0000
0000
0000
1300
0000
0000
0000
0000
0000
0100
0000
0000
0000
0000
0000
0000
0000
0000
0000
0000
0000
0100
0000
0000
0000
0000
0000
,  // measure 13
0001
MMMM
1010
MMMM
0101
MMMM
1010
MMMM
,  // measure 14
0011
0000
MMMM
0000
1100
0000
MMMM
0000
0011
0010
0001
0100
0010
0000
0110
0000
,  // measure 15
0000
1001
0000
0000
0101
0000
0000
0011
0000
0000
2010
0000
0000
0000
0000
0000
,  // measure 16
0000
0000
0000
0000
3001
0010
0001
0000
1000
0010
1000
0000
0001
0000
0010
0001
,  // measure 17
0000
0010
0100
0000
1000
0001
1000
0001
0000
0100
1000
0100
0010
0000
0100
0001
,  // measure 18
0000
1000
0001
0000
2000
0100
3002
0010
1003
0000
0100
1000
0000
0100
0010
0000
,  // measure 19
0001
1000
0001
1000
0000
0010
0001
0010
0100
0000
0001
0100
0000
0001
1000
0000
,  // measure 20
1010
0010
0101
0100
1001
0000
0001
1000
0100
0000
1000
0001
0100
0000
0010
1000
,  // measure 21
0001
0000
0010
0001
1000
0000
0010
0100
0001
0000
0010
0100
1000
0010
1000
0100
,  // measure 22
0010
0000
0110
0000
0000
1001
0000
0000
1100
0000
0000
1010
0000
0000
0012
0000
,  // measure 23
0000
0000
0000
0000
0000
0000
0000
0000
1003
0010
1000
0000
0001
1000
0001
0000
,  // measure 24
0021
0001
0100
0001
,  // measure 25
0230
2300
3020
0032
,  // measure 26
0023
1000
0100
1000
,  // measure 27
0130
0001
0100
0010
1000
0010
1000
0100
0010
0001
0010
0100
,  // measure 28
2000
0001
0010
3100
,  // measure 29
0102
1000
0010
0103
,  // measure 30
0110
1001
0110
1001
,  // measure 31
0001
0000
0100
0000
0010
0000
0100
0001
0000
0100
0001
0000
1001
0000
1000
0000
,  // measure 32
1100
0000
0000
0000
,  // measure 33
0000
0000
0000
0000
0000
0000
0000
1001
0000
1000
0001
0000
1000
0001
0000
1000
,  // measure 34
0100
0000
0100
0000
0120
0000
0000
0031
0000
1000
0010
0100
0010
1000
0001
0100
,  // measure 35
0010
0000
0000
1000
0000
0000
1001
0000
0000
0001
0000
0000
0200
0000
0000
0000
0000
0000
0310
0000
1000
0000
0001
0000
,  // measure 36
0010
0000
0000
0000
1000
0000
0000
0000
0010
0000
0000
0000
0100
0000
0000
0000
1000
0000
0000
0000
0010
0000
0000
0000
0001
0000
0000
0000
1000
0000
0000
0000
0100
0000
0000
0000
0002
0000
0000
0000
0000
0000
0013
0000
0000
0002
0000
0000
,  // measure 37
0000
0103
0002
0000
0013
0002
0000
0103
0010
0000
1000
0000
0001
0000
0100
0000
,  // measure 38
0120
0000
0000
1030
0000
0001
0010
0100
0010
0001
1000
0100
0010
0000
0001
0000
,  // measure 39
1001
0000
0000
1000
0000
0000
0200
0000
0000
0000
0000
0000
1300
0000
0010
0000
0001
0000
1000
0000
0100
0000
0010
0000
,  // measure 40
1000
0000
0000
0000
0001
0000
0000
0000
0010
0000
0000
0000
1000
0000
0000
0000
0010
0000
0000
0000
0100
0000
0000
0000
2000
0000
0000
0000
0000
0000
0000
0000
0000
0000
0000
0000
3010
0000
0000
0000
0000
0000
0010
0000
0000
0100
0000
0000
,  // measure 41
0001
0001
0010
0100
2100
0000
0000
0000
,  // measure 42
0000
0000
0000
0000
,  // measure 43
3000
0000
0000
0000
0100
1000
0001
0010
,  // measure 44
0100
0000
0000
1000
0000
0000
0020
0000
0000
0000
0130
0000
0100
0001
0000
2000
,  // measure 45
0000
0000
0000
0000
3000
0000
0000
0000
1001
0000
0000
0000
0001
0000
0100
0010
,  // measure 46
0000
1000
0001
0000
0100
0000
1000
0000
0100
0001
0100
0000
0001
0000
0010
0100
,  // measure 47
0000
1000
0001
0000
0010
0000
1000
0000
0010
0000
0001
0000
1000
0000
0100
0000
,  // measure 48
0010
0000
0000
0001
0000
0000
0200
0000
0000
0000
0310
0000
0010
1000
0000
0002
,  // measure 49
0000
0000
0000
0000
0013
0000
0010
0000
0100
1000
0100
0000
0010
0000
0001
1000
,  // measure 50
0000
1000
0001
0000
0100
0000
0010
0000
0100
0001
0100
0000
0010
0000
1000
0001
,  // measure 51
0000
0001
1000
0000
0100
0000
0001
0000
0100
0000
0100
0000
1000
0000
0001
0000
,  // measure 52
0100
0000
0000
0010
0000
0000
0002
0000
0000
0000
1003
0000
0100
0010
0100
0010
,  // measure 53
1000
0000
0001
0000
0010
0000
0100
0000
0010
0100
0010
0000
0100
0000
0100
0010
,  // measure 54
0000
0010
0100
0000
1000
0001
1000
0000
0010
0100
0010
0000
0100
0000
0100
0010
,  // measure 55
0000
0010
0100
0000
0001
0100
0010
0000
1000
0001
1000
0001
0100
0010
0100
0010
,  // measure 56
1000
0001
0100
0010
1000
0001
0100
0010
2000
0000
0000
0000
0001
0000
0000
0000
,  // measure 57
3001
0000
0010
0000
0110
0000
MMMM
0000
1000
0001
0010
0000
0100
0000
1000
0100
,  // measure 58
0000
0010
0001
0000
0100
0000
0010
0000
1000
0010
1000
0001
1000
0000
0010
0100
,  // measure 59
0000
0010
0001
0000
1000
0000
0100
0000
0001
0000
0001
0000
0010
0000
0001
0000
,  // measure 60
0100
0000
0000
0010
0000
0000
2000
0000
0000
0000
3010
0000
0010
0100
0000
0002
,  // measure 61
0000
0000
0100
0000
0103
0000
0000
0000
0001
1000
0010
0000
0100
0000
0001
0100
,  // measure 62
0000
0010
1000
0000
0100
0000
0010
0000
0001
0010
0001
1000
0001
0000
0010
0100
,  // measure 63
0000
0010
1000
0000
0001
0000
0100
0000
1000
0000
1000
0000
0010
0000
1000
0000
,  // measure 64
0100
0000
0000
0010
0000
0000
0002
0000
0000
0000
0013
0000
0010
0100
0000
2000
,  // measure 65
0000
0000
0100
0000
3100
0000
MMMM
0000
0001
0010
0001
0010
0100
1000
0001
1000
,  // measure 66
0001
0010
0100
1000
0001
0100
0010
1000
0010
0000
0010
0100
0000
0010
0000
0100
,  // measure 67
0010
0000
0010
0100
0000
0000
0110
0000
1000
0010
1000
0010
0100
0001
1000
0001
,  // measure 68
1000
0010
0100
0001
1000
0100
0010
0001
0010
0000
0100
0010
0000
0010
0100
0000
,  // measure 69
0010
0000
0010
0100
1000
0000
1000
0000
0001
0100
0010
0100
1000
0000
0100
0001
,  // measure 70
0000
1000
0010
0000
0100
0000
0001
0000
1000
0100
0010
0100
0001
0000
0100
1000
,  // measure 71
0000
0001
0010
0000
0001
0000
0100
0000
0010
1000
0010
1000
0001
0100
0001
0100
,  // measure 72
0010
1000
0001
0100
0010
1000
0001
0010
0200
0000
0000
0000
0010
0000
0000
0000
,  // measure 73
0310
0000
0001
0000
1001
0000
MMMM
0000
1010
0000
0010
0000
0100
0001
0100
0000
,  // measure 74
0001
0010
0001
0010
0001
1000
0010
1000
0010
0000
0100
0001
0100
0010
1000
0010
,  // measure 75
1000
0001
1000
0010
0100
0001
1000
0200
0000
0000
0310
0000
0011
0000
1001
0000
,  // measure 76
1010
0000
0110
0000
0101
0000
1001
0000
1000
0100
1000
0100
0010
0001
0010
0100
,  // measure 77
1000
0000
0000
0001
0000
0000
0100
0000
0000
0010
0000
0000
0200
0000
0000
0000
0000
0000
0000
0000
0000
0000
0000
0000
0000
0300
0000
0000
0000
0000
2002
0000
0000
0000
0000
0000
0000
0000
0000
0000
0000
0000
0000
0000
0000
0000
0000
0000
,  // measure 78
0000
0000
0000
0000
0000
3003
0000
0000
;

//---------------dance-single - ----------------
#NOTES:
     dance-single:
     :
     Medium:
     12:
     0.459570,0.604972,0.461664,0.381056,0.153888,439.000000,376.000000,63.000000,52.000000,0.000000,0.000000,0.459570,0.604972,0.461664,0.381056,0.153888,439.000000,376.000000,63.000000,52.000000,0.000000,0.000000:
0000
0000
0000
0000
,
0000
0000
0000
0000
,
0000
0000
0000
0000
,
0000
0000
0000
0000
,
0000
0000
0000
0000
,
0001
0001
1000
1000
,
0010
0000
0000
1000
0000
1001
0000
0000
0001
0000
0000
0001
0200
0000
0320
0000
,
1030
0010
1000
0001
0100
0001
0020
0000
,
0130
1000
0200
0000
0301
0100
1000
0100
,
0020
0000
0000
0000
,
0100
0000
0130
0000
0100
1000
0001
0100
,
0120
0000
0000
0000
0000
0000
0000
0000
2030
0000
0000
0001
0000
0000
0001
0000
3200
0000
0000
0000
0000
0000
0000
0000
0310
0000
0000
0000
0001
0000
0000
0000
,
1001
1000
0100
0001
0200
0000
1300
0001
,
1001
1001
0110
0110
,
1001
0000
0000
0000
0110
0000
0000
0000
0001
1000
0100
1000
0100
0000
0110
0000
,
0000
0110
0000
0000
1001
0000
0000
1100
0000
0000
2001
0000
0000
0000
0000
0000
,
0000
0000
0000
0000
3010
0000
0010
0000
0100
0000
0000
0000
0100
0000
0000
0001
,
0000
0000
0100
0000
0010
0000
1000
0000
0001
0000
1000
0000
0100
0000
0000
1000
,
0000
0000
0100
0000
0010
0000
0010
0000
0010
0000
0000
0001
0000
0000
0010
0000
,
0100
0000
0001
0000
0100
0000
1000
0000
0100
0000
0000
1000
0000
0000
0001
0000
,
0100
0000
0100
0000
0100
0000
0000
0100
0010
0000
0000
0010
1000
0000
0000
1000
,
0100
0000
0000
0100
0010
0000
0000
0010
0001
0000
0000
0001
0100
0000
0100
0000
,
0100
0000
0110
0000
0000
0110
0000
0000
1001
0000
0000
0101
0000
0000
1002
0000
,
0000
0000
0000
0000
0103
0010
0100
0000
,
2001
0000
3200
0000
,
2300
0010
0001
0100
,
3002
0000
0203
0000
,
0302
0010
1000
0100
,
1003
1000
0001
0001
,
0010
0010
0100
0100
,
1000
1001
0010
0110
,
0200
0000
0020
0000
,
0330
0000
0000
0000
,
0000
0000
0000
0000
0000
0000
0000
1001
0000
0000
1001
0000
0000
1001
0000
0000
,
1000
0010
0200
0000
0300
0001
0100
1000
,
0100
0000
0000
0001
0000
0000
0001
0000
0000
1000
0000
0000
0200
0000
0000
0000
0000
0000
0310
0000
0001
0000
0010
0000
,
0001
0000
0000
0000
0000
0000
0000
0000
0000
0000
0000
0000
1000
0000
0000
0000
0100
0000
0000
0000
1000
0000
0000
0000
0100
0000
0000
0000
0000
0000
0000
0000
0000
0000
0000
0000
1010
0000
0000
0000
0000
0000
0000
0000
0000
1010
0000
0000
,
0000
0000
0101
0000
0000
0101
0000
0000
0001
0000
0010
0000
0001
0000
0010
0000
,
0200
0000
0300
1000
0100
0001
0100
1000
,
1000
0000
0000
0001
0000
0000
0200
0000
0000
0000
0000
0000
0310
0000
1000
0000
0010
0000
1000
0000
0000
0000
0000
0000
,
0001
0000
0100
0000
0001
0000
0100
0000
0000
0000
0000
0000
0012
0000
0000
0000
0000
0000
1003
0000
0000
0001
0000
0000
,
0010
0100
0010
0000
2002
0000
0000
0000
,
0000
0000
0000
0000
,
0000
0000
3003
0000
,
0000
0000
0000
0000
,
0000
0000
2000
0010
,
0010
3010
0002
0010
,
0010
0013
0200
1000
,
0010
0310
0020
0001
,
0130
0010
0100
0010
0011
0000
0001
0010
,
0001
1000
0001
0000
1010
0000
1000
0010
,
1000
0001
1000
0000
0101
0000
0001
1000
,
0001
0010
0001
0000
1100
0000
1000
0001
,
1000
0010
1000
0000
0120
0000
1030
0010
,
1000
0001
0010
0100
0210
0000
1300
0100
,
1000
0001
0100
0010
0110
0100
0001
1000
,
0001
0010
1000
0010
0002
0000
1000
0000
,
1003
0001
1001
0000
0110
0000
0100
0010
,
0100
0001
0010
0000
0110
0000
0100
0010
,
0100
1000
0010
0000
0200
0000
0001
0000
,
0320
0000
1000
0000
0130
0001
0100
0001
,
2000
0000
3000
0000
1010
0000
0001
0100
,
0010
0100
0001
0000
0011
0000
1000
0100
,
0010
0100
1000
0000
0002
0000
0010
0000
,
2003
0000
0100
0000
3001
0010
1000
0010
,
0001
0000
1000
0000
1001
0000
0000
0000
0001
0000
0101
0000
0000
0110
0000
0000
,
1001
0000
0000
2002
0000
0000
3003
0000
1000
0000
0000
0100
0000
0110
0000
0000
,
0010
0000
0000
0001
1000
0000
0001
0000
1000
0000
1010
0000
0000
0110
0000
0000
,
1001
0000
0000
2002
0000
0000
3003
0000
0001
0000
0000
0010
0000
0000
0100
0000
,
0010
0000
0000
0001
2000
0000
3002
0000
0103
0000
1000
0000
0100
0000
0010
0000
,
0100
0001
1000
0000
0100
0001
0100
0010
,
0100
1000
0001
0100
0020
0000
0000
0200
,
0000
0330
2000
0001
,
3001
1000
2002
3003
0101
0000
1010
0000
,
0101
0110
1010
1001
,
1100
0000
0110
0000
0020
0031
0010
1000
,
0010
0001
0010
0100
1000
0010
0001
1000
,
0100
0001
0100
0010
0000
2002
0000
0000
,
0000
0000
0000
0000
0000
3003
0000
0000
;

//---------------dance-single - ----------------
#NOTES:
     dance-single:
     :
     Easy:
     7:
     0.243918,0.345698,0.175872,0.359072,0.000000,233.000000,209.000000,24.000000,49.000000,0.000000,0.000000,0.243918,0.345698,0.175872,0.359072,0.000000,233.000000,209.000000,24.000000,49.000000,0.000000,0.000000:
0000
0000
0000
0000
,
0000
0000
0000
0000
,
0000
0000
0000
0000
,
0000
0000
0000
0000
,
0000
0000
0000
0000
,
1000
1000
0001
0001
,
0010
1000
0010
0002
,
1003
0010
0001
0020
,
1030
0000
0101
0001
,
2002
0000
0000
0000
,
3000
0000
1003
0100
,
0120
0032
2003
3000
,
0020
1000
2030
0001
3002
0000
0003
0000
,
0001
0001
1000
1000
,
1001
0000
1001
0000
0001
0200
0010
0000
,
0000
0000
0302
0000
0000
2000
0000
0000
,
0000
3003
0000
0001
,
0010
0100
1000
0001
,
0010
0100
1000
0010
,
0100
0001
1000
0010
,
0100
0001
0001
0010
,
0010
0100
0100
2000
,
3002
0000
0000
0000
0203
0000
0000
0020
,
0000
0000
0330
0000
,
0020
0000
0230
0000
,
0302
0000
0203
0000
,
0320
0000
2030
0000
,
3020
0000
0230
0000
,
0301
0010
0001
0000
,
1000
0100
1000
0000
,
1001
0000
0110
0000
,
2002
0000
0000
0000
,
3003
0000
0000
0000
,
0000
0000
0000
0000
,
0001
0010
0200
0300
,
1000
0100
0020
0031
,
0001
0000
1000
0000
1000
0000
0020
0030
,
0000
0020
0030
0000
0010
0000
1000
0000
,
0010
0100
0000
0001
,
0100
0020
1030
1000
,
0001
0001
0020
0100
,
0130
0000
2002
0000
,
0000
0000
0000
0000
,
0000
0000
3003
0000
,
0000
0000
0000
0000
,
0000
0000
0002
0000
,
1000
0000
0100
0000
,
0010
0000
2003
0000
,
0100
0000
0001
0000
,
3010
0010
0110
0001
,
0001
0001
0110
1000
,
1000
1000
1100
0100
,
0010
0001
0101
0100
,
0020
0030
1002
0100
,
0103
0001
2001
0100
,
3100
1000
0001
0001
,
0010
0010
0200
0000
,
0310
0110
0011
0010
,
0100
1000
0100
0001
,
0100
1000
0002
0000
,
0100
0000
2003
0000
,
3010
0000
1010
0010
,
0100
0001
0100
1000
,
0100
0001
2000
0000
,
0100
0000
3002
0000
,
0013
0000
1100
0000
,
0101
0000
0001
0100
,
1000
0100
0101
0000
,
1100
0000
1000
0100
,
0001
0100
1100
0100
,
0010
0001
0010
1000
,
0010
0001
2000
0000
,
0010
0000
3002
0000
,
0103
0000
0010
0010
,
0010
0010
0100
0100
,
0100
0100
0001
0010
,
1000
0100
0001
0010
,
1000
0000
0100
0000
0000
2002
0000
0000
,
0000
0000
0000
0000
0000
3003
0000
0000
;

//---------------dance-single - ----------------
#NOTES:
     dance-single:
     :
     Beginner:
     3:
     0.135044,0.230465,0.043968,0.263808,0.000000,129.000000,123.000000,6.000000,36.000000,0.000000,0.000000,0.135044,0.230465,0.043968,0.263808,0.000000,129.000000,123.000000,6.000000,36.000000,0.000000,0.000000:
0000
0000
0000
0000
,
0000
0000
0000
0000
,
0000
0000
0000
0000
,
0000
0000
0000
0000
,
0000
0000
0000
0000
,
0001
0000
0001
0000
,
1000
0000
1000
0000
,
0001
0100
0001
0000
,
1000
0000
0100
0000
,
0020
0000
0000
0000
,
0030
0000
0000
0000
,
0220
0330
2002
3003
,
0220
0330
0002
0003
,
1000
0001
1000
0001
,
1000
0001
2000
3000
,
0000
0000
0020
0000
0000
0030
0000
0000
,
0000
0000
0000
0100
,
0000
0001
0000
1000
,
0000
0020
0030
0000
,
1000
0000
0001
0000
,
0200
0301
0001
0001
,
0001
1000
1000
2000
,
3000
0000
0000
0000
0200
0000
0000
0300
,
0000
0000
0000
0000
,
0002
0000
0000
0000
,
0003
0000
0000
0000
,
0020
0000
0000
0000
,
0030
0000
0000
0000
,
2000
0000
0000
0000
,
3000
0000
0000
0000
,
0100
0100
0100
0100
,
0200
0000
0000
0000
,
0300
0000
0000
0000
,
0000
0000
0000
0000
,
0001
0000
1000
0000
,
0001
0000
0020
0030
,
0000
0100
0000
2000
,
0000
3000
0000
0000
0000
0000
1000
0000
,
0000
0001
0000
1000
,
0000
0020
0030
0000
,
0100
0000
0002
0000
,
0003
0000
2002
0000
,
0000
0000
0000
0000
,
0000
0000
3003
0000
,
0000
0000
0000
0000
,
0000
0000
2000
0000
,
3000
0000
0020
0000
,
0030
0000
0200
0000
,
0300
0000
0002
0000
,
0003
0000
1000
0010
,
1000
0000
0001
0100
,
0001
0000
1000
0100
,
1000
0000
0001
0010
,
0001
0000
1000
0010
,
0010
0000
0001
0010
,
0010
0000
1000
0100
,
0010
0000
0002
0000
,
0003
0000
0000
0001
,
0000
1000
0000
0100
,
0000
0010
0000
1000
,
0000
0010
0000
0001
,
0000
0000
0000
1000
,
0000
0001
0000
0100
,
0000
0010
0000
0001
,
0000
0010
0000
1000
,
0000
0000
2002
0000
,
3003
0000
0001
0000
,
0010
0000
2002
0000
,
3003
0000
1000
0000
,
0010
0000
0001
0010
,
0001
0000
0010
1000
,
0010
0000
2000
0000
,
0000
0000
3000
0000
,
0000
0000
0001
0001
,
0001
0000
0010
0010
,
0010
0000
0100
1000
,
0100
1000
0002
0000
,
2000
0000
0000
0000
,
0000
0000
0000
0000
0000
3003
0000
0000
;
