#VERSION:0.83;
#TITLE:Roll the Dice;
#SUBTITLE:;
#ARTIST:lapix;
#TITLETRANSLIT:;
#SUBTITLETRANSLIT:;
#ARTISTTRANSLIT:;
#GENRE:;
#ORIGIN:;
#CREDIT:;
#BANNER:;
#BACKGROUND:Roll the Dice-bg.png;
#PREVIEWVID:;
#JACKET:Roll the Dice-jacket.png;
#CDIMAGE:;
#DISCIMAGE:;
#LYRICSPATH:;
#CDTITLE:;
#MUSIC:Roll the Dice.ogg;
#OFFSET:-0.506000;
#SAMPLESTART:95.051003;
#SAMPLELENGTH:10.000000;
#SELECTABLE:YES;
#BPMS:0.000=165.000;
#STOPS:;
#DELAYS:;
#WARPS:;
#TIMESIGNATURES:0.000=4=4;
#TICKCOUNTS:0.000=4;
#COMBOS:0.000=1;
#SPEEDS:0.000=1.000=0.000=0;
#SCROLLS:0.000=1.000;
#FAKES:;
#LABELS:0.000=Song Start;
#BGCHANGES:;
#KEYSOUNDS:;
#ATTACKS:
;

//---------------dance-single - ----------------
#NOTEDATA:;
#CHARTNAME:;
#STEPSTYPE:dance-single;
#DESCRIPTION:;
#CHARTSTYLE:Pad;
#DIFFICULTY:Hard;
#METER:16;
#RADARVALUES:0.840383,0.931160,0.467760,0.356766,0.907772,742.000000,683.000000,59.000000,45.000000,0.000000,0.000000,0.000000,0.000000,0.000000,0.840383,0.931160,0.467760,0.356766,0.907772,742.000000,683.000000,59.000000,45.000000,0.000000,0.000000,0.000000,0.000000,0.000000;
#CREDIT:Mei;
#NOTES:
// measure 0
0000
0000
0000
0000
,  // measure 1
0000
0000
0000
0000
,  // measure 2
0000
0000
0000
0000
,  // measure 3
0000
0000
0000
0000
,  // measure 4
0000
0000
0000
0000
,  // measure 5
1000
0010
1000
0010
1000
0000
0000
0000
0100
0000
0000
0000
0000
0000
0000
0000
,  // measure 6
0010
0001
0010
0001
0010
0000
0000
0000
0100
0000
0000
0000
0000
0000
0000
0000
,  // measure 7
1000
0010
1000
0000
0100
0000
0010
0000
0001
0010
0001
0000
0100
0000
0010
0000
,  // measure 8
1000
0010
1000
0000
0100
0000
0010
0000
0001
1000
0001
1000
0100
0000
0010
0001
,  // measure 9
1000
0000
0000
0010
1000
0000
0001
0000
0100
0000
0000
0001
1000
0000
0001
0000
,  // measure 10
0010
0001
0010
0000
0100
0000
1000
0000
0100
0000
0000
1000
0010
0000
1000
0000
,  // measure 11
0100
0000
0000
0010
0001
0000
1000
0000
0100
0000
0000
1000
0001
0000
1000
0000
,  // measure 12
0010
1000
0010
0000
0100
0000
0001
0000
1000
0000
0000
0001
0010
0000
0100
0000
,  // measure 13
0010
0000
0010
0001
0100
0000
0100
0001
1000
0000
1000
0100
0010
0000
0010
0001
,  // measure 14
1000
0000
1000
0001
1000
0000
1000
0010
0100
0000
0100
0001
0010
0000
0010
0100
,  // measure 15
0010
0001
0100
0010
1000
0001
0010
0200
,  // measure 16
0010
0010
0010
0010
0310
0000
1001
0000
,  // measure 17
0210
0301
0101
0000
2100
3001
1001
0000
,  // measure 18
1020
0130
0110
0000
1200
0310
0110
0000
,  // measure 19
0201
1300
0021
1030
,  // measure 20
1200
0000
0010
0000
0310
0000
0000
0000
0001
0010
0001
0010
0100
1000
0100
1000
,  // measure 21
0002
0100
0013
0000
2001
0100
3010
0000
,  // measure 22
1002
0010
0103
0000
2010
0000
3100
0000
,  // measure 23
0002
0000
0010
0000
1003
0000
0000
0000
1000
0010
1000
0010
0100
0001
0100
0001
,  // measure 24
1000
0000
0000
0100
0000
0000
0010
0001
1000
0000
0000
0000
0001
0100
0010
0000
,  // measure 25
0210
0301
1001
0000
2010
3001
1001
0000
,  // measure 26
0012
0000
0103
0000
1001
0000
0000
0000
2010
0000
3100
0000
0001
1000
0001
0000
,  // measure 27
0200
0000
1300
0000
0021
0100
0130
0000
,  // measure 28
2000
0000
0010
0000
3001
0000
0000
0000
1000
0001
1000
0001
0100
0010
0100
0010
,  // measure 29
2000
3100
0200
0310
0020
0031
0002
1003
,  // measure 30
1000
0020
0001
0000
1030
0200
0001
0000
,  // measure 31
1300
0000
1000
0000
0100
0000
0100
0000
0010
0001
0010
0001
1000
0010
1000
0010
,  // measure 32
1000
0100
0010
0001
1000
0010
0100
0001
0010
0001
1000
0100
0010
0001
1000
0010
,  // measure 33
0200
0302
2003
3020
,  // measure 34
0130
0001
0100
0001
1000
0000
0100
0000
0010
0001
0010
0001
1000
0000
0010
0000
,  // measure 35
0100
0001
0100
0000
0010
1000
0010
0000
1000
0001
1000
0000
0100
0010
0100
0000
,  // measure 36
1000
0100
0010
0000
0001
0000
1000
0000
0001
0010
0100
0000
0010
0000
0100
0000
,  // measure 37
2000
3200
0320
0032
,  // measure 38
1003
0010
1000
0001
0100
0000
0001
0000
1000
0100
1000
0001
0010
0000
0001
0000
,  // measure 39
1000
0010
0100
0000
0010
0000
0100
0000
0001
0100
0010
0000
1000
0000
0001
0000
,  // measure 40
0100
0010
0000
0010
0000
0000
1000
0010
0000
0010
0000
0000
0001
0010
0100
0010
,  // measure 41
0100
0000
0010
1000
0000
0100
1000
0000
0001
1000
0001
0000
0100
0010
0000
1000
,  // measure 42
0010
0000
0100
0001
0000
0100
0010
0000
0210
0000
0301
0000
1001
0000
0000
0000
,  // measure 43
0010
0000
0100
0001
0000
0010
0001
0000
1001
0000
0000
0000
0110
0000
0000
1100
,  // measure 44
0000
0000
0011
0000
0000
1100
0000
0000
1002
0000
0013
0000
0110
0000
0000
0000
,  // measure 45
0100
0000
1000
0010
0000
1000
0100
0000
1000
0001
1000
0000
0010
0100
0000
0001
,  // measure 46
0010
0000
0100
1000
0000
0010
0100
0000
0120
0000
1030
0000
1001
0000
0000
0000
,  // measure 47
0110
0000
0000
0101
0000
0000
0011
0000
0000
0000
0000
0000
1010
0000
0000
0110
,  // measure 48
0000
0000
0101
0000
0000
0110
0000
0000
1010
0000
2002
0000
3003
0000
0000
0000
,  // measure 49
0012
0000
0000
0000
,  // measure 50
2003
0000
3020
0000
,  // measure 51
0032
0000
0000
0000
,  // measure 52
0023
0000
0230
0000
,  // measure 53
0301
0010
0001
1000
0010
0100
0101
0010
1000
0010
0100
0001
,  // measure 54
1000
0100
1000
0001
0010
0100
1100
0010
0001
0010
0100
1000
,  // measure 55
0100
1000
0010
0000
1000
0000
0001
0000
0100
0001
0010
0000
0001
0000
1000
0000
,  // measure 56
0100
1000
0010
0000
1000
0000
0001
0000
0010
0100
0010
0100
0010
0100
0010
0100
,  // measure 57
1000
0000
0000
0001
1000
0000
0001
0000
0100
0000
0000
0001
0010
0000
0001
0000
,  // measure 58
1000
0100
1000
0000
0001
0000
0100
0000
1000
0000
0000
0100
0010
0000
1000
0000
,  // measure 59
0100
0000
0000
1000
0001
0000
1000
0000
0100
0000
0000
1000
0010
0000
1000
0000
,  // measure 60
0001
0100
0001
0000
1000
0000
0100
0000
0001
0000
0000
0100
0010
0000
0001
0000
,  // measure 61
1000
0000
0010
0100
0001
0000
1000
0000
0010
0000
0100
0001
1000
0000
0001
1000
,  // measure 62
0001
0000
0010
0100
1000
0000
0001
0000
0010
0000
0100
1000
0001
0000
1000
0001
,  // measure 63
0100
0000
0100
0001
0010
0000
0100
1000
0010
0000
0100
0001
0010
0000
0100
1000
,  // measure 64
0010
0100
0010
0100
0001
0100
0001
0100
0001
1000
0001
1000
0100
0000
0000
0000
,  // measure 65
0010
0000
0001
1000
0000
0001
1000
0010
0100
0000
0001
0100
0000
0001
0100
0010
,  // measure 66
1000
0000
0100
0010
0000
0100
0010
0001
1000
0000
0010
1000
0000
0010
1000
0001
,  // measure 67
0100
0000
0001
1000
0000
0100
1000
0100
0010
0000
0010
0001
0000
0100
0001
0100
,  // measure 68
0010
0000
0010
1000
0000
0100
1000
0001
0100
0000
0100
0010
0000
0010
1000
0001
,  // measure 69
1000
0000
0100
0010
0000
0001
0010
0100
1000
0000
0010
0100
0000
0001
0100
0010
,  // measure 70
1000
0000
0100
0010
0000
0100
1000
0001
1000
0000
0001
0100
0000
0001
1000
0100
,  // measure 71
1000
0000
0100
0010
0000
0001
0010
0001
0100
0000
0001
1000
0000
1000
0010
1000
,  // measure 72
0100
0000
0000
1001
0000
0000
1010
0000
0000
0101
0000
0000
0010
0001
0010
0100
,  // measure 73
1000
0000
0010
1000
0000
0001
0100
0010
1000
0000
0001
0010
0000
0100
1000
0001
,  // measure 74
0100
0000
0001
0010
0000
0001
1000
0001
0100
0000
0100
0010
0000
0010
1000
0001
,  // measure 75
0010
0000
0100
1000
0000
1000
0001
0100
0001
0000
0001
1000
0000
1000
0100
0010
,  // measure 76
0001
0000
0000
0011
0000
0000
1010
0000
0101
0000
0000
1100
0000
0000
0110
0000
,  // measure 77
0011
0000
0010
0100
0000
1000
0001
0100
0010
0000
0010
0100
0000
0100
0001
1000
,  // measure 78
0001
0000
1000
0100
0000
1000
0010
0000
0110
0000
0100
0001
0000
1000
0100
0000
,  // measure 79
1100
0000
0010
0001
0010
0000
1001
0000
0010
1000
0010
0000
0101
0000
0001
1000
,  // measure 80
0100
0000
0010
0100
0000
0010
0100
1000
0010
0000
0100
0010
0000
0100
0001
0010
,  // measure 81
0100
0000
0000
0000
;

//---------------dance-single - ----------------
#NOTEDATA:;
#CHARTNAME:;
#STEPSTYPE:dance-single;
#DESCRIPTION:;
#CHARTSTYLE:Pad;
#DIFFICULTY:Medium;
#METER:12;
#RADARVALUES:0.575356,0.642179,0.396407,0.340910,0.210096,508.000000,458.000000,50.000000,43.000000,0.000000,0.000000,0.000000,0.000000,0.000000,0.575356,0.642179,0.396407,0.340910,0.210096,508.000000,458.000000,50.000000,43.000000,0.000000,0.000000,0.000000,0.000000,0.000000;
#CREDIT:Mei;
#NOTES:
0000
0000
0000
0000
,
0000
0000
0000
0000
,
0000
0000
0000
0000
,
0000
0000
0000
0000
,
0000
0000
0000
0000
,
0001
0010
0001
0000
0100
0000
0000
0000
,
1000
0010
1000
0000
0100
0000
0000
0000
,
0001
0010
0100
1000
1000
0010
0100
0001
,
0010
0100
0010
0001
0100
0010
1000
0010
,
0110
0000
0001
0100
0010
0000
0001
0100
,
0010
0000
0000
1000
0000
0000
0001
0000
1000
0000
0000
0000
1000
0000
0010
0000
,
0110
0000
1000
0100
0010
0000
1000
0100
,
0010
0000
0000
0001
0000
0000
1000
0000
0001
0000
0010
0000
0010
0000
0100
0000
,
1000
0010
0010
0100
0100
0001
0001
0010
,
0010
0100
0100
0010
0010
0001
0001
1000
,
0010
0100
1000
0100
0010
0100
0001
1000
,
0200
0000
0310
0110
,
1001
0001
0100
0000
1001
1000
0100
0000
,
0011
0010
0100
0000
2100
0000
3001
0000
,
2000
3200
0302
0203
,
1300
1000
0001
0000
0001
0100
0010
0010
,
0200
0001
0301
0000
0020
1000
1030
0000
,
0200
0001
0301
0010
0100
0000
1000
0000
,
1002
0000
0203
0000
0310
0010
0010
0010
,
1000
0000
0000
0001
0000
0000
0100
0000
0100
0000
0000
0000
0110
0000
0000
0000
,
1001
1000
0010
0000
1001
0001
0010
0000
,
1100
0100
0010
0000
0011
0000
0101
0000
,
0002
0203
0302
0023
,
0130
0100
1000
0000
1000
0010
0100
0100
,
0001
0010
0001
0010
0100
1000
0010
0100
,
0001
0010
0002
0000
0103
0001
0200
0000
,
0310
1000
0010
1000
0100
0010
0001
0100
,
0010
1000
0010
0100
0001
0010
0100
1000
,
0020
0230
0302
2003
,
3100
0010
0001
0100
0001
1000
0010
0100
,
0010
1000
0010
0000
0010
0100
0010
1000
,
0100
1000
0001
0000
0001
0100
0001
0010
,
0200
2300
3002
0023
,
0031
0100
0001
0100
0010
1000
0001
1000
,
0100
0010
0100
0001
0100
0010
0100
1000
,
0001
0000
0000
0001
0000
0000
1000
0000
0000
1000
0000
0000
0210
0000
0000
0000
,
0310
0000
0000
0110
0000
0000
0110
0000
0100
0000
0001
0000
1001
0000
0000
1001
,
0000
0000
1100
0000
0000
0101
0000
0000
0100
0000
0010
0000
2000
0000
0000
0000
,
3001
0000
0000
0011
0000
0000
0110
0000
0000
0000
0000
0000
1100
0000
0000
0110
,
0000
0000
1100
0000
0000
0110
0000
0000
0100
0000
1000
0000
0020
0000
0000
0000
,
1030
0000
0001
0000
0100
0001
0000
0100
0001
0000
0001
0000
1000
0000
0100
0000
,
0010
0100
0010
0001
0010
0100
2000
0000
,
3001
0000
0000
0101
0000
0000
0110
0000
0000
0000
0000
0000
1010
0000
0000
0110
,
0000
0000
1010
0000
0000
0110
0000
0000
0020
0000
2000
0000
3030
0000
0000
0000
,
2002
0000
0000
0000
,
0000
0000
0000
0000
,
3003
0000
0000
0000
,
0000
0000
0000
0000
,
0001
0010
0001
0010
0000
0001
0100
0000
0010
0100
0000
0000
,
1000
0010
1000
0010
0000
1000
0100
0000
0010
0100
0000
0000
,
0002
0000
0103
0010
2000
0000
3100
0010
,
0002
0000
0103
1000
0100
0100
0100
0100
,
0110
0000
0001
0100
0010
0000
1000
0010
,
0100
0000
0000
0001
1000
0000
0010
0000
0100
0000
0000
0000
0001
0000
0010
0000
,
0110
0000
1000
0100
0010
0000
1000
0100
,
0010
0000
0000
0001
1000
0000
0010
0000
0100
0000
0000
0000
0001
0000
0010
0000
,
0100
0000
0000
1000
0000
0000
0001
0000
0100
0000
0000
0001
0000
0000
1000
0000
,
0100
0000
0000
0010
0000
0000
0001
0000
0100
0000
0000
0010
0000
0000
1000
0000
,
0100
0010
0010
0001
0001
0100
0100
0010
,
2000
0000
3000
0110
,
2001
0000
3001
0100
0002
0000
0103
0010
,
1000
0100
0010
0100
2000
0000
3001
0000
,
1002
0000
1003
0010
0200
0000
0301
0100
,
0010
0000
1000
0000
0001
0000
1000
0000
0010
0000
0000
0100
0000
0000
0001
0000
,
0012
0000
0000
0000
1003
0000
0010
0000
0100
0000
0000
0100
0000
0000
0100
0000
,
0001
0000
1000
0000
0001
0000
0100
0000
0010
0000
0000
1000
0000
0000
1000
0000
,
0001
0000
0000
0010
0000
0000
1000
0000
0010
0000
0000
0001
0000
0000
0010
0000
,
0110
0000
0000
0110
0000
0000
1100
0000
0000
1100
0000
0000
0100
0000
0010
0000
,
0001
0000
0000
1000
0000
0000
0010
0000
0100
0000
0000
0001
0000
0000
0001
0000
,
0100
0000
0100
0010
0000
0000
1000
0000
0100
0000
0010
0100
0000
0000
0000
0000
,
1000
0000
0000
0001
0000
0000
0100
0000
0010
0000
0000
0010
0000
0000
0010
0000
,
1000
0000
0000
0011
0000
0000
1010
0000
1000
0000
0000
0001
0000
0000
0010
0000
,
0100
0000
0100
0010
0000
0000
0001
0000
0100
0000
0001
1000
0000
0000
0001
0000
,
0101
0000
0000
0110
0000
0000
1001
0000
0001
0000
0100
0001
0000
0000
0001
0000
,
0010
1000
0001
0100
1000
0010
0100
0001
,
1000
0000
0100
1000
0000
0100
1000
0000
0001
0000
0100
0001
0000
0100
0001
0000
,
1001
0000
0000
0000
;

//---------------dance-single - ----------------
#NOTEDATA:;
#CHARTNAME:;
#STEPSTYPE:dance-single;
#DESCRIPTION:;
#CHARTSTYLE:Pad;
#DIFFICULTY:Easy;
#METER:7;
#RADARVALUES:0.310330,0.385308,0.277485,0.340910,0.000000,274.000000,239.000000,35.000000,43.000000,0.000000,0.000000,0.000000,0.000000,0.000000,0.310330,0.385308,0.277485,0.340910,0.000000,274.000000,239.000000,35.000000,43.000000,0.000000,0.000000,0.000000,0.000000,0.000000;
#CREDIT:Mei;
#NOTES:
0000
0000
0000
0000
,
0000
0000
0000
0000
,
0000
0000
0000
0000
,
0000
0000
0000
0000
,
0000
0000
0000
0000
,
0011
0000
0001
0000
,
1010
0000
1000
0000
,
0011
0001
1000
0010
,
0100
0001
1000
0010
,
0100
0010
0100
0000
,
0001
1000
0001
0100
,
0010
0100
0010
0000
,
1000
0001
1000
0000
,
0100
0100
0001
0001
,
0010
0010
1000
1000
,
0100
0010
0001
1000
,
0002
0000
0000
0003
,
1002
0003
2010
3000
,
1002
0003
0021
0030
,
0010
0100
1000
0100
,
0020
0030
0001
0100
,
0120
0030
2001
3000
,
0210
0300
0002
0013
,
0100
1000
0001
0001
,
0001
1000
0100
0000
,
2001
3000
0102
0003
,
2001
3000
1200
0300
,
0100
0010
0001
0010
,
0100
0100
2000
3000
,
0001
0001
0100
0100
,
1000
0010
0001
0100
,
1000
1000
0100
0100
,
0010
0001
1000
0010
,
0100
0001
0100
0010
,
1000
1000
0001
0001
,
0100
0010
0110
0000
,
1000
0100
0110
0000
,
1000
0100
0010
0100
,
1000
1000
0001
0001
,
0101
0100
0110
0010
,
0220
0000
0000
0330
,
0202
0000
0000
0303
0000
0000
0010
0000
,
0100
0001
0200
0300
,
2200
0000
3300
0010
,
0100
1000
0200
0300
,
0001
0010
0100
1000
,
0001
0010
0100
1000
,
2002
0000
0000
3003
0000
0000
0220
0000
,
0000
0000
0000
0000
0000
0330
0000
0000
,
1001
0000
0000
0000
,
0000
0000
0000
0000
,
0000
0000
0000
0000
,
0000
0000
0000
0000
,
0002
0203
2300
3200
,
0302
0203
2300
3200
,
0301
0100
0010
1000
,
0100
0010
0022
0033
,
0001
0001
1000
0000
,
1000
0001
0100
0001
,
1000
0001
0001
0000
,
0001
1000
1100
0000
,
0001
0010
1000
0010
,
0001
0010
1000
0010
,
0001
0001
0001
0001
,
2002
0000
0000
3003
,
0001
0100
0010
1000
,
0001
0010
0100
0010
,
0001
1000
0001
0010
,
0100
0010
0200
1300
,
1000
0100
0010
0001
,
0100
0010
1000
0001
,
0100
1000
0100
0001
,
1001
0000
0000
1001
0000
0000
1001
0000
,
0001
0010
0100
0001
,
0100
1000
0001
0100
,
0010
0100
0200
0310
,
0001
0010
0220
0330
,
1000
0001
0010
0100
,
0100
1000
0010
0100
,
1001
0000
0000
0110
0000
0000
1001
0000
,
1000
0100
0010
0100
,
0110
0000
0000
0000
;

//---------------dance-single - ----------------
#NOTEDATA:;
#CHARTNAME:;
#STEPSTYPE:dance-single;
#DESCRIPTION:;
#CHARTSTYLE:Pad;
#DIFFICULTY:Beginner;
#METER:3;
#RADARVALUES:0.183480,0.256872,0.174419,0.079281,0.000000,162.000000,140.000000,22.000000,10.000000,0.000000,0.000000,0.000000,0.000000,0.000000,0.183480,0.256872,0.174419,0.079281,0.000000,162.000000,140.000000,22.000000,10.000000,0.000000,0.000000,0.000000,0.000000,0.000000;
#CREDIT:Mei;
#NOTES:
0000
0000
0000
0000
,
0000
0000
0000
0000
,
0000
0000
0000
0000
,
0000
0000
0000
0000
,
0000
0000
0000
0000
,
1001
0000
0000
0000
,
1001
0000
0000
0000
,
1001
0000
0001
0000
,
0010
0000
0100
0000
,
1000
1000
1000
0000
,
0001
0000
0001
0000
,
0100
0100
0100
0000
,
0010
0000
0010
0000
,
1000
0000
1000
0000
,
0001
0000
0001
0000
,
0100
0000
0010
0000
,
0200
0000
0300
0000
,
0110
0000
0000
0000
,
0110
0000
0000
0000
,
1001
0000
0000
0000
,
0001
0000
1000
0000
,
0001
0000
0010
0000
,
0001
0000
0100
0000
,
0010
0000
0010
0010
,
0020
0000
0030
0000
,
0110
0000
0000
0000
,
0110
0000
0000
0000
,
1001
0000
0000
0000
,
1000
1000
1000
0000
,
0100
0000
0100
0000
,
0020
0000
0030
0000
,
0001
0001
0001
0000
,
0200
0000
0300
0000
,
0010
0000
0010
0000
,
1000
0000
0001
0000
,
0010
0000
0010
0000
,
0001
0000
1000
0000
,
0010
0000
0010
0000
,
0100
0000
0001
0000
,
0010
0000
0010
0000
,
0100
0000
0000
0000
,
0110
0000
0000
1001
,
0001
0001
0000
0000
,
0110
0000
0000
1001
,
1000
1000
0000
0000
,
0100
0000
0010
0000
,
0001
0001
0001
0000
,
1001
0000
0000
1001
,
0000
0000
0000
0000
,
1001
0000
0000
0000
,
0000
0000
0000
0000
,
0000
0000
0000
0000
,
0000
0000
0000
0000
,
0200
0000
0300
0000
,
0200
0000
0300
0000
,
0010
0000
0010
0000
,
0010
0000
1000
0000
,
0001
0001
0001
0000
,
0010
0000
0010
0000
,
0001
0001
0001
0000
,
0100
0000
0010
0000
,
1000
0000
0010
0000
,
1000
0000
0010
0000
,
0100
0000
0100
0000
,
0200
0000
0300
0000
,
0110
0000
0001
0000
,
0010
0010
0010
0000
,
0110
0000
1000
0000
,
0010
0010
0010
0000
,
1001
0000
0001
0000
,
0100
0100
0100
0000
,
1001
0000
1000
0000
,
0200
0000
0300
0000
,
1000
0000
0001
0000
,
0010
0010
0010
0000
,
0001
0000
1000
0000
,
0010
0010
0010
0000
,
0001
0000
1000
0000
,
0100
0100
0100
0000
,
2002
0000
3003
0000
,
0100
0000
0100
0000
,
0110
0000
0000
0000
;
