#TITLE:Rejection Girl;
#SUBTITLE:;
#ARTIST:BEMANI Sound Team "HuΣeR";
#TITLETRANSLIT:;
#SUBTITLETRANSLIT:;
#ARTISTTRANSLIT:;
#GENRE:STYLISH FUTURE;
#CREDIT:;
#BANNER:;
#BACKGROUND:Rejection Girl-bg.png;
#LYRICSPATH:;
#CDTITLE:;
#MUSIC:Rejection Girl.ogg;
#OFFSET:-1.428000;
#SAMPLESTART:89.704002;
#SAMPLELENGTH:15.000000;
#SELECTABLE:YES;
#BPMS:0.000000=174.000000
,175.000000=87.000000
,183.000000=174.000000
;
#STOPS:142.000000=0.345000
;
#BGCHANGES:0.000=Rejection Girl.avi=1.000=0=0=1=StretchNormal====,
346.000=Rejection Girl-bg.jpg=1.000=0=0=1=====,
99999=-nosongbg-=1.000=0=0=0 // don't automatically add -songbackground-
;
#KEYSOUNDS:;
#ATTACKS:;

//---------------dance-single - ----------------
#NOTES:
     dance-single:
     :
     Medium:
     12:
     0.542512,0.890187,0.181230,0.313033,0.061783,461.000000,439.000000,22.000000,38.000000,0.000000,0.000000,0.542512,0.890187,0.181230,0.313033,0.061783,461.000000,439.000000,22.000000,38.000000,0.000000,0.000000:
0000
0000
0000
0000
,
0000
0000
0000
0000
,
0000
0000
0000
0000
,
0000
0000
0000
0000
,
0000
0000
0000
0000
,
0000
0000
0000
0000
,
0000
0000
0000
0000
,
0000
0000
0000
0000
,
0000
0000
0000
0000
,
0001
0100
0001
0100
0010
1000
0100
0010
,
0001
0000
0001
0000
0100
0001
0000
1001
,
0000
1000
0000
0100
0010
0100
0001
0100
,
1000
0000
1000
0000
0010
1000
0000
1000
,
0000
1000
0010
0100
0010
1000
0100
0010
,
0001
0000
0001
0000
0100
0010
0000
1000
,
0000
0100
0010
0000
0001
0100
0010
0100
,
0001
0010
0001
0010
0100
1000
0100
1000
,
0001
0100
0010
1000
0100
0100
0200
0000
,
0310
0010
0001
0001
,
1000
1000
0010
0010
,
0100
0100
0001
0001
,
1000
1000
0010
0010
,
0001
0100
0001
0000
1000
0010
1000
0000
,
0100
1000
0100
0000
0010
0001
0010
0000
,
0001
0100
0010
0000
1000
0100
0010
0000
,
0001
0100
1000
0010
0001
0100
0020
0000
,
1030
0000
1001
0000
0001
0100
0010
0000
,
1000
0010
0001
0000
0010
1000
0100
1000
,
0001
0000
1001
0000
1000
0100
0010
0000
,
0001
0010
1000
0000
0020
0000
0031
1000
,
0010
0000
0000
0000
0101
0000
0000
0000
0010
0000
1000
0001
0000
1000
0001
0000
,
0010
0000
0000
0000
1100
0000
0000
0000
0010
0000
0001
1000
0000
0001
1000
0000
,
0010
0000
0100
0001
0100
1000
0100
0001
,
1000
0001
1000
0001
0020
0000
0230
0000
,
2300
0000
0000
3100
,
0100
0000
0000
0000
0000
0000
0000
0000
0000
0000
0000
0000
0010
0000
0000
0000
0000
0000
0000
0000
0000
0000
0000
0000
0100
0000
0000
0000
0000
0000
0000
0000
0220
0330
0000
0000
0000
0000
0000
0000
0000
0000
0000
0000
0000
0000
0000
0000
2100
0000
0000
0000
0000
0000
0000
0000
0000
0000
0000
0000
0000
0000
0000
0000
,
3001
0000
0100
0010
0100
0000
0001
0100
,
0001
0100
0010
1000
0100
0000
0012
0000
,
1003
0000
0100
0010
0100
0000
1000
0100
,
0010
0001
0100
0010
1000
0100
0020
0000
,
0031
0000
1000
0100
1000
0000
0001
0010
,
1000
0000
0020
0032
0203
0300
0110
0000
,
1000
0010
0000
0001
0100
0001
0010
1000
,
0100
1000
0010
1000
0100
1000
0010
0100
,
0101
0000
0000
0000
0002
0000
0000
0000
1003
0000
0000
0001
0000
0000
1000
0000
1001
0000
0000
0000
1000
0000
0100
0000
0010
0000
0000
0000
0100
0000
0000
0000
,
1100
0000
2000
0000
3010
1000
0001
0100
0001
0010
0100
1000
0020
0000
0000
0000
,
1030
0000
0001
0100
0001
0000
1000
0010
,
0001
0000
0020
2030
3002
0203
0310
0000
,
1000
0010
0000
0100
0001
0010
0100
0010
,
0100
0010
0001
1000
0010
0100
0002
0000
,
0100
0000
0100
0000
0100
0000
0103
0001
,
1000
0000
0100
0010
0001
0000
2000
0000
,
0100
0000
0100
0000
0100
0000
3100
1000
,
0001
0000
0100
0010
0100
0010
2000
0000
,
3100
0000
0010
1000
0010
0000
0001
0010
,
0001
0000
0001
1000
0001
0100
0010
0001
,
0010
0000
1000
0010
1000
0000
2000
0000
,
3100
0002
0013
0100
,
1100
0000
0001
1000
0001
0000
0100
0010
,
0001
0000
0010
1000
0001
0100
0010
0000
,
0101
0000
1000
0001
1000
0000
0100
0010
,
1000
0000
0000
0010
0000
0000
0001
0000
0010
0000
1000
0000
0010
0000
0001
0000
,
1001
0000
1000
0010
0100
0000
1000
0100
,
0001
0000
0100
0010
0001
0010
1000
0100
,
0001
0000
0100
0010
0001
0010
1010
0000
,
0011
1010
1001
0002
,
0013
0000
0000
0001
0000
0000
1000
0000
0000
0000
0100
0000
0000
0000
0100
0000
,
0000
1000
0010
0100
1000
0100
0002
0000
,
0013
0000
0001
1000
0000
1100
0000
1010
,
0000
0001
1000
0001
0100
0010
2000
0000
,
3010
0000
0000
1000
0000
0000
0001
0000
0000
0000
0100
0000
0000
0000
0100
0000
,
0000
0001
0010
0100
0001
0100
1000
0100
,
0010
0000
0001
0100
0010
0001
0020
0000
,
1000
0230
0001
0320
,
0000
0000
1030
0010
0200
0000
0301
0010
,
0001
0010
0100
1000
0010
0000
0102
0000
,
1003
0000
0010
0100
0002
0000
1003
0010
,
0100
0001
1000
0100
0010
0001
0100
0001
,
0100
0000
0010
1000
0100
0000
0010
0001
,
0100
0000
0002
0000
2003
0000
3100
0010
,
0100
0010
0001
0001
1000
1000
0010
0001
,
0010
1000
0010
0001
0010
1000
0200
0000
,
0000
0000
0000
0000
,
0000
0300
0000
0000
0000
0000
0000
0000
;

//---------------dance-single - ----------------
#NOTES:
     dance-single:
     :
     Hard:
     16:
     0.793173,1.472233,0.288320,0.304795,0.609590,674.000000,639.000000,35.000000,37.000000,0.000000,0.000000,0.793173,1.472233,0.288320,0.304795,0.609590,674.000000,639.000000,35.000000,37.000000,0.000000,0.000000:
// measure 0
0000
0000
0000
0000
,  // measure 1
0000
0000
0000
0000
,  // measure 2
0000
0000
0000
0000
,  // measure 3
0000
0000
0000
0000
,  // measure 4
0000
0000
0000
0000
,  // measure 5
0000
0000
0000
0000
,  // measure 6
0000
0000
0000
0000
,  // measure 7
0000
0000
0000
0000
,  // measure 8
0000
0000
0000
0000
,  // measure 9
0002
1000
1000
1000
0203
0302
2003
3020
,  // measure 10
0130
0000
0100
0001
1000
1010
0000
1100
,  // measure 11
0000
1000
0001
1000
0100
0001
0100
1000
,  // measure 12
1100
0000
0100
1000
0001
0100
0000
0100
,  // measure 13
0000
0000
0100
0000
0001
0000
1000
0000
0001
0000
1000
0000
0100
0010
0001
0000
,  // measure 14
0010
0100
1000
0001
1000
0001
0100
0010
,  // measure 15
1000
0100
0010
0001
1000
0001
0010
0100
,  // measure 16
1000
0100
1000
0000
0001
0010
0001
0000
0100
0001
0100
0000
0010
1000
0010
0000
,  // measure 17
1000
0000
0000
0001
0000
0000
1000
0000
0000
0001
0000
0000
0100
0000
0000
0010
0000
0000
0100
0000
0000
0010
0000
0000
1000
0000
0000
0000
0000
0000
1000
0000
0000
0000
0000
0000
0100
0000
0000
0000
0100
0000
0000
0000
0100
0000
0000
0000
,  // measure 18
0010
0001
0010
1000
0010
0001
0010
1000
,  // measure 19
0010
0001
0100
0001
0010
0001
0100
0010
,  // measure 20
0100
1000
0100
0001
0100
1000
0100
0001
,  // measure 21
1000
0100
0001
0100
1000
0100
0010
0000
,  // measure 22
0001
0000
1000
0000
0100
0000
0010
0000
0001
0000
0100
0000
0010
1000
0010
0000
,  // measure 23
1000
0000
0001
0000
0010
0000
0100
0000
1000
0000
0010
0000
0100
0001
0100
0000
,  // measure 24
0001
0000
0010
0000
0100
0000
1000
0000
0010
0000
0001
0000
0010
0100
0010
0000
,  // measure 25
1000
0000
0000
0010
0000
0000
1000
0000
0000
0010
0000
0000
1000
0000
0000
0001
0000
0000
1000
0000
0000
0001
0000
0000
0020
0000
0000
0000
0000
0000
0000
0000
0000
0000
0000
0000
0130
0000
0000
0000
0100
0000
0000
0000
0100
0000
0000
0000
,  // measure 26
1000
0000
0000
0000
1001
0000
0000
0000
0001
0000
0010
0001
0000
1000
0001
1000
,  // measure 27
0001
0100
0010
0100
0001
0010
1000
0010
,  // measure 28
0001
0000
0000
0000
1001
0000
0000
0000
1000
0000
0010
1000
0000
0001
1000
0001
,  // measure 29
1000
0000
0100
0000
0001
0000
0000
0000
0100
0000
1000
0001
0000
1000
0001
0000
,  // measure 30
0100
0000
0001
0000
0011
0000
0000
0000
0001
0000
0100
0001
0000
1000
0100
1000
,  // measure 31
0100
0000
1000
0000
1010
0000
0000
0000
1000
0000
0100
1000
0000
0001
0100
0001
,  // measure 32
0100
0000
0001
0000
0010
0000
0100
0010
0100
0000
0100
0010
0100
0000
0100
0010
,  // measure 33
0100
1000
0001
1000
0002
0000
0203
0000
,  // measure 34
0320
0000
0000
0000
0000
0000
0130
0010
,  // measure 35
0100
0000
0000
0000
0001
0000
0000
0000
0100
0000
0000
0000
0010
0000
0000
0000
1000
0000
0000
0000
0010
0000
0000
0000
0100
0000
0000
0000
0001
0000
0000
0000
0020
0030
0000
0000
0000
0000
0000
0000
0000
0000
0000
0000
0000
0000
0000
0000
1001
0000
0000
0000
0000
0000
0000
0000
0100
0000
0000
0000
0000
0000
0000
0000
,  // measure 36
1000
0000
0000
0000
0001
0010
0001
0010
0100
0000
1000
0000
0010
0000
0010
1000
,  // measure 37
0001
0000
0000
0000
0010
0000
0010
0001
1000
0000
1000
0000
1001
0000
0001
0000
,  // measure 38
0100
0000
0000
0000
1000
0010
1000
0010
0100
0000
0001
0000
1000
0100
0010
0001
,  // measure 39
1000
0010
0100
0001
0010
0001
0010
0100
1000
0100
0010
0001
0100
0000
0000
0000
,  // measure 40
1010
0000
0000
0000
1000
0000
0001
0010
0000
0010
0001
1000
0010
0000
1000
0010
,  // measure 41
0000
0010
1000
0001
0010
0000
0100
0000
2000
0000
0000
0000
3001
0000
0000
0000
,  // measure 42
0100
0001
1000
0010
0000
0000
1000
0000
0100
0000
0001
0000
0100
0000
1000
0000
,  // measure 43
1010
0001
0101
1000
1010
0001
0011
0100
,  // measure 44
0110
0000
0000
0000
1000
0001
1000
0001
0100
0000
0000
0100
0000
0000
0010
0000
0110
0000
0000
0000
0001
0010
0001
0010
0100
0000
0000
0000
1000
0000
0000
0000
,  // measure 45
1001
0000
0000
0000
0001
1000
0001
1000
0100
0010
0001
1000
0010
0100
0001
0010
0100
1000
0100
1000
0001
0100
0001
0100
0010
0000
0000
0000
0000
0000
0000
0000
,  // measure 46
1010
0000
0000
0000
0001
0000
1000
0010
0000
0010
1000
0001
0010
0000
0001
0010
,  // measure 47
0000
0010
0001
1000
0020
0000
0230
0000
0302
0000
2003
0000
3100
0000
0000
0000
,  // measure 48
0100
1000
0001
0010
0000
0000
0001
0000
0100
0000
1000
0000
0100
0000
0001
0100
,  // measure 49
0001
0000
1000
0100
1000
0000
0100
0010
0001
0000
0100
0010
2000
0000
0000
0000
,  // measure 50
0010
0000
3010
1000
0001
0010
0002
0000
,  // measure 51
0010
0000
0013
1000
0010
0001
2000
0000
,  // measure 52
0100
0000
3100
1000
0001
0100
0002
0000
,  // measure 53
0100
0000
0103
1000
0100
0001
2000
0000
,  // measure 54
0100
0000
0000
0000
3100
0000
0010
0001
0000
1000
0001
1000
0001
0000
0100
0000
,  // measure 55
1000
0000
0100
0010
1000
0100
0001
0100
,  // measure 56
1000
0000
0000
0000
0010
0000
0100
0000
0001
0100
0001
0100
0010
0000
1000
0000
,  // measure 57
0100
0000
0020
0032
0203
0320
1030
0010
,  // measure 58
1000
0001
1000
0000
0100
0000
1000
0010
0000
0010
1000
0001
0010
0000
0100
0000
,  // measure 59
2100
0000
3010
0100
1000
0100
0001
0010
,  // measure 60
0001
1000
0001
0000
0100
0000
0001
0010
0000
0010
0001
1000
0010
0000
0100
0000
,  // measure 61
0001
1000
0001
1000
0100
0000
0001
0000
0100
0000
1000
0000
0001
0000
0100
0000
,  // measure 62
0010
1000
0010
0000
1000
0000
0001
0010
0000
0001
0100
0010
1000
0000
0100
0000
,  // measure 63
0001
0100
1000
0010
0001
0010
1000
0100
,  // measure 64
0010
0001
0010
0000
0001
0000
0100
0000
0010
1000
0010
0000
0110
0000
0001
0000
,  // measure 65
0101
1000
1010
0010
0110
0000
1001
0000
,  // measure 66
1000
0000
0001
0100
0000
0000
0110
0000
0000
0000
0101
0000
0000
0000
0110
0000
,  // measure 67
0000
0000
1000
0000
0100
0000
0001
0000
0100
0010
0001
0000
1001
0000
0000
0000
,  // measure 68
1100
0000
1000
0200
0000
0001
0000
1000
,  // measure 69
0000
0000
0301
0000
0100
0000
1000
0000
0001
0100
0010
0000
1001
0000
0000
0000
,  // measure 70
0001
0000
1000
0100
0000
0000
0110
0000
0000
0000
1100
0000
0000
0000
0110
0000
,  // measure 71
0000
0000
0001
0000
0100
0000
1000
0000
0100
0010
1000
0000
0001
0000
0010
0000
,  // measure 72
1000
0000
0001
0100
1000
0010
0002
0000
,  // measure 73
2003
3200
0320
0230
,  // measure 74
0000
0000
0000
0000
0301
0000
0010
0000
0001
1000
0001
1000
0100
0000
1000
0010
,  // measure 75
0000
1000
0100
0000
0110
0000
0010
0000
0001
0000
0100
0000
0020
0000
0000
0000
,  // measure 76
1000
0000
0000
0000
0130
0000
0001
0000
1000
0001
1000
0001
0010
0100
1000
0001
,  // measure 77
0100
0010
1000
0100
0010
0001
0010
0001
1000
0010
1000
0010
0100
0000
0010
0000
,  // measure 78
1000
0001
1000
0000
0100
0000
0010
0000
0001
1000
0001
0000
0100
0000
0010
0000
,  // measure 79
1000
0100
1000
0000
0020
0000
0230
0000
2300
0000
3002
0000
0013
0000
0100
0001
,  // measure 80
0100
0000
0010
0000
1000
0100
1000
0000
0001
0010
0001
0000
1001
0000
1000
0010
,  // measure 81
0100
0000
0001
0010
0100
0000
1000
0010
0100
0000
0001
0010
0200
0000
0000
0000
,  // measure 82
0000
0000
0000
0000
,  // measure 83
0000
0300
0000
0000
0000
0000
0000
0000
;

//---------------dance-single - ----------------
#NOTES:
     dance-single:
     :
     Easy:
     8:
     0.304795,0.410238,0.057664,0.172992,0.000000,259.000000,252.000000,7.000000,21.000000,0.000000,0.000000,0.304795,0.410238,0.057664,0.172992,0.000000,259.000000,252.000000,7.000000,21.000000,0.000000,0.000000:
0000
0000
0000
0000
,
0000
0000
0000
0000
,
0000
0000
0000
0000
,
0000
0000
0000
0000
,
0000
0000
0000
0000
,
0000
0000
0000
0000
,
0000
0000
0000
0000
,
0000
0000
0000
0000
,
0000
0000
0000
0000
,
0020
0000
0130
0100
,
0001
1000
0100
0010
,
0100
1000
0001
0000
,
0100
0010
1000
0100
,
0100
0100
0100
0000
,
1000
0001
0010
0100
,
0010
0001
1000
0000
,
0010
0010
0100
0100
,
0010
0100
0020
0030
,
1000
0010
1000
0010
,
0100
0001
0100
0001
,
0010
0001
0010
0001
,
1000
0100
1000
0100
,
0010
0000
0001
0000
,
0100
0000
1000
0000
,
0010
0000
0001
0000
,
0100
1000
0020
0030
,
0100
0001
0010
1000
,
0010
0001
0010
0100
,
0100
1000
0010
0001
,
0010
1000
0020
0030
,
0001
0100
1000
0000
,
0001
0100
1000
0000
,
1000
0100
0001
0100
,
1000
0100
0002
0003
,
2001
0000
0000
0000
,
3100
0100
0100
0110
,
0010
0001
0001
1000
,
0010
1000
0100
0001
,
0100
1000
0001
0100
,
0100
0020
0030
0101
,
0100
0001
0001
1000
,
1000
0002
0003
0100
,
0010
1000
0001
0010
,
0010
0100
0100
0020
,
0031
0000
1000
0001
1000
0000
0020
0000
,
1030
0000
0001
1000
0001
0000
1100
0000
,
0100
1000
1000
0001
,
0001
2000
3000
0010
,
0100
0001
1000
0100
,
0100
0100
0100
0020
,
0000
0001
0000
0100
,
0100
0100
0000
0030
,
0200
1000
0000
0010
,
0310
0001
1000
0002
,
0000
0100
0000
1003
,
0001
0010
0100
1000
,
0001
1000
0100
0010
,
0010
0002
0003
1000
,
0010
0100
0100
0001
,
0100
0010
0000
1000
,
0100
0010
0001
0010
,
0001
0000
0100
0101
,
0001
1000
0001
0010
,
0001
0010
0100
1000
,
1000
0001
0001
0200
,
0010
0310
0000
1001
,
1000
0100
0000
0010
,
0000
1000
0010
0001
,
0001
0100
0000
0010
,
0000
1000
0010
0200
,
0301
0010
0000
0100
,
0000
0001
0100
1000
,
0010
0100
0001
1000
,
0100
0010
0001
0200
,
0000
0301
0001
1000
,
0100
1000
0010
0001
,
0010
1000
0001
0010
,
0010
0200
0300
1100
,
0100
1000
1000
0001
,
0001
0200
0300
0010
,
0100
0001
1000
0100
,
0100
0100
0100
0020
,
0000
0000
0000
0000
,
0030
0000
0000
0000
;

//---------------dance-single - ----------------
#NOTES:
     dance-single:
     :
     Beginner:
     4:
     0.154163,0.235701,0.041189,0.140041,0.000000,131.000000,126.000000,5.000000,17.000000,0.000000,0.000000,0.154163,0.235701,0.041189,0.140041,0.000000,131.000000,126.000000,5.000000,17.000000,0.000000,0.000000:
0000
0000
0000
0000
,
0000
0000
0000
0000
,
0000
0000
0000
0000
,
0000
0000
0000
0000
,
0000
0000
0000
0000
,
0000
0000
0000
0000
,
0000
0000
0000
0000
,
0000
0000
0000
0000
,
0000
0000
0000
0000
,
0200
0000
0300
0000
,
1000
0000
0001
0000
,
0100
0000
0000
0000
,
0001
0000
1000
0000
,
0010
0000
0000
0000
,
1000
0000
0001
0000
,
0010
0000
0100
0000
,
1000
0000
1000
0000
,
0001
0001
0000
0000
,
0100
0000
0010
0000
,
0100
0000
0010
0000
,
1000
0000
0001
0000
,
1000
0000
0001
0000
,
0010
0000
0001
0000
,
0010
0000
0001
0000
,
1000
0000
0100
0000
,
0010
0000
0000
0000
,
0001
0000
0100
0000
,
0010
0000
0100
0000
,
1000
0000
0100
0000
,
0010
0000
0100
0000
,
0001
0000
0010
0000
,
1000
0000
0010
0000
,
0002
0000
0003
0000
,
2000
0000
3000
0000
,
2002
0000
0000
0000
,
3003
0000
0000
0000
,
0001
0000
1000
0000
,
0100
0000
0010
0000
,
0001
0000
1000
0000
,
0010
0010
0010
0000
,
0100
0000
0001
0000
,
1000
0000
0000
0100
,
0000
0010
0000
0001
,
0001
0001
0000
0002
,
0003
0020
0030
0200
,
0300
2000
3000
0000
,
0001
0000
1000
0000
,
0010
0000
0000
0100
,
0000
0001
0000
2000
,
0000
3000
0000
0200
,
0000
0000
0000
0300
,
0000
0000
0000
0020
,
0000
0000
0000
0030
,
0000
0000
0000
0002
,
0000
0003
0000
0200
,
0000
0300
0000
0002
,
0000
0003
0000
0200
,
0000
0300
0000
0010
,
0000
1000
0000
0001
,
0001
0001
0000
0100
,
0000
0001
0000
1000
,
1000
1000
0000
0100
,
0000
0010
0000
0001
,
0001
0001
0000
0100
,
0000
0010
0000
0001
,
0001
0001
0000
1001
,
0000
0000
0000
0010
,
0000
0000
0000
1001
,
0000
0000
0000
0100
,
0000
0000
0000
0110
,
0000
0000
0000
1000
,
0000
0000
0000
0110
,
0000
0000
0000
0002
,
0000
0003
0000
1000
,
0000
0100
0000
0010
,
0010
0010
0000
0001
,
0000
0010
0000
0100
,
0100
0100
0000
1000
,
0000
0010
0000
0001
,
0000
0100
0000
1000
,
0000
0010
0000
0001
,
0001
0001
0000
0100
;
