#TITLE:Qyoh (Nine Stars);
#SUBTITLE:;
#ARTIST:かめりあ;
#TITLETRANSLIT:;
#SUBTITLETRANSLIT:;
#ARTISTTRANSLIT:Camellia;
#GENRE:Jazzy-Breakcore / IDM (and 7/8 drops);
#CREDIT:;
#BANNER:;
#BACKGROUND:Qyoh-bg.png;
#LYRICSPATH:;
#CDTITLE:;
#MUSIC:Qyoh (Nine Stars).ogg;
#OFFSET:-0.748000;
#SAMPLESTART:336.450012;
#SAMPLELENGTH:15.000000;
#SELECTABLE:YES;
#DISPLAYBPM:242.000000;
#BPMS:0.000000=242.000000
,1212.500000=484.000000
,1213.000000=242.000000
;
#STOPS:315.500000=0.247932,
359.500000=0.247940,
1212.500000=0.061981
;
#BGCHANGES:;
#KEYSOUNDS:;
#ATTACKS:;

//---------------dance-single - ----------------
#NOTES:
     dance-single:
     :
     Hard:
     19:
     0.976024,1.561772,0.580420,0.386946,0.525641,2931.000000,2682.000000,249.000000,166.000000,0.000000,0.000000,0.976024,1.561772,0.580420,0.386946,0.525641,2931.000000,2682.000000,249.000000,166.000000,0.000000,0.000000:
// measure 0
0000
0000
0000
0000
,  // measure 1
0000
0000
0000
0000
,  // measure 2
0000
0000
0000
0000
,  // measure 3
0000
0000
0000
0000
,  // measure 4
0000
0000
0000
0000
,  // measure 5
0000
0000
0000
0000
,  // measure 6
0000
0000
0000
0000
,  // measure 7
0000
0000
0000
0000
,  // measure 8
1000
0010
1000
0001
0100
0020
0000
0000
,  // measure 9
0000
0000
0000
2030
,  // measure 10
0000
0000
0000
0000
0000
0000
0000
3100
,  // measure 11
0000
0000
0000
0010
0000
0000
0000
0000
0001
0000
0010
0000
0001
0000
1000
0000
,  // measure 12
0100
0020
0000
0000
0000
0000
0000
0000
,  // measure 13
0000
0032
0000
0000
,  // measure 14
0000
0000
0000
0003
0000
0000
0000
0000
,  // measure 15
1000
0100
1000
0010
1000
0002
0000
0000
,  // measure 16
0000
0000
0000
0203
,  // measure 17
0000
0000
0000
0000
0000
0000
0000
0310
,  // measure 18
0000
0000
0000
1000
0000
0000
0000
0000
0001
0000
0100
0000
0001
0000
0010
0000
,  // measure 19
0001
2000
0000
0000
0000
0000
0000
0000
,  // measure 20
0000
3200
0000
0000
,  // measure 21
0000
0000
0000
0300
0000
0000
0100
1000
,  // measure 22
0002
0000
0000
0000
0103
0000
0100
0010
,  // measure 23
0100
0000
0001
1000
0000
0100
2000
0000
,  // measure 24
0000
0000
3001
0020
,  // measure 25
0000
0031
0200
0000
,  // measure 26
0000
0000
0301
0000
0010
0000
0000
1000
,  // measure 27
0000
0000
0010
0001
1000
0100
0000
0010
,  // measure 28
0000
0200
0000
0000
0000
0000
0000
0000
,  // measure 29
2300
0000
0000
0000
3010
0000
0010
0100
,  // measure 30
0001
0000
1000
0100
0000
1000
0002
0000
,  // measure 31
0000
0000
0103
0000
0100
0010
1000
0000
,  // measure 32
0001
1000
0000
0010
2000
0000
0000
0000
,  // measure 33
3200
0000
0000
1300
0010
1000
0010
0100
,  // measure 34
0001
0010
0011
0000
0000
0000
0101
0000
,  // measure 35
0000
1100
0000
0000
0000
0011
0000
0000
,  // measure 36
2001
0000
0000
0000
3010
0000
0010
0100
,  // measure 37
0010
0000
1000
0010
0000
0100
0002
0000
,  // measure 38
0000
0000
0013
0001
,  // measure 39
0100
0001
0000
1000
0020
0000
0000
0000
,  // measure 40
1030
0000
1000
0100
0001
0000
0100
0010
,  // measure 41
0000
0100
1000
0001
0100
0001
0000
0110
,  // measure 42
0000
2000
0000
0000
0000
3002
0000
0000
,  // measure 43
0023
0000
0000
0000
0000
0000
1030
0010
,  // measure 44
0002
0000
0000
0203
0000
0000
0320
0000
,  // measure 45
0000
0000
0000
0000
0031
0010
2000
0000
,  // measure 46
0000
3200
0000
0000
0320
0000
0000
0032
,  // measure 47
0000
0000
0203
0000
0000
0320
0000
0000
,  // measure 48
1030
2002
0000
0000
,  // measure 49
0000
3000
0000
0000
0000
0000
0103
0010
,  // measure 50
2002
0000
0000
0000
0000
0000
0000
0003
,  // measure 51
0000
0000
0000
0000
3100
0010
1001
0000
,  // measure 52
1001
0110
0110
1001
,  // measure 53
0110
0000
1001
0000
0001
0010
0100
0010
,  // measure 54
0100
0000
1000
0000
0010
0000
0001
0000
0020
0000
0000
0000
1030
0001
0020
0000
,  // measure 55
0000
0000
0031
1000
0010
0000
0000
0000
0000
0000
0000
0001
0100
0001
0100
0010
,  // measure 56
1000
0010
0000
1000
0001
0000
0010
0001
,  // measure 57
0000
0010
0100
0020
0000
0031
1000
0001
,  // measure 58
0010
0100
1000
0010
0100
2000
0000
3000
,  // measure 59
0000
0000
0000
0000
0100
0001
0100
0001
0100
0001
1000
0001
,  // measure 60
0010
0000
0001
0000
0010
0000
0100
0000
0010
0000
0001
0000
1000
0000
0000
0010
0000
0000
0100
0000
0000
0001
0000
0000
,  // measure 61
0010
0001
0010
0100
1000
0001
0100
0010
1000
0001
0010
0100
,  // measure 62
1000
0100
1000
0000
0100
0000
0000
0000
0100
0000
0000
0000
0010
0000
0000
0000
,  // measure 63
0010
0001
0001
1000
,  // measure 64
0010
0010
0100
0100
,  // measure 65
0001
0000
0000
0000
0001
0000
0000
0000
1000
0000
0000
0000
0001
0100
0001
0100
,  // measure 66
0000
0000
0010
1000
0010
1000
0000
0000
0001
1000
0000
0000
0001
0010
0001
0010
,  // measure 67
0000
0000
0000
0000
0000
0000
0100
0000
0000
1000
0000
0000
0100
0000
0000
1000
0000
0000
0000
0000
0000
0000
0000
0000
0001
0000
0000
0000
0100
0000
0000
0000
0001
0000
0000
0000
0100
0000
0000
0000
0010
0000
0000
0000
1000
0000
0000
0000
,  // measure 68
0010
0000
0000
0000
0010
0000
0000
0000
0010
0000
0000
0000
0220
0000
0000
0000
0000
0000
0000
0000
0000
0330
0000
0000
,  // measure 69
0000
0000
1001
1000
0010
2000
0000
3001
,  // measure 70
0001
0000
0010
0000
0001
0000
1000
0000
0001
0000
0010
0000
0100
0000
1000
0100
,  // measure 71
1000
0000
0100
0000
1100
0000
0000
0000
0100
0000
0010
0001
1000
0001
1000
0000
,  // measure 72
0010
0000
0100
0001
1000
0001
2000
0000
0000
0000
3100
0000
0110
0000
0020
0000
,  // measure 73
0001
0230
1000
0320
0001
0130
1000
0001
,  // measure 74
1000
0000
0001
0000
0100
0000
0010
0000
0002
0000
0000
0000
0013
1000
0010
0000
,  // measure 75
0100
0001
0200
0000
0000
0000
0310
0000
1000
0000
0001
0000
0010
0000
0001
0000
,  // measure 76
0100
0010
1000
0200
0000
0000
0000
0310
,  // measure 77
0001
0010
0001
0000
1000
0000
0020
0000
0000
0000
0230
0000
0000
0000
0310
0000
,  // measure 78
1000
0000
0000
0000
0001
0000
0000
0000
0002
0000
0000
0000
0000
0000
0000
0000
0003
0000
0000
0000
0101
0000
0000
0000
0000
0000
0000
0000
0220
0330
0000
0000
,  // measure 79
0001
0000
1000
0000
0000
0100
0000
0000
0220
0000
0330
0000
0220
0000
0330
0000
,  // measure 80
0001
0010
0000
0100
1000
0000
0200
0000
0000
0000
1300
0100
1000
0100
1000
0000
,  // measure 81
0001
0100
0001
0000
1001
0000
0000
0000
0000
0000
0000
0000
1010
0000
0000
0000
,  // measure 82
0000
0101
0000
0000
0000
0110
0000
0000
,  // measure 83
1001
0001
0010
0010
0010
0010
0010
0100
,  // measure 84
0010
0000
0001
0000
0010
0000
1000
0000
0010
0000
0001
1000
0001
1000
0001
0000
,  // measure 85
1000
0010
0100
0010
0001
1000
0100
0010
,  // measure 86
1000
0000
0001
0000
0010
0000
0100
0000
1000
0001
1000
0001
0020
0000
0230
0000
,  // measure 87
2300
3002
0203
0320
0130
0001
0100
1000
,  // measure 88
0100
0000
0001
0000
1000
0001
1000
0000
0100
0000
0010
0000
1000
0000
0001
0000
,  // measure 89
0100
0000
0000
0000
0010
0000
0000
0000
0001
0000
0000
0000
1000
0000
0000
0000
0010
0000
0000
0000
1000
0000
0000
0000
0100
0000
0000
0000
0020
0030
0000
0000
,  // measure 90
1001
0000
0001
0100
0000
1001
0000
1000
,  // measure 91
0100
0000
0010
0000
0001
1000
0001
1000
0001
0000
0100
0000
0100
0000
0010
0000
,  // measure 92
0001
0000
1000
0000
0100
0000
0010
0000
1000
0000
0001
0000
0100
0001
0100
0001
,  // measure 93
1000
0010
1000
0010
0100
0000
0001
0000
0100
0000
0101
0000
0000
0000
0000
0000
,  // measure 94
0000
1100
1000
0100
1100
0000
0000
0000
,  // measure 95
0011
0001
0010
0011
0000
0000
0000
1010
,  // measure 96
1000
0010
1010
0000
0000
0000
0110
0010
,  // measure 97
0100
0110
0000
0000
0000
1001
1000
0001
,  // measure 98
1001
0000
0000
0000
1100
1000
0001
0101
,  // measure 99
0000
0000
0000
2002
0000
0000
0000
0000
,  // measure 100
3003
1001
0000
0000
,  // measure 101
0000
0000
0000
0010
,  // measure 102
0101
0000
0000
1001
0000
0000
1010
0000
,  // measure 103
0100
0000
0001
1000
,  // measure 104
0000
0000
0000
0000
,  // measure 105
0000
0000
0100
0000
0011
0000
0000
0110
,  // measure 106
0000
0000
1100
0000
0000
0010
0001
0100
,  // measure 107
0010
1000
0100
0000
0100
0000
1000
0000
,  // measure 108
1000
0001
0001
0110
,  // measure 109
1000
1000
0001
0001
,  // measure 110
0010
0000
0000
0000
0010
0000
0000
0000
0001
0000
0000
0000
1000
0100
1000
0100
,  // measure 111
0000
0000
0010
0001
0010
0001
0000
0000
1000
0001
0000
0000
1000
0010
1000
0010
,  // measure 112
0000
0000
0000
0000
0000
0000
0100
0000
0000
0001
0000
0000
0100
0000
0000
0001
0000
0000
0000
0000
0000
0000
0000
0000
1000
0000
0000
0000
0100
0000
0000
0000
1000
0000
0000
0000
0100
0000
0000
0000
0010
0000
0000
0000
0001
0000
0000
0000
,  // measure 113
0010
0000
0010
0000
0010
0000
0220
0000
0000
0000
0000
0000
,  // measure 114
0330
0000
0110
0100
1000
0010
0100
0010
,  // measure 115
0000
0110
0100
0001
0010
0100
0010
0010
,  // measure 116
0100
1000
0001
1000
0010
0000
0010
0100
,  // measure 117
0010
0002
0000
0023
0000
1030
1001
0001
,  // measure 118
0010
0000
0100
0000
0010
0000
0000
0000
0010
0000
0001
1000
0001
0000
0001
0000
,  // measure 119
0100
0000
0001
0000
0010
0000
0100
0000
1000
0001
1000
0000
1000
0000
0010
0000
,  // measure 120
1000
0000
0100
0000
0010
0000
0002
0000
0000
0000
1003
0001
1000
0001
0010
0000
,  // measure 121
0000
0100
0000
0000
1001
0000
1000
0000
0010
0000
0100
0000
0010
0000
0100
0000
,  // measure 122
0000
1001
0001
0010
0100
0010
0100
0100
,  // measure 123
0010
0001
1000
0001
0100
0000
0100
0010
,  // measure 124
0100
2000
0000
3002
0000
0013
1010
1000
,  // measure 125
0100
0000
0010
0000
0001
0000
0000
0000
0001
0000
0100
0010
0100
0000
0100
0000
,  // measure 126
0010
0000
0100
0000
0001
0000
0010
0000
0001
0000
0010
0001
1000
0000
0010
0000
,  // measure 127
1000
0001
0010
0000
0001
0000
1000
0010
1000
0000
0001
0000
0010
0001
0010
0000
,  // measure 128
0100
1000
0002
0000
0103
0010
0100
0000
,  // measure 129
1000
0000
0100
0000
0001
0100
0000
0001
,  // measure 130
1000
0200
0000
0000
,  // measure 131
0000
0300
0000
0000
0000
0000
0000
0000
,  // measure 132
0010
0100
0010
0000
0001
0000
1000
0000
,  // measure 133
0001
0010
0000
0001
0100
0000
0020
0000
,  // measure 134
0000
0000
0000
0000
0000
0030
0000
0000
,  // measure 135
0010
1000
0001
0000
0010
0000
0110
0000
,  // measure 136
0100
0000
1000
0000
0001
0100
0000
0100
,  // measure 137
1000
0000
0010
0000
0100
0001
0100
0000
,  // measure 138
0010
0000
0000
0000
1000
0000
0001
0000
0100
0001
0100
0001
1000
0000
1001
0000
,  // measure 139
0001
1000
1001
0000
0011
0000
1100
0000
,  // measure 140
0000
0011
0000
0001
1001
1000
0001
1001
,  // measure 141
1000
0000
1010
0000
0101
0000
0000
1010
,  // measure 142
0010
1000
0010
1000
0001
0000
0000
0000
0010
0000
0000
0000
0001
0000
0010
0000
,  // measure 143
0100
0000
1000
0000
0010
0000
1000
0010
,  // measure 144
0100
0000
0001
0010
0100
0010
0100
0001
,  // measure 145
0200
0000
0000
0000
1300
0001
0100
0100
,  // measure 146
0010
0000
1000
0010
1000
0010
1000
0000
0002
0000
0000
0000
0013
0000
0100
0000
,  // measure 147
0010
0000
0001
0000
0010
0001
0010
0001
0010
0000
0001
0000
1000
0000
0010
0000
,  // measure 148
0200
0000
0000
0000
0301
1000
0001
0000
0100
0000
0010
0000
1000
0000
0010
0000
,  // measure 149
0100
0000
0001
0000
0100
0010
0100
0000
0001
0000
0010
0000
0100
0010
0100
0000
,  // measure 150
1000
0010
0100
0001
0010
0001
1000
0001
,  // measure 151
1000
0000
0001
0000
1000
0000
0010
0000
0001
0000
0010
0000
1000
0010
1000
0000
,  // measure 152
0001
0010
0001
0010
0001
0000
1000
0010
1000
0010
0100
0001
0100
0000
0001
0000
,  // measure 153
0010
0000
0001
1000
0000
0100
2000
0000
0000
0000
0000
0000
3100
0010
0100
0010
,  // measure 154
0001
1000
0001
0010
0100
0001
1000
0010
,  // measure 155
0001
0000
0001
0000
0100
0000
0010
0000
1000
0000
1000
0001
0100
0000
0001
1000
,  // measure 156
0100
0100
0010
0001
0001
0100
0010
1000
,  // measure 157
0100
0000
0001
0000
0100
0000
2000
0000
3002
0000
0203
0000
0320
0000
0130
0001
,  // measure 158
0100
0000
0010
1000
0010
0000
0100
0000
0101
0000
0001
0000
0100
0000
0110
0000
,  // measure 159
0000
0100
0010
1010
1000
0100
0110
0010
,  // measure 160
0001
0010
0001
0000
1000
0010
1000
0000
0001
0000
0000
0000
0010
0100
0010
0000
,  // measure 161
0001
0100
0001
0010
0200
0320
0032
2003
,  // measure 162
3020
0000
0230
0000
0310
0000
1000
0001
1000
0000
0100
0000
0010
0000
0001
1000
,  // measure 163
0001
0000
0100
0000
0010
0000
1000
0000
0100
0000
1000
0100
1000
0000
0001
0000
,  // measure 164
0100
0001
0100
0000
0001
0000
1000
0000
0010
0100
0010
0100
0010
0000
1000
0000
,  // measure 165
0100
0001
1000
0010
0100
0100
1000
0001
,  // measure 166
0010
0001
1000
0001
0100
1000
0100
0010
,  // measure 167
1000
0000
0001
0010
0001
0010
0001
0000
0100
0000
0010
0000
1000
0000
0100
0000
,  // measure 168
1000
0000
0001
0000
0100
0000
0001
0000
0010
0000
0001
0000
1000
0000
0001
0100
,  // measure 169
0001
0100
0001
0000
0010
0000
0100
0000
1000
0000
0010
0000
1000
0000
0001
0000
,  // measure 170
0100
0000
0001
0000
0010
0000
0001
0010
0001
0000
1000
0000
0100
1000
0100
0000
,  // measure 171
1000
0000
0010
1000
0010
0000
0100
0000
0001
0100
0001
0000
1000
0000
0100
0000
,  // measure 172
2002
0000
0000
0000
,  // measure 173
0000
0000
3003
0000
0001
0100
2002
0000
,  // measure 174
0000
0000
0000
0000
0000
3003
0000
1000
,  // measure 175
0001
0100
0010
1000
0100
0000
0110
0000
,  // measure 176
1001
0000
0000
0000
0000
0000
0001
0000
0010
0000
0100
1000
0100
0000
1000
0000
,  // measure 177
0010
0100
0001
0100
0000
1010
0000
0101
,  // measure 178
0000
0010
1000
0100
0001
0100
1000
0001
,  // measure 179
0100
0000
0010
0000
0000
0000
0101
0000
0000
0000
0010
1000
0010
1000
0001
0010
,  // measure 180
0100
1000
0100
0001
0100
0020
0000
0031
,  // measure 181
0010
0100
1000
0010
0100
0001
0010
1000
,  // measure 182
0010
0001
1000
0100
0001
0000
0100
0100
,  // measure 183
0000
1000
1000
1000
0000
0001
0001
0000
,  // measure 184
0100
0000
0100
0010
1000
0000
2000
0000
0000
0000
0000
0000
0000
0000
0000
0000
,  // measure 185
3010
0000
1000
0001
0100
0001
0100
0010
1000
0000
0001
0000
0010
0000
0000
0000
,  // measure 186
0101
0001
0100
0101
0000
0000
0000
1100
,  // measure 187
1000
0100
1100
0000
0000
0000
1010
1000
,  // measure 188
0010
1010
0000
0000
0000
0011
0001
0010
,  // measure 189
0011
0000
0000
0000
0110
0010
0100
0110
,  // measure 190
0000
0000
0000
1001
1000
0001
1001
0000
,  // measure 191
0000
0000
1010
1000
0001
0011
0000
0000
,  // measure 192
0000
2002
0000
0000
0000
0000
3003
0000
,  // measure 193
1001
0000
0000
0000
,  // measure 194
0000
0000
0000
0000
,  // measure 195
0000
0000
0000
0000
,  // measure 196
0000
0000
0000
0000
,  // measure 197
0000
0000
0000
0000
,  // measure 198
0000
0000
0000
0000
,  // measure 199
0000
0000
0000
0000
,  // measure 200
0010
1000
0010
1000
0000
0001
0000
0010
,  // measure 201
0000
1000
0000
0100
0010
0100
0010
0001
,  // measure 202
0010
0001
0000
1000
0000
0010
0000
0001
,  // measure 203
0000
1000
0001
1000
0100
1000
0100
1000
,  // measure 204
0000
0010
0000
0001
0000
0100
0000
0010
,  // measure 205
0100
0010
0100
0001
0100
0001
0000
0010
,  // measure 206
0000
1000
0100
1000
0010
0100
0001
0010
,  // measure 207
0001
0000
0000
0000
1000
0001
0100
0001
,  // measure 208
0000
0000
0000
0001
1000
0100
1000
0000
,  // measure 209
0000
0000
0001
0000
1000
0000
0010
0000
1000
0000
0010
0100
0010
0000
1000
0000
,  // measure 210
0001
0010
0100
0010
0001
0000
0000
0000
,  // measure 211
0001
1000
0010
1000
0000
0000
0000
0001
,  // measure 212
1000
0000
0100
1000
0100
0000
0000
0000
0010
0000
0000
0000
0110
0000
0110
0000
,  // measure 213
0000
1100
0000
1001
0000
0101
0000
0110
,  // measure 214
0010
0100
0010
0100
0001
0010
1000
0010
,  // measure 215
0100
0010
0100
1000
0010
0001
0010
0100
,  // measure 216
0010
0000
0100
0000
0001
0000
0010
0000
1000
0000
0010
0100
0010
0000
0001
0000
,  // measure 217
1000
0010
0100
0010
1000
0001
1000
0001
,  // measure 218
0010
1000
0010
0001
1000
0001
1000
0010
,  // measure 219
0001
0000
0010
0100
0010
0000
0010
0000
0100
0000
0100
0000
0001
0000
0001
0000
,  // measure 220
1000
1000
0100
0100
0010
0010
0001
1000
,  // measure 221
0010
1000
0001
1000
0001
0010
0100
0010
0001
1000
0001
1000
0010
0100
0010
1000
,  // measure 222
0001
0010
0100
1000
0010
0100
1001
0000
,  // measure 223
1000
0000
0100
0000
1000
0000
0001
0000
0100
0000
0110
0000
0000
0000
0001
0100
,  // measure 224
0001
0100
0010
1000
0010
1000
0001
0100
0020
0000
0000
0000
1030
0000
1000
0000
,  // measure 225
0001
0000
0001
0000
0010
0000
0200
0000
0000
0000
1300
0010
0100
0001
1000
0010
,  // measure 226
0100
0001
1000
0000
0100
0000
0100
0000
0100
0000
0100
0000
1000
0000
0001
0000
,  // measure 227
0100
0110
0000
0001
0100
0001
1000
0100
,  // measure 228
0110
0000
0001
0010
0011
0000
0001
1001
,  // measure 229
0000
1000
0010
1010
0000
1000
1002
0000
,  // measure 230
0000
0000
0000
0000
0103
0000
0001
1000
0001
1000
0200
0000
0000
0000
0000
0000
,  // measure 231
0000
0000
0310
0000
0100
0000
1000
0001
1000
0001
0200
0000
0000
0000
0310
0000
,  // measure 232
0000
1000
0100
1100
0000
0001
0100
0001
,  // measure 233
0010
0100
0110
0000
1000
0001
1000
0001
,  // measure 234
0010
1000
0010
0001
1000
0100
0001
0100
,  // measure 235
2000
0000
0000
0000
0000
0000
0000
0000
0000
0000
0000
0000
3001
0100
0010
0000
,  // measure 236
0000
0000
0110
0000
0000
0000
0000
0000
1000
0010
0100
0010
0100
0000
0000
0000
,  // measure 237
0001
0000
0110
0010
1000
0200
0000
0301
,  // measure 238
0100
0020
0000
0031
1001
0000
1001
0000
,  // measure 239
0110
0000
0010
0000
1000
0000
0001
0010
0100
1000
0001
0010
0100
1000
0001
0010
,  // measure 240
0100
1000
0001
0100
0010
0000
0000
0000
1010
0000
0000
0000
0100
0000
0000
0000
,  // measure 241
0101
0020
0000
1030
0001
0100
0001
0010
,  // measure 242
0110
0000
1001
0000
0011
0000
1100
0110
,  // measure 243
0000
1001
0000
1010
0000
0001
0200
0000
,  // measure 244
0000
0000
0000
0000
0000
0310
0000
0100
,  // measure 245
0010
0000
1000
0000
1001
0000
0000
0011
,  // measure 246
0000
0001
1000
0100
0020
0000
0031
0020
,  // measure 247
0000
1030
0010
0001
1001
0000
1010
1001
,  // measure 248
0000
0101
1001
0000
1100
1001
0000
0011
,  // measure 249
1001
1000
0010
1001
0001
0010
1001
1000
,  // measure 250
0100
1001
0001
0100
0010
0100
0210
0000
,  // measure 251
0001
0000
0320
0000
1000
0130
0000
0000
,  // measure 252
1010
0000
1000
0100
0120
0000
0001
0000
,  // measure 253
0230
0000
0000
0000
1000
0000
0310
0000
0000
0000
0000
0000
0011
0000
0001
0010
,  // measure 254
0001
0010
0100
0000
2000
0000
0000
0000
0010
0000
0000
0000
3002
0000
0000
0000
,  // measure 255
0100
1003
0000
0000
1100
1000
0010
0100
,  // measure 256
0002
0000
0010
0000
2003
0000
0100
3001
,  // measure 257
0000
0000
0100
0010
1000
0000
0001
0100
0001
0100
0010
0000
1010
0000
0000
0000
,  // measure 258
0101
0000
1010
0000
0101
0110
0000
1001
,  // measure 259
0000
1001
0000
0010
0011
0000
1100
0000
,  // measure 260
0011
0000
1100
0110
0000
1001
0000
1001
,  // measure 261
0000
0010
1010
0000
0011
0000
1010
0000
,  // measure 262
0011
0110
0000
1001
0000
1001
0000
0100
,  // measure 263
0101
0100
0010
0010
1000
1000
0001
0001
,  // measure 264
0010
0100
0010
0100
2000
0000
0000
0000
3002
0000
0000
0000
0103
0000
0000
0000
,  // measure 265
0100
0010
0000
1000
0000
1001
0000
0001
,  // measure 266
0010
1000
0001
0100
0010
0100
1000
0001
,  // measure 267
0000
0101
0000
0100
1000
0100
0010
0100
,  // measure 268
0000
0001
2000
0000
3001
0100
0100
1000
,  // measure 269
0100
0100
0001
0100
0000
0010
0000
1000
,  // measure 270
0001
0010
1000
0010
0001
0000
1000
0010
,  // measure 271
0001
0000
0010
0000
0100
0000
0001
0000
0100
0001
0100
0000
0010
0100
0010
0000
,  // measure 272
1000
0010
1000
0000
0001
0010
0001
0000
0010
0100
0010
0000
0100
1000
0100
0000
,  // measure 273
1000
0001
1000
0000
0001
0100
0001
0000
1000
0010
1000
0010
0100
0001
0100
0001
,  // measure 274
1000
0010
1000
0010
0100
0001
0100
0001
1000
0001
1000
0001
0010
0100
0010
0100
,  // measure 275
1000
0100
0010
0001
1000
0100
1000
0100
0000
0000
0010
0001
0010
0001
0000
0000
,  // measure 276
1000
0001
0000
0000
0100
0001
0100
0001
0000
0000
1000
0010
1000
0010
0000
0000
,  // measure 277
0100
0001
0010
0100
1000
0001
0100
0000
0100
0000
0100
0000
,  // measure 278
0220
0000
0330
2002
,  // measure 279
0000
0000
0000
0000
,  // measure 280
0000
0000
0000
0000
,  // measure 281
0000
0000
0000
0000
,  // measure 282
3003
0000
0000
0000
0010
0100
0010
0100
0010
0100
0010
0100
0010
0100
0010
0100
,  // measure 283
0010
0100
0001
1000
0001
1000
0001
1000
0001
1000
0001
1000
0001
1000
0001
1000
,  // measure 284
0100
0001
0100
1000
0100
0001
0100
1000
,  // measure 285
0010
0000
0001
0000
0010
0000
1000
0000
0001
1000
0001
1000
0001
0000
1000
0100
,  // measure 286
0010
0000
0100
0010
0001
0000
1000
0000
0100
0000
1000
0001
0100
0000
0001
1000
,  // measure 287
0100
1000
0001
0000
0010
0000
0001
0000
1000
0000
0001
0100
0010
0000
0100
0010
,  // measure 288
1000
0000
0001
0000
0100
0000
0001
1000
0100
0000
1000
0001
0100
0001
1000
0000
,  // measure 289
0010
0000
0001
0000
0010
0000
0100
0001
1000
0000
0001
1000
0010
0000
0100
0000
,  // measure 290
0001
0000
0010
0100
1000
0000
0010
0100
0001
0100
0010
0000
1000
0000
0001
0000
,  // measure 291
1000
0000
0100
1000
0001
0000
1000
0001
0010
0000
0100
0000
1000
0000
0001
0100
,  // measure 292
0001
0100
0001
0000
1000
0100
1000
0100
0010
0000
0001
0000
0100
0000
0001
0010
,  // measure 293
0100
0000
0010
0100
1000
0000
0010
0000
0100
0000
0001
1000
0010
0000
1000
0001
,  // measure 294
0010
0001
1000
0000
0100
0000
0010
0000
0001
0000
1000
0010
0100
0000
0010
0100
,  // measure 295
0001
0000
0010
0000
0100
0000
1000
0001
0010
0000
0001
1000
0010
1000
0001
0000
,  // measure 296
0010
0000
0001
0000
1000
0000
0010
1000
0100
0000
0010
0001
0100
0000
0001
0000
,  // measure 297
1000
0000
0100
0010
0100
0000
1000
0001
0100
0010
0100
0000
0001
0000
0010
0000
,  // measure 298
0210
0000
1300
0000
0120
0000
0031
0110
,  // measure 299
0000
0000
1000
0000
0010
0000
0110
0000
0000
0000
0100
0000
0101
0000
0001
0100
,  // measure 300
0001
0000
0100
0010
0100
0000
0001
0000
1000
0000
0010
0100
0001
0000
0100
0010
,  // measure 301
0100
0010
1000
0000
0010
0000
1000
0000
0100
0000
1000
0100
1000
0000
0100
0010
,  // measure 302
0100
0000
1000
0000
0001
0000
0010
0100
1000
0000
0010
0100
0010
0100
0001
0000
,  // measure 303
0020
0000
0000
0000
0000
0030
0000
0000
0100
0000
0000
0000
1000
0000
0001
0000
0100
0000
0000
0000
0001
0000
1000
0000
0100
0000
0000
0000
0010
0000
0000
0000
,  // measure 304
0001
0000
0100
0010
1000
0000
0001
1000
0010
1000
0001
0000
0010
0000
0100
0000
,  // measure 305
1100
1100
0000
1001
0000
0101
0101
0000
,  // measure 306
0110
0000
0110
0000
0000
0000
0001
0000
0010
0000
0100
0000
1000
0000
0100
1000
,  // measure 307
0010
0000
0100
0001
0010
0000
0001
0000
1000
0000
0010
0100
0010
0000
1000
0001
,  // measure 308
1000
0010
0100
0000
0001
0000
0010
0000
0100
0000
0010
0001
0100
0000
0010
1000
,  // measure 309
0100
0000
1000
0000
0001
0000
0100
0010
0100
0000
0001
1000
0001
0100
0010
0000
,  // measure 310
1000
0000
0100
0000
0010
0000
0001
1000
0001
0000
0001
0100
0001
0000
0100
0000
,  // measure 311
0010
0000
1000
0001
1000
0000
1000
0010
1000
0000
0001
0000
0100
0000
0001
0000
,  // measure 312
0010
0000
0100
0010
0100
0000
0100
1000
0100
0000
1000
0000
0001
0000
0100
0001
,  // measure 313
0100
0000
0100
0010
0100
0000
0001
0000
1000
0000
0100
0000
0010
0000
0001
0010
,  // measure 314
0001
0000
1000
0010
1000
0000
0100
0000
0010
0000
0001
0100
0001
0000
1000
0100
,  // measure 315
1000
0000
0010
0000
0100
0000
1000
0000
0100
0000
0001
0100
0001
0000
1000
0010
,  // measure 316
1000
0000
0001
0000
1000
0000
0100
1000
0100
0000
0010
0001
0010
0100
1000
0001
,  // measure 317
0100
0010
1000
0000
0010
0000
0100
0000
0001
0000
0100
0000
0101
0000
0000
0000
,  // measure 318
0110
0000
1000
0000
0100
0110
0000
0010
,  // measure 319
0100
0000
1000
0000
0101
0100
0010
1000
,  // measure 320
0001
0010
0100
0010
0001
0100
0100
1000
,  // measure 321
0010
1000
1010
0000
0110
0000
0001
0000
,  // measure 322
0010
0110
0000
0100
0010
0001
1000
0001
,  // measure 323
0100
1000
0100
0001
0010
1000
0010
0001
,  // measure 324
1000
0100
0010
0000
1001
0000
1010
0000
,  // measure 325
0001
0100
0010
0100
0001
0011
0000
1000
,  // measure 326
0100
0010
0100
1000
1010
0000
0001
0100
,  // measure 327
0001
0000
0010
0000
0100
0000
1000
0001
0100
0000
0001
1000
0100
0000
0200
0000
,  // measure 328
0000
0010
0010
0000
0001
0000
1000
0000
,  // measure 329
0000
0000
1300
0000
0001
1000
0001
1000
0020
0000
0000
0000
0000
0000
0100
0000
,  // measure 330
0100
0001
2030
0000
,  // measure 331
3100
1000
0100
1000
0001
0000
1001
0000
1000
0000
0001
0000
1001
0000
0000
0000
,  // measure 332
1010
0000
0101
0000
0000
1010
0000
1000
,  // measure 333
1001
0001
1000
1001
0001
0000
0011
0000
,  // measure 334
1100
0000
0000
0000
0000
0000
0011
0000
0010
0001
0010
0001
2000
0000
0000
0000
,  // measure 335
0010
0000
3100
1000
0010
0000
0012
0000
,  // measure 336
0100
0000
0013
0001
0100
0000
0001
0010
,  // measure 337
0100
0010
0100
1000
0020
0000
0000
0000
,  // measure 338
0130
0000
0010
0000
0100
0001
0100
0000
0010
1000
0010
0000
0100
0000
0001
0000
,  // measure 339
1000
0010
0100
1000
0100
0010
0100
0000
,  // measure 340
0001
0010
0100
1000
0100
0010
0001
0100
,  // measure 341
0001
0010
0100
0001
0100
0000
1000
0001
,  // measure 342
0010
0100
1000
0001
0010
0100
1000
0010
,  // measure 343
0100
0010
1000
0000
0001
0100
1000
0100
,  // measure 344
0001
1000
0100
0001
0100
1000
0100
1000
,  // measure 345
0001
0100
0010
0010
0010
0100
0001
1000
,  // measure 346
0100
0000
1000
0000
0001
0000
0010
0000
0100
0000
1000
0001
0100
0000
0001
1000
,  // measure 347
0100
0010
0001
0010
0001
1000
0010
1000
,  // measure 348
0001
0000
0100
0000
0010
0000
1000
0000
0001
0010
0000
0100
1000
0000
0010
0000
,  // measure 349
0001
0010
0100
0010
1000
0100
0001
0100
,  // measure 350
0010
0100
1000
0010
0200
0000
0001
0000
,  // measure 351
0320
0000
1000
0230
0000
0301
0000
0011
,  // measure 352
0000
1001
1100
0100
1000
0001
0100
0001
,  // measure 353
0010
0000
0100
0000
1000
0000
0001
0000
0100
0010
0100
0010
1000
0010
1000
0010
,  // measure 354
1000
1010
0000
0011
0000
1001
1001
0000
,  // measure 355
1100
0000
1100
0000
0000
0000
0101
0000
0100
0001
0100
0001
1000
0000
0100
0000
,  // measure 356
0010
0000
0001
0000
1000
0000
0010
0000
0100
0000
1000
0000
0100
0000
0001
0100
,  // measure 357
0001
0000
1000
0100
1000
0000
0001
0000
0101
0000
0101
0000
0000
0000
0110
0000
,  // measure 358
0000
1010
0000
1001
0000
1010
0000
0011
,  // measure 359
0001
0010
0001
0010
0100
0000
1000
0000
0100
0000
0001
0000
0100
0000
0010
0000
,  // measure 360
0001
1000
0010
0100
0001
0010
1000
0010
,  // measure 361
0100
1000
0100
0010
0100
0001
0100
1000
,  // measure 362
0001
0000
0100
0000
0010
0000
0100
0000
0001
0000
0010
0000
0100
1000
0100
1000
,  // measure 363
0001
0100
0010
1000
0100
0010
0100
1000
,  // measure 364
0010
0100
0001
0010
0200
1000
0000
1000
,  // measure 365
0010
1000
0010
1000
,  // measure 366
0310
0001
0200
0010
0000
0010
0001
0000
,  // measure 367
0010
0000
0001
0000
0310
0000
1000
0100
,  // measure 368
0020
0000
0000
0000
0001
0000
0000
0000
0031
1000
0001
1000
0001
1000
0001
1000
,  // measure 369
0001
0000
0000
1000
0000
0000
0001
0000
0000
1000
0000
0000
0001
0000
0000
1000
0000
0000
0001
0000
0000
1000
0000
0000
0001
0000
0000
1000
0000
0000
0001
0000
0000
1000
0000
0000
0010
0000
0000
0000
0100
0000
0000
0000
0001
0000
0000
0000
,  // measure 370
0010
0100
1000
0010
0100
0010
0100
0010
0100
0002
0000
0000
,  // measure 371
0000
0000
0000
0000
1003
0001
1000
0001
0020
0000
0100
0000
0130
0000
0000
0000
,  // measure 372
1000
0100
1000
0100
0010
0001
1000
0010
0100
0000
0000
1001
0000
0000
1100
0000
,  // measure 373
0000
0110
0000
0001
0010
0000
0001
1000
0010
0000
0100
0000
0010
1000
0001
1000
,  // measure 374
0100
0000
2000
0000
0000
0000
3001
0000
0100
0001
0000
1000
0100
0000
0010
0000
,  // measure 375
0002
0000
0000
0000
1003
0001
0020
0000
0000
0000
1030
0001
0020
0000
0000
0000
,  // measure 376
1030
0001
0010
0000
0001
0000
0100
0000
0010
0000
1000
0000
0100
0000
0001
0000
,  // measure 377
0100
1000
0010
0100
0001
0010
1000
0001
,  // measure 378
0100
0000
1000
0000
0001
0000
0100
0000
0001
0010
0100
1000
0000
0000
1000
0010
,  // measure 379
0100
0001
0000
0000
0001
0010
0100
1000
0000
0000
1000
0010
0100
0001
0000
0000
,  // measure 380
0001
0000
0010
0000
0100
1000
0001
1000
0010
0000
0100
0000
0010
0000
0100
0000
,  // measure 381
1000
0000
0100
0000
0010
0000
0000
1010
0000
0000
0011
0000
0001
0000
1000
0000
,  // measure 382
1100
0100
1000
1100
0000
1001
0000
0101
,  // measure 383
0100
0001
0101
0000
1001
0000
1010
0010
,  // measure 384
1000
1010
0000
1001
0000
0011
0010
0001
,  // measure 385
0011
0000
1001
0000
1010
0010
0100
0101
,  // measure 386
0000
1001
0000
0011
0010
0100
1100
0000
,  // measure 387
1001
0000
0110
0010
0100
0110
0000
1001
,  // measure 388
0000
0000
1000
0001
1000
0001
1000
0001
1000
0001
1000
0001
0020
0000
0000
0000
,  // measure 389
0130
0000
1000
0100
0010
0001
0010
0100
0010
0001
1000
0001
1000
0010
0100
0001
,  // measure 390
0100
0010
1000
0001
0100
0010
1000
0100
2000
0000
0000
0000
3100
0010
0001
0000
,  // measure 391
0010
0001
1000
0010
0100
0001
0100
0001
1000
0100
0010
0001
1000
0010
1000
0010
,  // measure 392
0100
0001
0010
0100
2000
0000
0000
0000
3100
1000
0100
1000
0001
1000
0001
0100
,  // measure 393
0001
0100
0010
1000
0100
0010
0001
1000
0100
0010
0001
0100
0010
1000
0100
0010
,  // measure 394
0002
0000
0000
0000
0103
0000
0010
1000
0001
0010
0001
0010
0100
1000
0001
0010
,  // measure 395
0100
1000
0001
0100
0010
0100
0001
0000
1000
0100
0010
0100
1000
0000
0001
0010
,  // measure 396
0100
0010
0001
0000
1000
0010
0100
0010
1000
0000
0100
0010
0001
0100
0010
0000
,  // measure 397
1000
0100
0010
0001
0100
0000
0010
1000
0100
0010
0001
0100
0020
0000
0000
0000
,  // measure 398
0000
0000
0000
0000
,  // measure 399
0000
0000
0000
0000
,  // measure 400
0000
0000
0000
0000
0000
0000
0000
0000
0000
0000
0031
0000
0000
0000
0000
0010
,  // measure 401
0000
0000
1000
0001
0100
0001
0010
0002
,  // measure 402
0000
0000
0000
0000
,  // measure 403
0023
0000
0000
0000
,  // measure 404
0000
0000
0000
0000
0000
0000
0031
1000
,  // measure 405
0100
1000
0010
2000
0000
0000
0000
0000
,  // measure 406
0000
0000
3020
0000
,  // measure 407
0000
0000
0000
0000
0000
0000
0000
0000
0000
0000
0130
0000
0000
0000
0000
0001
,  // measure 408
0000
0000
1000
0100
1000
0001
0100
0020
,  // measure 409
0000
0000
0000
0000
,  // measure 410
2030
0000
0000
0000
,  // measure 411
0000
0000
0000
3002
,  // measure 412
0000
0000
0000
0000
,  // measure 413
0000
0000
0023
0000
,  // measure 414
0000
0000
0000
0230
0000
0000
0000
0000
,  // measure 415
0000
2300
0000
0000
,  // measure 416
0000
0000
0000
0000
,  // measure 417
3020
0000
0000
0000
0000
0000
0000
0230
,  // measure 418
0000
0000
0000
0000
0000
0000
0301
0000
0000
1000
0000
0000
0100
0000
0000
0000
;
