#TITLE:Quon;
#SUBTITLE:;
#ARTIST:DJ Noriken;
#TITLETRANSLIT:;
#SUBTITLETRANSLIT:;
#ARTISTTRANSLIT:;
#GENRE:;
#CREDIT:;
#BANNER:;
#BACKGROUND:Quon-bg.png;
#LYRICSPATH:;
#CDTITLE:;
#MUSIC:Quon.ogg;
#OFFSET:-0.080000;
#SAMPLESTART:97.491997;
#SAMPLELENGTH:15.000000;
#SELECTABLE:YES;
#BPMS:0.000000=170.000000
,204.000000=85.000000
,220.000000=170.000000
;
#STOPS:
;
#BGCHANGES:;
#KEYSOUNDS:;
#ATTACKS:;

//---------------dance-single - ----------------
#NOTES:
     dance-single:
     :
     Challenge:
     17:
     0.852304,1.013595,0.540907,0.419809,0.702372,739.000000,672.000000,67.000000,52.000000,88.000000,0.000000,0.852304,1.013595,0.540907,0.419809,0.702372,739.000000,672.000000,67.000000,52.000000,88.000000,0.000000:
// measure 0
0000
0000
0000
0000
,  // measure 1
0000
0000
0000
0000
,  // measure 2
0000
0000
0000
0000
,  // measure 3
0000
0000
0000
0000
,  // measure 4
0000
0000
0000
0000
,  // measure 5
1010
0000
0101
0000
1010
0000
0101
1000
,  // measure 6
0100
0000
0100
0000
0010
0000
0001
1000
0010
0000
1000
0000
0100
0010
0100
0000
,  // measure 7
1000
0100
1000
0100
0010
0100
0010
0100
0010
0001
0010
0001
1000
0001
1000
0001
,  // measure 8
0010
0100
1000
0010
0001
0000
1010
0000
,  // measure 9
1001
0000
0010
0100
0002
0000
0003
0000
,  // measure 10
0010
0100
0002
0000
0013
1000
0010
0100
,  // measure 11
0000
0000
0010
0100
2000
0000
3000
0000
,  // measure 12
0010
0100
2000
0010
3001
0100
0001
0010
,  // measure 13
0110
0000
0001
0100
0020
0000
0030
0000
,  // measure 14
0001
0100
0020
0000
0031
0100
0010
1000
,  // measure 15
0100
0000
0001
0010
2000
0000
3010
0000
,  // measure 16
0001
0000
0010
0000
1000
0000
0010
0000
0001
0000
1000
0000
2200
3300
0202
0303
,  // measure 17
0001
0100
1000
0100
0010
0100
0001
1000
,  // measure 18
0001
0100
0010
0100
1000
0100
0001
0010
,  // measure 19
1000
0010
0100
1000
0100
0001
0100
1000
,  // measure 20
0001
0100
0010
0100
1000
0100
0001
0010
,  // measure 21
0100
1000
0100
0100
0010
0001
1000
0001
,  // measure 22
0010
0001
0100
0100
0010
1000
0001
0100
,  // measure 23
0101
0010
1000
0100
0011
0100
1000
0010
,  // measure 24
0100
0001
0100
0001
0010
0000
0001
0000
0010
0000
1010
0000
1001
0000
0000
0000
,  // measure 25
2200
3300
MMMM
0000
0202
0303
MMMM
0000
,  // measure 26
0220
0330
MMMM
0000
2002
3003
MMMM
0000
,  // measure 27
0022
0033
MMMM
0000
2020
3030
MMMM
0000
,  // measure 28
0220
0330
MMMM
0000
2002
3003
MMMM
0000
,  // measure 29
0001
0000
1000
0010
0000
0100
0001
0100
0010
0000
1000
0100
0000
0010
0001
0010
,  // measure 30
0100
1000
0100
1000
0001
0100
0001
0100
0010
1000
0010
1000
0001
0100
0010
0100
,  // measure 31
0002
1000
0103
0000
1002
0103
0000
1000
,  // measure 32
0010
0100
0001
0010
1000
0000
0011
0000
,  // measure 33
MMMM
0000
0000
0000
0010
1000
0010
0100
0010
1000
0010
0100
0000
1000
0100
0000
,  // measure 34
0001
0100
0010
1000
0000
0010
0100
0000
0010
1000
0001
0010
0100
0000
1000
0000
,  // measure 35
1001
0000
0000
0000
0100
0001
0100
0010
0100
0001
0100
0010
0000
0001
0010
0000
,  // measure 36
1000
0010
0100
0001
0000
0100
0010
0000
1000
0000
0001
0010
0200
0000
0300
0000
,  // measure 37
0110
0000
0000
0000
0010
0001
0010
0100
0010
0001
0010
0100
0000
0001
0100
0000
,  // measure 38
1000
0100
0010
0001
0000
1000
0100
0000
1000
0000
0010
0100
0001
1000
0001
0000
,  // measure 39
0110
0000
0001
0010
0100
0000
0010
0000
0110
0000
1000
0100
0010
0000
0001
0000
,  // measure 40
0100
0010
1000
0100
0001
0000
1100
1001
,  // measure 41
MMMM
0000
0000
0000
0010
0100
0001
1000
0010
0100
0001
1000
0000
0100
0001
0000
,  // measure 42
0100
1000
0001
1000
0000
0010
0100
0000
0001
0100
0001
0100
0010
0000
1000
0000
,  // measure 43
1100
0000
0000
0000
0010
0100
1000
0001
0010
0100
1000
0010
0100
0000
0000
0000
,  // measure 44
0101
0000
MMMM
0000
1100
0000
MMMM
0000
0100
0001
1000
0100
0010
0000
0000
0000
,  // measure 45
0101
0000
0100
0000
0010
1000
0001
0100
0010
1000
0001
0100
0000
1000
0100
0000
,  // measure 46
0001
0010
0100
1000
0000
0100
0001
0000
0100
1000
0001
1000
0010
0000
0100
0000
,  // measure 47
0001
0100
0010
1000
0001
0100
0010
1000
0001
0010
0100
1000
0001
0010
0100
1000
,  // measure 48
0010
1000
0001
0010
1000
0000
0011
1001
,  // measure 49
0210
0000
0301
0100
0010
0010
1000
0001
,  // measure 50
0100
0000
0001
0000
1000
0000
0100
0000
0001
0000
0100
0000
0100
0010
0100
0000
,  // measure 51
MMMM
0000
2001
0000
3010
0100
0010
0000
1000
0100
0010
0100
2000
0000
3001
0100
,  // measure 52
0020
0000
0031
0010
2000
0000
3001
0010
0100
1000
0001
1000
0200
0000
1300
0001
,  // measure 53
MMMM
0000
0100
0010
0100
0000
0001
0010
0100
0010
0001
0100
2000
0000
3100
0001
,  // measure 54
2000
0000
0000
0000
3100
0000
1000
0000
0002
0000
0000
0000
0103
0000
0010
0000
2000
0000
0001
0000
3100
0000
0000
0000
0001
1000
0100
1000
0010
0000
0000
0000
,  // measure 55
1001
0000
0000
0000
0001
0000
0100
0000
0010
0000
0000
0010
0000
0000
0010
0000
,  // measure 56
1000
0000
1000
0000
1000
0000
0000
0000
0001
0000
0010
0100
0000
0010
0100
0000
,  // measure 57
1000
0000
0000
0000
1000
0000
0100
0000
0010
0000
0000
0010
0000
0000
0010
0000
,  // measure 58
0001
0000
0001
0000
1000
0000
1000
0000
0010
0100
0001
0010
0100
1000
0100
1000
,  // measure 59
0001
0000
0100
0010
0000
0100
0001
1000
0010
0000
1000
0100
0000
0010
0001
1000
,  // measure 60
0100
0000
1000
0010
0000
0100
0001
0100
0010
0000
1000
0100
0000
0010
0001
0010
,  // measure 61
0100
1000
0100
1000
0001
0010
0001
0010
0100
1000
0100
1000
0010
0100
0001
0100
,  // measure 62
0010
1000
0010
1000
0100
0000
1000
0000
0100
0000
0101
0000
2001
0000
0000
0000
,  // measure 63
3020
0030
0020
0030
0010
0010
0020
0000
,  // measure 64
0130
MMMM
1010
0110
0101
MMMM
0011
1001
,  // measure 65
0210
0000
1300
0010
0100
0001
0010
0100
,  // measure 66
1000
0100
1000
0000
0010
0100
0010
0000
1000
0100
0010
0100
1000
0000
0010
0000
,  // measure 67
0001
0000
0010
0000
1000
0010
1000
0000
0001
0000
0010
0000
1000
0010
1000
0000
,  // measure 68
0010
0000
0001
0000
0100
0010
0100
0001
2000
0000
0100
0000
3002
0000
0103
0000
,  // measure 69
0210
0000
0301
0010
0100
1000
0010
0100
,  // measure 70
0001
0100
0001
0000
0010
0100
0010
0000
0001
0100
0001
0100
1000
0000
0000
0000
,  // measure 71
1001
MMMM
0101
0010
1100
1100
0110
MMMM
,  // measure 72
0101
MMMM
0110
1010
0101
MMMM
MMMM
0000
,  // measure 73
0102
0000
0103
0000
0010
0000
1000
0000
0100
0010
0001
0000
0001
0010
0100
0000
,  // measure 74
1000
0000
0010
0000
0100
0000
0001
0000
0100
0010
1000
0000
1000
0010
0100
0000
,  // measure 75
0102
0000
0013
0000
1000
0000
0010
0000
0001
0010
0100
0000
1000
0010
0100
0000
,  // measure 76
0101
0000
0010
0000
1100
0000
0010
0000
0101
0000
0001
0000
1000
0100
1000
0100
,  // measure 77
0002
0000
0103
0000
1000
0000
0010
0000
1000
0100
0010
0000
0001
0010
0100
0000
,  // measure 78
2100
0000
3001
0000
0100
0000
1000
0000
0100
0001
0010
0000
0100
1000
0010
0000
,  // measure 79
1000
0010
1000
0010
0100
0010
0100
0001
0010
0100
1000
0010
0100
0001
0010
0100
,  // measure 80
1000
1100
1010
0011
0110
0000
MMMM
0000
,  // measure 81
1001
0000
0000
0000
;

//---------------dance-single - Based off WACCA Chart----------------
#NOTES:
     dance-single:
     :
     Hard:
     16:
     0.870757,0.980899,0.896130,0.363296,0.589347,755.000000,644.000000,111.000000,45.000000,0.000000,0.000000,0.870757,0.980899,0.896130,0.363296,0.589347,755.000000,644.000000,111.000000,45.000000,0.000000,0.000000:
// measure 0
0000
0000
0102
0013
,  // measure 1
0100
0000
0001
0100
0010
1000
0001
0000
,  // measure 2
0010
1000
0001
0100
0001
0000
1001
0000
,  // measure 3
0100
0000
1000
0100
0010
0001
1000
0000
,  // measure 4
0100
0000
0001
0000
1000
0000
0010
0000
0100
0010
0100
0010
0100
0000
0000
0000
,  // measure 5
0110
0101
1001
1100
,  // measure 6
0110
1100
1001
0101
,  // measure 7
0120
0031
0120
1030
,  // measure 8
0001
0010
1000
0100
0011
0000
1100
0000
,  // measure 9
1001
0000
0100
0010
2000
0000
3000
0000
,  // measure 10
0010
0100
0010
0100
0010
0010
1000
1000
,  // measure 11
0000
0000
0100
1000
0200
0000
0301
0000
,  // measure 12
1000
0001
1000
0100
0010
0010
0001
0001
,  // measure 13
1001
0010
0100
1000
1000
0100
0010
0001
,  // measure 14
0001
0100
0010
1000
1000
0010
0100
0001
,  // measure 15
0001
0010
0100
1000
1000
0010
0100
0001
,  // measure 16
0001
1000
0100
0010
0000
0110
0110
0000
,  // measure 17
1001
0000
1001
0000
0001
0100
0001
0100
,  // measure 18
1010
0000
1010
0000
1000
0100
1000
0100
,  // measure 19
1001
0000
1001
0000
0001
0100
1000
0100
,  // measure 20
0110
0000
0110
0000
1000
0100
0001
0100
,  // measure 21
0010
0000
0010
0000
0001
0100
0001
0000
0100
0000
0100
0000
1000
0100
1000
0000
,  // measure 22
0001
0000
1000
0000
0001
1000
0100
0000
0010
0000
0100
0000
1000
0001
0100
0000
,  // measure 23
0210
0301
0210
1300
,  // measure 24
1001
0000
0000
0000
0000
0000
0000
0000
0110
0000
0000
0000
0100
0010
0100
0010
,  // measure 25
0200
0000
0000
0000
0000
0000
0301
0100
0001
0000
0000
0101
0000
0000
0101
0000
,  // measure 26
2001
0000
0100
0000
3100
0000
0000
0000
1100
0000
0000
1001
0000
0000
0110
0000
,  // measure 27
1001
0000
0000
0000
0100
0010
0100
0010
0100
0000
0000
0101
0000
0000
1100
0000
,  // measure 28
0001
0000
0001
0000
0001
0000
0001
0100
0001
0000
1000
0000
1000
0100
1000
0100
,  // measure 29
1000
0010
0100
0001
0100
0010
1000
0100
,  // measure 30
1000
0100
1000
0100
1000
0010
1000
0010
0100
0001
0100
0001
0010
0001
0010
0001
,  // measure 31
1000
0000
0000
0000
,  // measure 32
0101
1100
1001
0110
,  // measure 33
2002
0000
3003
0000
0001
0100
0001
0100
0010
1000
0010
1000
0000
0100
0001
0000
,  // measure 34
0100
0010
0100
0010
0000
0100
1000
0000
0002
0000
0000
0000
0010
0000
0000
0000
,  // measure 35
1003
0000
0000
0000
1000
0001
1000
0001
0100
0010
0100
0010
0000
1000
0010
0000
,  // measure 36
0100
0010
0100
0010
0000
0010
1000
0000
0200
0000
0000
0000
0001
0000
0000
0000
,  // measure 37
1300
0000
0000
0000
1000
0100
1000
0100
0010
0001
0010
0001
0000
0100
1000
0000
,  // measure 38
0100
0010
0100
0010
0000
0100
0001
0000
2000
0000
0000
0000
3010
0000
0000
0000
,  // measure 39
1001
0010
1001
0010
,  // measure 40
0101
0010
1100
0010
0101
0000
1100
0000
,  // measure 41
1001
0000
0000
0000
0100
0001
0010
0001
0100
0001
0010
0001
0000
0001
0100
0000
,  // measure 42
0010
1000
0100
1000
0000
0100
0001
0000
0200
0000
0000
0000
2300
0000
0000
0000
,  // measure 43
3001
0000
0000
0000
0100
1000
0001
1000
0100
1000
0001
1000
0010
0000
0000
0000
,  // measure 44
0101
0000
1100
0000
1001
1001
0120
0000
,  // measure 45
0130
0000
0000
0000
1000
0001
1000
0001
1000
0100
1000
0001
1000
0100
1000
0001
,  // measure 46
0100
0001
1000
0100
0010
0100
0010
0000
0200
0000
0000
0000
2300
0000
0000
0000
,  // measure 47
3010
1010
0100
0011
,  // measure 48
0102
0013
2100
3010
,  // measure 49
0001
0010
0100
1000
0100
0010
0001
0100
,  // measure 50
0001
0000
0010
0000
0100
0000
1000
0000
0200
0000
0310
0000
0010
0100
0010
0000
,  // measure 51
0110
0000
0200
0000
0310
0000
0100
0001
0100
0010
0100
0001
0200
0000
1300
0000
,  // measure 52
0102
0000
0103
1000
0100
0010
0100
1000
0100
0010
1000
0200
0000
0000
0300
0000
,  // measure 53
0010
0000
0100
0010
0001
0010
0100
0010
0001
0100
0001
0100
0020
0000
0031
0000
,  // measure 54
2010
0000
3100
0010
0100
1000
0001
1000
0010
0100
0010
1000
0200
0000
0310
0000
,  // measure 55
0200
0000
0000
0000
1300
0000
0100
1000
0100
0000
0000
1100
0000
0000
1100
0000
,  // measure 56
1002
0000
0100
0000
0103
0000
0000
0000
0011
0000
0000
0101
0000
0000
0110
0000
,  // measure 57
1001
0000
0000
0000
0100
0010
0100
0010
0100
0000
0000
1010
0000
0000
0101
0000
,  // measure 58
1100
0010
0101
0010
1100
0010
0101
0000
,  // measure 59
0010
0100
0010
0100
0010
0100
0010
0100
0001
0100
0001
0100
0001
0000
0000
0000
,  // measure 60
0010
0100
0010
0100
0010
0100
0010
0100
1000
0100
1000
0100
1000
0000
0000
0000
,  // measure 61
0010
0100
0010
0100
0001
0100
0001
1000
0100
0010
0100
0010
0100
1000
0100
1000
,  // measure 62
0001
0000
0101
0000
1100
1000
1010
0000
,  // measure 63
0020
0000
0000
0000
0230
0000
0000
0000
0310
0000
0100
0000
0001
1000
0001
1000
,  // measure 64
0001
0001
1000
1000
0200
0300
0110
0000
,  // measure 65
0101
0000
0010
0000
1100
0000
0010
0000
0001
0100
0001
0000
1000
0100
1000
0000
,  // measure 66
1010
0000
0100
0000
0011
0000
0100
0000
1000
0010
1000
0000
0001
0010
0001
0000
,  // measure 67
0100
0001
1000
0001
0100
1000
0001
1000
,  // measure 68
0100
0001
0010
0000
0100
0010
0100
0010
0002
0000
0100
0000
2003
0000
3100
0000
,  // measure 69
0101
0000
0010
0000
1100
0000
0010
0000
0001
0100
0010
1000
0001
0100
0010
0000
,  // measure 70
1010
0100
0011
0100
2002
0000
3003
0000
,  // measure 71
1100
0000
0101
0000
0110
0110
0110
0000
,  // measure 72
2100
3010
0102
0013
0110
0000
1001
0000
,  // measure 73
0001
0100
0001
0000
1000
0100
1000
0000
2001
0000
3100
0000
1002
0000
0103
0000
,  // measure 74
0001
0100
0010
1000
2100
3001
0102
1003
,  // measure 75
0101
0000
0010
0000
1100
0000
0010
0000
0001
0100
0001
0000
1000
0100
1000
0000
,  // measure 76
0010
0000
0100
0000
0001
0100
1000
0000
0210
0000
0000
0000
0310
0000
0000
0000
,  // measure 77
1000
0000
0001
0000
1000
0100
0010
0000
0001
0000
1000
0000
0001
0100
0010
0000
,  // measure 78
0010
1000
0001
0100
0010
1000
0001
0100
0001
0010
0100
1000
0001
0010
0100
1000
,  // measure 79
0010
0000
0000
0000
0100
0010
0100
0010
1000
0000
0000
0000
0100
0010
0100
0010
,  // measure 80
0001
0011
1001
0101
0110
0000
0110
0000
,  // measure 81
1001
0000
0000
0000
;

//---------------dance-single - ----------------
#NOTES:
     dance-single:
     :
     Medium:
     13:
     0.702372,0.882809,0.403662,0.177611,0.314856,609.000000,559.000000,50.000000,22.000000,0.000000,0.000000,0.702372,0.882809,0.403662,0.177611,0.314856,609.000000,559.000000,50.000000,22.000000,0.000000,0.000000:
0000
0000
0000
0000
,
0000
0000
0000
0000
,
0000
0000
0000
0000
,
0000
0000
0000
0000
,
0000
0000
0000
0000
,
0110
0000
0010
0000
0010
0000
0010
0100
,
0110
1000
0010
0100
0001
0010
0100
1000
,
0001
0100
0001
0000
1000
0000
0000
0000
1000
0100
1000
0000
0001
0000
0010
0000
,
0001
0001
1000
1000
0010
0000
0110
0000
,
1001
0000
0001
0010
0002
0000
0003
0000
,
0001
0010
0002
0000
0103
0010
1000
0010
,
0000
0000
1000
0010
2000
0000
3000
0000
,
0010
1000
0010
0100
0001
0010
0100
1000
,
0010
1000
0020
0000
0130
0001
0200
0000
,
0310
1000
0002
0000
0103
0001
2000
0000
,
3100
0010
0002
0000
0103
0010
2000
0000
,
3100
0010
0001
0010
0000
0110
0110
0000
,
1000
0000
0100
0000
0010
0001
1000
0001
,
0100
0000
0100
0000
0010
1000
0001
1000
,
0100
0000
0010
0000
0001
1000
0010
1000
,
0001
0000
0001
0000
1000
0001
0100
0001
,
1001
0000
1100
0000
1000
0100
0001
0100
,
1000
0000
1001
0000
0001
0010
1000
0010
,
0001
1000
1001
0000
1000
1001
0000
1000
,
0001
0100
0001
0000
1000
0000
0100
0000
0010
0000
0100
0000
0110
0000
0000
0000
,
1001
0000
0000
0000
0001
0000
0010
0000
0100
0000
0000
0100
0000
0000
0100
0000
,
1000
0000
0001
0000
0001
0000
0000
0000
1000
0000
0000
0001
0000
0000
1000
0000
,
1010
0000
0000
0000
0010
0000
0100
0000
0001
0000
0000
0001
0000
0000
0001
0000
,
1000
0000
0010
0000
1000
0000
0010
0100
0001
0000
1000
0100
0000
1000
0100
0000
,
0010
0000
0001
0010
0000
0001
0010
0000
0100
0000
1000
0010
0000
1000
0010
0000
,
0100
0000
0001
0000
0100
0000
0001
0000
1000
0010
1000
0000
0001
1000
0001
1000
,
0010
0000
0000
0000
,
0000
0000
0000
0000
0000
0000
0110
0100
,
1001
0000
0000
0000
0001
0000
0010
0000
0100
0000
1000
0100
0000
0100
1000
0000
,
0001
0000
1000
0010
0000
0010
1000
0000
0001
0000
0100
0000
0010
0000
0100
0000
,
0001
0000
0000
0000
1000
0000
0100
0000
0010
0000
0001
0010
0000
0001
0010
0000
,
0100
0000
1000
0001
0000
1000
0001
0000
0100
0000
0000
0010
0100
0000
0000
0000
,
0110
0000
0000
0000
0001
0000
0001
0000
1000
0000
0100
0010
0000
0100
0010
0000
,
0001
0000
0100
0010
0000
0100
0010
0000
1000
0000
0010
0000
0100
0000
0010
0000
,
1010
1000
0100
1000
1010
1000
0100
0010
,
0001
0100
0001
0010
0100
0000
0110
0010
,
1001
0000
0000
0000
1001
0000
1000
0000
0010
0000
0100
0001
0000
0100
0001
0000
,
0010
0000
0100
1000
0000
1000
0100
0000
0010
0000
0001
0000
0020
0000
0000
0000
,
0130
0000
0000
0000
1000
0000
0001
0100
0000
0100
0001
0000
0010
0000
0000
0000
,
1100
0000
0011
0000
1100
0100
0020
0030
,
1001
0000
0001
0000
0100
0000
0010
0000
1000
0000
0100
0010
0000
0100
0010
0000
,
0001
0000
0100
0010
0000
0100
0010
0000
1000
0000
0100
0000
0001
0000
0100
0000
,
1000
0000
0001
0100
0000
0001
0100
0000
0010
0000
1000
0100
0000
1000
0100
0000
,
0010
0001
1000
0010
0100
0000
0110
0010
,
1002
0000
0103
0010
1000
0001
1000
0010
,
0100
0001
0010
0001
0200
0000
0310
0000
,
0000
0000
0110
0000
0101
0000
0001
0010
0100
0010
0001
0010
0200
0000
1300
0001
,
0100
0000
0100
0001
1000
0000
1000
0001
0100
0010
0100
0001
0000
0001
0010
0100
,
0000
0000
0100
0010
0100
0000
1000
0100
1000
0010
0100
0001
0020
0000
0031
0100
,
0010
0000
0010
0100
0001
0000
0001
1000
0100
0010
0100
1000
0200
0000
0300
0000
,
0110
0000
0000
0000
0001
0000
0010
0000
0100
0000
0000
0100
0000
0000
0100
0000
,
1000
0000
0001
0000
0001
0000
0000
0000
0101
0000
0000
0110
0000
0000
1010
0000
,
1001
0000
0000
0000
0001
0000
1000
0000
0010
0000
0000
0010
0000
0000
0010
0000
,
0200
0001
0320
1000
0230
0001
0302
1000
,
1003
0000
0100
1000
0000
0100
1000
0000
0001
0000
0100
0001
0000
0100
0001
0000
,
0001
0000
0010
0001
0000
0010
0001
0000
1000
0000
0010
1000
0000
0010
1000
0000
,
1000
0000
0001
0000
0100
0010
0100
0000
0001
0000
1000
0000
0100
0010
0100
0000
,
1000
0100
1000
0000
0001
0000
0100
0000
0010
0000
0100
0000
0110
0000
0000
0000
,
1000
0000
1000
0000
1000
0001
1000
0000
,
1001
0001
1000
1000
0020
0000
1030
0001
,
0010
0100
0010
0001
0100
0010
0001
0010
,
0100
0001
0100
0010
1000
0001
1000
0100
,
0010
0001
0010
0100
1000
0010
0100
0001
,
0100
1000
0001
0010
1000
0010
0001
0010
,
0200
0000
0310
1000
0100
1000
0001
0100
,
1000
0100
0001
1000
0100
0010
0011
0000
,
1010
0000
0110
0000
0101
0100
0110
0000
,
1000
0010
0100
0001
0110
0000
1010
0000
,
0001
0010
0100
1000
0010
0001
0010
1000
,
0100
0010
0001
0010
1000
0001
0100
1000
,
0001
0100
0010
0100
0001
0010
0100
1000
,
1001
0001
1001
1000
0110
0010
0110
0000
,
1000
0100
0010
0001
1000
0100
0001
0100
,
1000
0100
0010
0001
0100
0001
1000
0010
,
0100
0001
0100
0000
0010
0000
0000
0000
1000
0100
1000
0000
0100
0000
0000
0000
,
1000
1000
0001
0001
0100
0000
0110
0000
,
1001
0000
0000
0000
;

//---------------dance-single - ----------------
#NOTES:
     dance-single:
     :
     Easy:
     7:
     0.350609,0.425056,0.355223,0.322930,0.000000,304.000000,260.000000,44.000000,40.000000,0.000000,0.000000,0.350609,0.425056,0.355223,0.322930,0.000000,304.000000,260.000000,44.000000,40.000000,0.000000,0.000000:
0000
0000
0000
0000
,
0000
0000
0000
0000
,
0000
0000
0000
0000
,
0000
0000
0000
0000
,
0000
0000
0000
0000
,
0001
0100
0001
0100
,
1000
0010
1000
0010
,
0100
0100
0010
0010
,
1000
0001
1000
1001
,
0000
0020
0002
0033
,
0020
0032
1003
0010
,
0000
0200
0002
0303
,
0200
0302
1003
0010
,
2000
0000
3200
0000
,
2300
0000
3002
0000
,
0203
0000
0320
0000
,
0230
0000
0000
0000
0300
0010
0010
0000
,
1000
0010
0001
0001
,
1000
0010
0001
0001
,
1000
0100
0001
0001
,
1000
0100
0001
0001
,
0010
0100
1000
1000
,
0010
0100
0001
0001
,
0010
0100
1000
0010
,
0200
0000
0000
0000
0300
0010
0010
0000
,
0110
0000
0110
0000
,
0101
0000
0101
0000
,
1001
0000
1001
0000
,
1100
0000
1100
0000
,
0220
0330
0220
0330
,
2002
3003
2002
3003
,
0000
0000
0000
0000
,
0000
0000
0000
0110
,
1001
0001
0010
0100
,
0010
0001
0200
0300
,
1001
1000
0010
0100
,
0010
1000
0200
0300
,
0110
0001
0100
0010
,
1000
0100
0020
0030
,
1100
0000
1001
0000
,
1100
0100
0010
0001
,
0002
0103
1000
0100
,
0001
0010
0200
0300
,
1001
1000
0010
0002
,
0013
0110
0000
0000
,
1001
1000
0100
0001
,
0100
1000
0010
0001
,
0010
0110
1000
1001
,
0001
0010
0100
1000
,
1000
0010
0100
0010
,
1000
0001
0010
0100
,
0000
1000
0002
0003
0001
0010
0200
0300
,
1000
0001
2000
3000
0010
0100
0001
0100
,
0010
0000
0200
0300
0001
1000
0200
0300
,
0010
0001
2000
3000
0001
0100
0020
0030
,
1000
1000
0010
0010
,
0001
0001
0100
0100
,
1000
1000
0001
0001
,
0010
0100
1000
1000
,
0010
1000
1100
0000
,
0010
0001
0101
0000
,
0001
1001
1000
1001
,
0002
0000
0000
0000
0003
1000
1000
0000
,
0001
0001
0001
0000
,
0101
0100
0110
0000
,
0010
1000
0010
0100
,
0001
0010
0001
0100
,
0010
1000
0010
0001
,
0010
0100
0220
0330
,
0100
0001
0100
0010
,
1000
0100
1000
0001
,
1001
0000
1001
0000
,
0010
0100
0110
0000
,
1000
0100
0010
0001
,
0100
0010
1000
0001
,
0010
0100
1000
0100
,
0110
0110
1001
0000
,
0001
0100
0010
1000
,
0100
0010
0001
1000
,
1010
0000
0011
0000
,
1001
1001
0110
0000
,
1001
0000
0000
0000
;

//---------------dance-single - ----------------
#NOTES:
     dance-single:
     :
     Beginner:
     3:
     0.172998,0.228876,0.048439,0.096879,0.000000,150.000000,144.000000,6.000000,12.000000,0.000000,0.000000,0.172998,0.228876,0.048439,0.096879,0.000000,150.000000,144.000000,6.000000,12.000000,0.000000,0.000000:
0000
0000
0000
0000
,
0000
0000
0000
0000
,
0000
0000
0000
0000
,
0000
0000
0000
0000
,
0000
0000
0000
0000
,
0001
0001
0001
0000
,
1000
1000
1000
0000
,
0001
0000
1000
0000
,
1001
0000
0000
0000
,
0100
0000
1000
0000
,
0100
0000
1000
0000
,
0001
0000
0100
0000
,
0001
0000
0100
0000
,
0002
0000
0003
0000
,
0002
0000
0003
0000
,
2000
0000
3000
0000
,
2000
0000
3000
0000
,
0001
0000
0010
0000
,
0001
0000
0001
0000
,
1000
0000
0100
0000
,
1000
0000
1000
0000
,
0001
0000
0100
0000
,
0001
0000
0100
0000
,
0010
0000
0010
0000
,
0200
0000
0300
0000
,
0110
0000
0000
0000
,
0000
0000
0000
0000
,
0110
0000
0000
0000
,
0000
0000
0000
0000
,
0001
0000
1000
0000
,
0001
0001
1000
1000
,
0000
0000
0000
0000
,
0000
0000
0000
0000
,
1001
0000
0001
0000
,
0001
0000
0010
0000
,
0001
0000
0100
0000
,
0100
0000
0200
0000
,
0300
0000
1000
0000
,
1000
0000
0010
0000
,
1000
0000
0100
0000
,
2000
0000
3000
0000
,
1001
0000
1000
0000
,
1000
0000
0010
0000
,
1000
0000
0200
0300
,
0010
0010
0000
0000
,
0001
0000
0001
0000
,
0100
0000
0001
0000
,
0010
0000
0100
0000
,
2000
0000
0000
3000
,
0001
0000
0010
0000
,
1000
0000
0100
0000
,
0000
0001
0000
1000
,
0000
0010
0000
0100
,
0000
0001
0000
0010
,
0000
0200
0300
0000
,
1000
0000
1000
0000
,
0001
0000
0001
0000
,
0100
0000
0100
0000
,
0010
0010
0010
0000
,
1000
1000
1000
0000
,
0001
0001
0001
0000
,
1000
0000
0001
0000
,
0020
0000
0030
0000
,
0100
0000
0100
0000
,
0100
0100
0100
0000
,
0001
0000
0010
0000
,
0100
0000
1000
0000
,
0010
0000
1000
0000
,
0002
0000
0003
0000
,
0001
0000
0010
0000
,
0100
0000
1000
0000
,
0001
0001
0001
0000
,
1000
1000
1000
0000
,
0001
0000
0010
0000
,
0100
0100
0100
0000
,
1000
0000
0010
0000
,
0100
0100
0100
0000
,
0001
0000
0010
0000
,
0100
0000
1000
0000
,
0001
0000
0001
0000
,
1000
1000
1000
0000
,
1001
0000
0000
0000
;
